<?xml version="1.0" standalone="no"?>
<!DOCTYPE svg PUBLIC "-//W3C//DTD SVG 1.1//EN" "http://www.w3.org/Graphics/SVG/1.1/DTD/svg11.dtd" >
<svg xmlns="http://www.w3.org/2000/svg" xmlns:xlink="http://www.w3.org/1999/xlink" version="1.1">
<metadata>
Created by FontForge 20201107 at Sun Oct 27 20:02:33 2024
 By 
Jen Wagner LLC 2022
</metadata>
<defs>
<font id="PerfectlyNineties-Regular" horiz-adv-x="0" >
  <font-face 
    font-family="Perfectly Nineties"
    font-weight="400"
    font-stretch="normal"
    units-per-em="2048"
    panose-1="0 0 0 0 0 0 0 0 0 0"
    ascent="1638"
    descent="-410"
    x-height="1024"
    cap-height="1491"
    bbox="-184 -532 1798 2253"
    underline-thickness="102"
    underline-position="-255"
    unicode-range="U+0020-2265"
  />
<missing-glyph horiz-adv-x="1392" 
d="M1143 2253v-2785h-885v2785h885zM465 -340h463v92h-285l195 131h90v92h-463v-92h194l-194 -131v-92zM465 39h463v313h-463v-313zM465 520h463v316h-279v-156h94v63h93v-131h-279v224h-92v-316zM465 897h463v279h-92v-185h-371v-94zM465 1055h278v194h185v92h-463v-92h184
v-102h-184v-92zM465 1417h463v94h-185v195h-278v-289zM465 1780h463v92h-185v102h185v92h-461v-92h182v-102h-184v-92zM557 131v131h279v-131h-279zM557 1511v101h92v-101h-92z" />
    <glyph glyph-name="f_i.liga" unicode="fi" horiz-adv-x="946" 
d="M635 737q0 82 -96 107q-15 3 -15 20v17q0 13 17 20q50 16 118 57t111 84q9 9 31 2q18 -8 18 -24v-854q0 -38 31 -67.5t70 -37.5q16 -3 16 -26v-10q0 -25 -18 -25q-32 0 -97 5t-96 5t-94 -5t-94 -5q-19 0 -19 25v10q0 22 25 28q36 10 64 38.5t28 64.5v571zM20 25v10
q0 22 25 28q36 10 64 38.5t28 64.5v758q-21 0 -47.5 -3t-36.5 -3q-17 0 -22.5 6t-5.5 18v16q0 26 34 33q64 17 78 45v97q0 104 35.5 193t95 147.5t135 91t156.5 32.5q221 0 221 -139q0 -43 -28 -72.5t-74 -29.5q-27 0 -47.5 15t-35.5 36t-32.5 42.5t-47.5 36.5t-71 15
q-122 0 -122 -305v-180q26 0 77 1t74 1q29 0 40 -7t11 -24v-33q0 -21 -10 -27.5t-39 -6.5l-153 2v-756q0 -40 36.5 -69t100.5 -36q16 -3 16 -26v-10q0 -25 -18 -25q-55 0 -129 5t-101 5q-31 0 -94 -5t-94 -5q-19 0 -19 25z" />
    <glyph glyph-name="f_l.liga" unicode="fl" horiz-adv-x="1007" 
d="M137 1133q0 104 35.5 193t95 147.5t135 91t156.5 32.5q117 0 182 -57q60 27 90 47q11 9 25 4l10 -4q15 -6 15 -22v-1399q0 -38 30.5 -67.5t69.5 -37.5q16 -3 16 -26v-10q0 -25 -18 -25q-31 0 -96 5t-97 5t-94 -5t-94 -5q-18 0 -18 25v10q0 22 24 28q36 10 64 38.5
t28 64.5v754q-129 0 -246 1t-128 1v-756q0 -40 36.5 -69t100.5 -36q16 -3 16 -26v-10q0 -25 -18 -25q-55 0 -129 5t-101 5q-31 0 -94 -5t-94 -5q-19 0 -19 25v10q0 22 25 28q36 10 64 38.5t28 64.5v758q-21 0 -47.5 -3t-36.5 -3q-17 0 -22.5 6t-5.5 18v16q0 26 34 33
q64 17 78 45v97zM322 1016q8 0 124 1t250 1v252q0 99 -60.5 165t-154.5 66q-83 0 -121 -68t-38 -237v-180z" />
    <glyph glyph-name=".notdef" horiz-adv-x="1392" 
d="M1143 2253v-2785h-885v2785h885zM465 -340h463v92h-285l195 131h90v92h-463v-92h194l-194 -131v-92zM465 39h463v313h-463v-313zM465 520h463v316h-279v-156h94v63h93v-131h-279v224h-92v-316zM465 897h463v279h-92v-185h-371v-94zM465 1055h278v194h185v92h-463v-92h184
v-102h-184v-92zM465 1417h463v94h-185v195h-278v-289zM465 1780h463v92h-185v102h185v92h-461v-92h182v-102h-184v-92zM557 131v131h279v-131h-279zM557 1511v101h92v-101h-92z" />
    <glyph glyph-name=".null" 
 />
    <glyph glyph-name="nonmarkingreturn" horiz-adv-x="682" 
 />
    <glyph glyph-name="space" unicode=" " horiz-adv-x="409" 
 />
    <glyph glyph-name="space" unicode="&#xa0;" horiz-adv-x="409" 
 />
    <glyph glyph-name="exclam" unicode="!" horiz-adv-x="307" 
d="M145 412q-23 0 -26 24l-78 959q-5 56 23 86t83 30h13q55 0 83 -30t23 -86l-78 -959q-3 -24 -26 -24h-17zM43 106q0 56 30 90.5t81 34.5q49 0 78.5 -34.5t29.5 -90.5q0 -57 -29.5 -91.5t-78.5 -34.5q-51 0 -81 34.5t-30 91.5z" />
    <glyph glyph-name="quotedbl" unicode="&#x22;" horiz-adv-x="503" 
d="M121 1149q-20 0 -23 20q-9 52 -22.5 125.5t-19.5 108t-11 71.5t-4 58q1 49 24.5 76.5t61.5 25.5q42 0 65 -27t25 -75q-2 -56 -63 -365q-3 -18 -23 -18h-10zM246 1532q1 49 24.5 76.5t61.5 25.5q42 0 65 -27t25 -75q0 -13 -1.5 -28t-5.5 -38t-6.5 -40t-9.5 -53t-11.5 -57
t-14.5 -71t-15 -78q-3 -18 -22 -18h-10q-20 0 -23 20q-9 52 -22.5 125.5t-19.5 108t-11 71.5t-4 58z" />
    <glyph glyph-name="numbersign" unicode="#" horiz-adv-x="1523" 
d="M33 522q-10 0 -16.5 7t-6.5 18v33q0 24 23 24h387l94 328h-367q-22 0 -22 24v33q0 25 22 25h390l122 424q3 7 14.5 10t20.5 0l33 -8q10 -3 18 -12t5 -17l-115 -397h393l123 424q3 7 14.5 10t20.5 0l33 -8q10 -3 17.5 -12t4.5 -17l-115 -397h365q22 0 22 -25v-33
q0 -24 -22 -24h-387l-94 -328h366q23 0 23 -24v-33q0 -11 -6.5 -18t-16.5 -7h-389l-129 -446q-3 -7 -15 -10t-22 0l-30 8q-11 3 -18.5 11t-6.5 17l121 420h-391l-129 -446q-3 -7 -15 -10t-22 0l-31 8q-11 3 -18.5 11t-6.5 17l121 420h-362zM518 604h393l95 328h-394z" />
    <glyph glyph-name="dollar" unicode="$" horiz-adv-x="933" 
d="M461 -152q-11 0 -21 7.5t-10 17.5v96q-111 6 -221 35t-141 57q-27 24 -27 66v324q0 10 7 17t18 7h14q23 0 29 -20q42 -177 125 -277.5t196 -124.5v635q-154 118 -202 163q-155 142 -169 281q-2 15 -2 31q0 149 100.5 245t272.5 105v107q0 10 10 17.5t21 7.5h33
q11 0 20.5 -7.5t9.5 -17.5v-109q83 -7 156 -31t108 -53q27 -24 27 -65v-252q0 -11 -7 -18t-17 -7h-17q-23 0 -29 21q-67 239 -221 307v-530q150 -114 206 -168q162 -155 172 -325q1 -13 1 -25q0 -168 -95 -273.5t-284 -120.5v-98q0 -10 -9.5 -17.5t-20.5 -7.5h-33zM250 1237
q0 -77 46.5 -143t133.5 -138v480h-12q-70 0 -119 -56.5t-49 -142.5zM524 49q93 9 148 78t55 160q0 89 -53.5 167t-149.5 158v-563z" />
    <glyph glyph-name="percent" unicode="%" horiz-adv-x="1179" 
d="M274 -39q-11 3 -19 11.5t-5 17.5l590 1540q3 7 14 10t20 0l33 -8q10 -3 18 -12t5 -17l-588 -1540q-3 -7 -15 -10t-22 0zM41 1153q0 144 53 214.5t148 70.5t147.5 -69t52.5 -210q0 -144 -52 -214.5t-146 -70.5q-96 0 -149.5 69.5t-53.5 209.5zM158 1163q0 -221 90 -221
q78 0 78 209q0 221 -88 221q-80 0 -80 -209zM737 334q0 144 53 214t148 70t148 -68.5t53 -209.5q0 -143 -52.5 -214t-146.5 -71q-96 0 -149.5 69.5t-53.5 209.5zM854 344q0 -221 90 -221q78 0 78 209q0 221 -88 221q-80 0 -80 -209z" />
    <glyph glyph-name="ampersand" unicode="&#x26;" horiz-adv-x="1241" 
d="M1020 -20q-103 0 -242 159q-134 -170 -338 -170q-188 0 -304 123t-116 314q0 130 68 235t207 199q-127 221 -127 364q0 138 89.5 223.5t227.5 85.5q151 0 231.5 -75.5t80.5 -200.5q0 -101 -63.5 -178.5t-231.5 -173.5q34 -53 127 -183q33 -45 70 -99t80.5 -117.5
t66.5 -96.5q24 63 39 131q16 74 -14 120.5t-115 53.5q-19 3 -19 27v10q0 25 19 25q38 0 103 -3t104 -3q41 0 105 3t106 3q18 0 18 -25v-10q0 -24 -27 -27q-84 -10 -135 -58t-69 -126q-20 -98 -64 -195q68 -90 115 -137t78 -47q35 0 71 33q12 12 27 4l18 -10q15 -9 6 -29
q-67 -149 -192 -149zM217 434q0 -174 72.5 -267t191.5 -93q149 0 248 127q-55 71 -157.5 221.5t-114.5 167.5q-73 102 -123 184q-117 -130 -117 -340zM360 1257q0 -132 107 -313q84 68 115.5 129t31.5 160q0 96 -38 149.5t-93 53.5q-49 0 -86 -48t-37 -131z" />
    <glyph glyph-name="quotesingle" unicode="'" horiz-adv-x="299" 
d="M121 1149q-20 0 -23 20q-9 52 -22.5 125.5t-19.5 108t-11 71.5t-4 58q1 49 24.5 76.5t61.5 25.5q42 0 65 -27t25 -75q-2 -56 -63 -365q-3 -18 -23 -18h-10z" />
    <glyph glyph-name="parenleft" unicode="(" horiz-adv-x="651" 
d="M563 -283q-18 -11 -33 4q-150 167 -248 434.5t-98 544.5q0 266 107 551.5t244 415.5q14 14 30 2l13 -8q18 -15 6 -33q-112 -156 -180 -403.5t-68 -513.5q0 -572 250 -953q11 -17 -8 -30z" />
    <glyph glyph-name="parenright" unicode=")" horiz-adv-x="671" 
d="M74 -272q-19 13 -8 30q249 379 249 953q0 267 -67.5 514t-179.5 403q-12 18 6 33l12 8q16 13 31 -2q88 -84 168 -241t131 -353.5t51 -372.5q0 -277 -98 -544.5t-248 -434.5q-15 -15 -33 -4z" />
    <glyph glyph-name="asterisk" unicode="*" horiz-adv-x="661" 
d="M147 1024q-49 37 -4 96q10 14 34 36.5t60.5 53.5t59.5 54q-175 13 -199 20q-71 22 -53 82q19 58 90 35q17 -5 42.5 -19.5t70 -42.5t65.5 -41q-6 34 -17.5 83t-18.5 83t-7 52q0 73 62 73q59 0 59 -73q0 -17 -6 -48.5t-19 -88.5t-18 -81q21 13 65.5 41t70 42.5t42.5 19.5
q71 23 90 -35q18 -59 -51 -82q-26 -7 -203 -20q23 -22 60.5 -54t61.5 -53.5t34 -36.5q45 -59 -4 -96q-48 -36 -92 25q-11 17 -42.5 87t-47.5 101q-19 -34 -49.5 -103t-42.5 -85q-41 -61 -93 -25z" />
    <glyph glyph-name="plus" unicode="+" horiz-adv-x="856" 
d="M412 250q-11 0 -18 7t-7 17v326h-321q-25 0 -25 21v32q0 21 25 21h321v325q0 11 7.5 18t17.5 7h32q10 0 17.5 -7t7.5 -18v-325h322q24 0 24 -21v-32q0 -21 -24 -21h-322v-326q0 -10 -7 -17t-18 -7h-32z" />
    <glyph glyph-name="comma" unicode="," horiz-adv-x="325" 
d="M78 -326q-17 -13 -31 7l-12 18q-6 14 -1.5 23t21.5 26q42 41 67.5 105.5t22.5 121.5q-46 4 -72 38.5t-26 90.5q0 58 30 92.5t81 34.5q52 0 84 -39.5t32 -117.5q0 -103 -45.5 -209t-150.5 -191z" />
    <glyph glyph-name="hyphen" unicode="-" horiz-adv-x="651" 
d="M66 707q-46 0 -46 45v32q0 45 46 45h520q45 0 45 -45v-32q0 -45 -45 -45h-520z" />
    <glyph glyph-name="period" unicode="." horiz-adv-x="321" 
d="M162 -20q-51 0 -81 34.5t-30 91.5q0 56 30 90.5t81 34.5q49 0 78.5 -34.5t29.5 -90.5q0 -57 -29.5 -91.5t-78.5 -34.5z" />
    <glyph glyph-name="slash" unicode="/" horiz-adv-x="614" 
d="M45 -74q-12 3 -20 12t-5 19l484 1694q1 7 13.5 10t21.5 0l32 -8q10 -3 18 -12t5 -17l-481 -1696q-1 -7 -14 -10t-23 0z" />
    <glyph glyph-name="zero" unicode="0" horiz-adv-x="1112" 
d="M563 -31q-241 0 -381.5 209t-140.5 567q0 353 140 560.5t378 207.5q236 0 374 -204t138 -553q0 -362 -137.5 -574.5t-370.5 -212.5zM268 760q0 -343 83.5 -528t238.5 -185q123 0 188.5 174.5t65.5 497.5q0 346 -77 531.5t-222 185.5q-133 0 -205 -175t-72 -501z" />
    <glyph glyph-name="one" unicode="1" horiz-adv-x="606" 
d="M43 0q-18 0 -18 25v10q0 23 24 26q77 10 115.5 37.5t38.5 67.5v960q0 84 -32 126.5t-114 31.5q-14 -2 -20 1t-10 15l-4 13q-5 13 0 20.5t26 16.5q54 21 169.5 79t129.5 64q25 11 42.5 2t17.5 -37v-1292q0 -42 40.5 -70t120.5 -35q17 -3 17 -26v-10q0 -25 -19 -25
q-38 0 -120.5 5t-143.5 5t-141.5 -5t-118.5 -5z" />
    <glyph glyph-name="two" unicode="2" horiz-adv-x="968" 
d="M809 -6q-516 6 -748 6q-18 0 -24 5t-6 18v12q0 11 3.5 17.5t18.5 25.5q254 323 385.5 516.5t181.5 315.5t50 235q0 116 -60.5 182t-158.5 66q-95 0 -159 -25t-136 -86q-26 -23 -43 0l-7 8q-9 12 -9.5 18t7.5 15q75 95 170 142.5t228 47.5q185 0 283 -87.5t98 -247.5
q0 -90 -24 -168.5t-95 -191.5t-200 -261.5t-341 -366.5l230 5q144 2 220 21.5t113.5 64t53.5 133.5q3 24 22 24h17q7 0 12.5 -5t5.5 -13v-361q0 -39 -16 -52t-72 -13z" />
    <glyph glyph-name="three" unicode="3" horiz-adv-x="954" 
d="M393 -31q-82 0 -148.5 14t-107.5 35.5t-68 49.5t-38 55t-11 53q0 52 31 87.5t80 35.5q44 0 72.5 -27t46 -65t38.5 -76t64.5 -65t108.5 -27q108 0 178 106t70 277q0 178 -57.5 260t-184.5 82q-82 0 -168 -25q-28 -7 -35 19l-4 14q-7 27 19 37l75 31q160 65 223.5 146.5
t63.5 199.5q0 215 -180 215q-169 0 -283 -105q-20 -20 -41 0l-8 9q-15 15 0 34q70 81 167.5 127.5t203.5 46.5q158 0 249 -74t91 -210q0 -219 -273 -371q161 -2 259 -107.5t98 -287.5q0 -77 -16.5 -146t-56 -134t-99 -111.5t-151.5 -74.5t-208 -28z" />
    <glyph glyph-name="four" unicode="4" horiz-adv-x="960" 
d="M55 451q-11 0 -17.5 6.5t-6.5 17.5v12q0 18 8 31l655 952q15 21 37 21h53q19 0 25.5 -10t-4.5 -27l-670 -926l422 11v460q0 29 21 37l147 60q37 15 37 -21v-532l139 4q11 0 18 -7.5t7 -17.5v-47q0 -10 -7 -17t-18 -7h-139v-285q0 -41 41 -69.5t121 -35.5q16 -3 16 -26
v-10q0 -25 -18 -25q-38 0 -121 5t-144 5q-56 0 -146.5 -5t-154.5 -5q-18 0 -18 25v10q0 23 24 26q195 19 195 105v285h-502z" />
    <glyph glyph-name="five" unicode="5" horiz-adv-x="985" 
d="M424 -31q-192 0 -292.5 60.5t-100.5 146.5q0 52 30.5 87.5t79.5 35.5q44 0 72.5 -27t46 -65t38.5 -76t64.5 -65t108.5 -27q111 0 184.5 109.5t73.5 293.5q0 389 -287 389q-145 0 -256 -108q-12 -12 -30 -12h-21q-25 0 -22 26l110 752l682 2l-20 -135q-6 -39 -27.5 -52.5
t-77.5 -13.5q-498 6 -504 6l-73 -467q130 113 286 113q205 0 325 -130t120 -329q0 -226 -138.5 -370t-371.5 -144z" />
    <glyph glyph-name="six" unicode="6" horiz-adv-x="1024" 
d="M524 -31q-214 0 -348.5 164.5t-134.5 448.5q0 150 37.5 286.5t116 263.5t208.5 237t306 196q25 13 39 -11l8 -12q14 -23 -11 -39q-376 -217 -456 -667q126 106 278 106q178 0 297 -127.5t119 -331.5q0 -222 -130 -368t-329 -146zM268 596q0 -272 80 -414.5t199 -142.5
q99 0 165 107.5t66 295.5q0 195 -69 292t-189 97q-137 0 -246 -98q-6 -67 -6 -137z" />
    <glyph glyph-name="seven" unicode="7" horiz-adv-x="966" 
d="M406 -31q-64 0 -104 55.5t-40 157.5q0 184 111 417.5t407 700.5l-266 -4q-199 -3 -288 -48t-128 -171q-9 -24 -22 -24h-17q-8 0 -13.5 5.5t-4.5 12.5l51 361q6 41 20 53t68 12q516 -6 733 -6q30 0 38.5 -14t-5.5 -37q-90 -141 -194 -340.5t-188.5 -416.5t-84.5 -327
q0 -46 10.5 -80.5t22.5 -52.5t22.5 -46t10.5 -62q0 -67 -40.5 -106.5t-98.5 -39.5z" />
    <glyph glyph-name="eight" unicode="8" horiz-adv-x="964" 
d="M496 -31q-197 0 -316 117t-119 283q0 126 75.5 230.5t211.5 178.5q-110 96 -170.5 186.5t-60.5 198.5q0 155 106 252.5t277 97.5q179 0 270.5 -88.5t91.5 -232.5q0 -191 -256 -342q58 -46 95 -78t84 -81.5t74 -94t46 -104.5t19 -123q0 -181 -108 -290.5t-320 -109.5z
M244 373q0 -157 68 -241.5t194 -84.5q102 0 163.5 68.5t61.5 175.5q0 62 -24 119t-72 111.5t-92.5 95t-112.5 96.5q-13 11 -20 16q-69 -45 -117.5 -143t-48.5 -213zM309 1237q0 -49 17.5 -94t53 -87.5t71 -75.5t90.5 -77q139 103 139 285q0 115 -50 181.5t-136 66.5
q-77 0 -131 -56.5t-54 -142.5z" />
    <glyph glyph-name="nine" unicode="9" horiz-adv-x="1024" 
d="M233 -41q-27 -10 -38 10l-9 13q-7 12 -4 22.5t15 15.5q213 79 341 212.5t179 326.5q-114 -100 -260 -100q-180 0 -298 134t-118 365q0 123 38.5 228t104 176t154.5 111t188 40q216 0 336.5 -154t120.5 -466q0 -158 -39 -290.5t-125 -253t-233 -219t-353 -171.5zM246 999
q0 -222 68 -326t190 -104q142 0 237 109q15 91 15 201q0 565 -250 565q-104 0 -182 -116.5t-78 -328.5z" />
    <glyph glyph-name="colon" unicode=":" horiz-adv-x="321" 
d="M162 184q-51 0 -81 35t-30 92q0 56 30 90.5t81 34.5q49 0 78.5 -34.5t29.5 -90.5q0 -57 -29.5 -92t-78.5 -35zM51 823q0 56 30 90.5t81 34.5q49 0 78.5 -34.5t29.5 -90.5q0 -57 -29.5 -92t-78.5 -35q-51 0 -81 35t-30 92z" />
    <glyph glyph-name="semicolon" unicode=";" horiz-adv-x="325" 
d="M162 492q-51 0 -81 34.5t-30 91.5q0 56 30 90.5t81 34.5q49 0 78.5 -34.5t29.5 -90.5q0 -57 -29.5 -91.5t-78.5 -34.5zM35 -301q-6 14 -1.5 23t21.5 26q42 41 67.5 105.5t22.5 121.5q-46 4 -72 38.5t-26 90.5q0 58 30 92.5t81 34.5q52 0 84 -39.5t32 -117.5
q0 -103 -45.5 -209t-150.5 -191q-17 -13 -31 7z" />
    <glyph glyph-name="less" unicode="&#x3c;" horiz-adv-x="776" 
d="M98 594q-16 8 -16 29v32q0 21 16 29l527 272q25 12 34 -6l13 -22q5 -9 2.5 -21t-12.5 -18l-478 -250l478 -250q9 -4 12 -17t-2 -22l-13 -22q-9 -18 -34 -6z" />
    <glyph glyph-name="equal" unicode="=" horiz-adv-x="856" 
d="M66 727q-10 0 -17.5 7.5t-7.5 17.5v32q0 10 7.5 17.5t17.5 7.5h725q10 0 17 -7t7 -18v-32q0 -11 -7 -18t-17 -7h-725zM41 485v33q0 10 7.5 17.5t17.5 7.5h725q10 0 17 -7t7 -18v-33q0 -11 -6.5 -17.5t-17.5 -6.5h-725q-11 0 -18 7t-7 17z" />
    <glyph glyph-name="greater" unicode="&#x3e;" horiz-adv-x="776" 
d="M152 322q-9 -5 -20 -3.5t-15 9.5l-13 22q-5 9 -1.5 22t12.5 17l477 250l-477 250q-10 6 -13 18t2 21l13 22q4 8 15 9.5t20 -3.5l526 -272q16 -8 16 -29v-32q0 -21 -16 -29z" />
    <glyph glyph-name="question" unicode="?" horiz-adv-x="694" 
d="M283 399q-29 -13 -41 17q-27 64 -28.5 125.5t17 114.5t47 105t62.5 106.5t63 108t48.5 119.5t19.5 132q0 106 -34.5 154.5t-104.5 48.5q-35 0 -60 -16t-39.5 -39t-28.5 -46t-36.5 -39t-54.5 -16q-46 0 -74.5 29.5t-28.5 72.5q0 63 55.5 101.5t137.5 38.5
q186 0 318 -109.5t132 -261.5q0 -62 -23 -120.5t-58.5 -102.5t-78.5 -91.5t-82 -88t-70 -92t-42 -102.5t2 -120q5 -16 -18 -29zM174 106q0 56 30 90.5t81 34.5q49 0 78.5 -34.5t29.5 -90.5q0 -57 -29.5 -91.5t-78.5 -34.5q-51 0 -81 34.5t-30 91.5z" />
    <glyph glyph-name="at" unicode="@" horiz-adv-x="1611" 
d="M684 -47q-169 0 -313 76t-233.5 217t-96.5 319q-4 137 31.5 268.5t101 239.5t156.5 200.5t195 155.5t219 99t227 37q252 1 422 -148t178 -373q4 -124 -45.5 -247t-129.5 -213.5t-183 -146.5t-201 -56q-52 0 -93 37t-49 108q-66 -67 -139.5 -105t-136.5 -38
q-82 0 -139.5 61.5t-61.5 173.5q-4 122 68.5 236t198 185t266.5 71q98 0 192 -23q39 -9 27 -51l-78 -311q-35 -146 -22.5 -195t69.5 -49q51 0 101.5 44.5t88.5 116.5t60.5 171.5t19.5 202.5q-9 236 -120.5 351.5t-327.5 115.5q-226 0 -392.5 -111.5t-250 -311.5t-74.5 -462
q9 -266 142 -415.5t346 -149.5q135 0 263.5 44t223.5 122q18 15 35 -4l4 -7q15 -19 0 -34q-112 -99 -253.5 -150t-295.5 -51zM578 621q3 -65 30.5 -100.5t69.5 -35.5q43 0 95 32t99 89l107 434q-33 11 -61 11q-83 0 -163 -60t-130 -161t-47 -209z" />
    <glyph glyph-name="A" unicode="A" horiz-adv-x="1261" 
d="M29 0q-19 0 -19 25v10q0 23 17 26q130 15 159 107l402 1302q7 21 26 21h25q20 0 27 -21l411 -1304q30 -91 158 -103q16 -3 16 -26v-10q0 -25 -18 -25q-55 0 -138 5t-122 5q-38 0 -125 -5t-160 -5q-18 0 -18 25v10q0 23 24 26q85 11 121 38.5t23 74.5l-105 367h-344
l-100 -355q-15 -56 16.5 -86.5t118.5 -40.5q25 -3 25 -26v-10q0 -25 -19 -25q-52 0 -125.5 5t-97.5 5q-22 0 -80.5 -5t-97.5 -5zM412 621h299l-150 528z" />
    <glyph glyph-name="B" unicode="B" horiz-adv-x="1073" 
d="M483 0q-27 0 -84 2t-94 2q-75 0 -163 -2t-103 -2q-19 0 -19 25v10q0 22 25 28q50 9 81.5 37t31.5 66v1159q0 38 -31.5 65.5t-81.5 36.5q-25 6 -25 29v10q0 25 19 25q10 0 252 -4q192 4 241 4q186 0 306 -110.5t120 -276.5q0 -233 -225 -316q154 -45 231.5 -143.5
t77.5 -241.5q0 -184 -146.5 -293.5t-412.5 -109.5zM362 166q0 -39 32.5 -63.5t78.5 -24.5h62q137 0 209.5 76.5t72.5 224.5q0 104 -20 172t-66.5 109.5t-115.5 59.5t-175 21l-78 2v-577zM362 817q76 -6 119 -6q134 0 193 69.5t59 204.5q0 158 -66 243t-169 85h-25
q-46 0 -78.5 -24.5t-32.5 -63.5v-508z" />
    <glyph glyph-name="C" unicode="C" horiz-adv-x="1077" 
d="M610 -31q-117 0 -219.5 52.5t-180.5 150t-123.5 249.5t-45.5 339q0 362 153.5 557.5t413.5 195.5q98 0 194.5 -22.5t147.5 -54.5q29 -18 29 -60v-270q0 -10 -7.5 -17.5t-17.5 -7.5h-14q-23 0 -29 21q-51 181 -136.5 257.5t-203.5 76.5q-136 0 -219.5 -149.5t-83.5 -436.5
q0 -344 123 -542.5t305 -198.5q146 0 279 145q19 19 43 2l6 -4q24 -17 4 -43q-164 -240 -418 -240z" />
    <glyph glyph-name="D" unicode="D" horiz-adv-x="1165" 
d="M487 0l-188 4q-72 0 -158.5 -2t-101.5 -2q-19 0 -19 25v10q0 22 25 28q50 9 81.5 37t31.5 66v1159q0 38 -31.5 65.5t-81.5 36.5q-25 6 -25 29v10q0 25 19 25q25 0 119 -2.5t166 -3.5q17 1 70.5 3.5t92.5 2.5q122 0 226 -39t179 -107.5t128 -161t78.5 -201t25.5 -226.5
q0 -350 -171 -553t-466 -203zM362 166q0 -39 32.5 -63.5t78.5 -24.5h27q178 0 287.5 176t109.5 465q0 181 -32 318t-88.5 217.5t-127.5 119.5t-155 39h-21q-46 0 -78.5 -24.5t-32.5 -63.5v-1159z" />
    <glyph glyph-name="E" unicode="E" horiz-adv-x="1028" 
d="M948 1128q-19 0 -22 25q-27 151 -111 205.5t-276 54.5h-66q-46 0 -78.5 -24.5t-32.5 -63.5v-520h232q74 0 120.5 42t53.5 128q3 18 27 18h10q14 0 19 -4t5 -14q0 -38 -3 -103t-3 -104q0 -41 3 -105t3 -106q0 -10 -5 -14t-19 -4h-10q-24 0 -27 26q-20 162 -174 162h-232
v-561q0 -39 32.5 -63.5t78.5 -24.5h90q192 0 276 54.5t111 205.5q3 24 23 24h16q8 0 13.5 -5.5t5.5 -12.5v-278q0 -40 -16.5 -53t-71.5 -13q-61 1 -205 3.5t-242 2.5q-131 0 -274.5 -3t-159.5 -3q-19 0 -19 25v10q0 22 25 28q50 9 81.5 37t31.5 66v1159q0 38 -31.5 65.5
t-81.5 36.5q-25 6 -25 29v10q0 25 19 25q16 0 159.5 -3t274.5 -3q82 0 216.5 2.5t205.5 3.5q55 0 71.5 -13t16.5 -53v-278q0 -8 -5.5 -13.5t-12.5 -5.5h-17z" />
    <glyph glyph-name="F" unicode="F" horiz-adv-x="993" 
d="M39 0q-19 0 -19 25v10q0 22 25 28q50 9 81.5 37t31.5 66v1159q0 38 -31.5 65.5t-81.5 36.5q-25 6 -25 29v10q0 25 19 25q16 0 159.5 -3t274.5 -3q82 0 216.5 2.5t205.5 3.5q55 0 71.5 -13t16.5 -53v-278q0 -8 -5.5 -13.5t-12.5 -5.5h-17q-19 0 -22 25q-27 151 -111 205.5
t-276 54.5h-66q-46 0 -78.5 -24.5t-32.5 -63.5v-518h232q74 0 120.5 42t53.5 128q3 18 27 18h10q14 0 19 -4t5 -14q0 -38 -3 -103t-3 -104q0 -41 3 -105t3 -106q0 -10 -5 -14t-19 -4h-10q-24 0 -27 26q-20 162 -174 162h-232v-563q0 -39 34 -68t87 -37q17 -3 17 -26v-10
q0 -25 -19 -25q-43 0 -115 5t-108 5t-106 -5t-113 -5z" />
    <glyph glyph-name="G" unicode="G" horiz-adv-x="1193" 
d="M618 -31q-117 0 -220.5 52.5t-183.5 150t-126.5 249.5t-46.5 339q0 181 42 325t117.5 237t178 142t225.5 49q94 0 201 -26t145 -51q29 -18 29 -60v-270q0 -10 -7.5 -17.5t-17.5 -7.5h-14q-23 0 -29 21q-51 180 -132 257t-187 77q-144 0 -234 -153.5t-90 -453.5
q0 -352 111.5 -567t267.5 -215q75 0 129.5 51t54.5 140v405q0 38 -31 65.5t-81 36.5q-25 6 -25 29v10q0 25 19 25q43 0 113 -5t106 -5t108 5t115 5q19 0 19 -25v-10q0 -23 -17 -26q-53 -8 -87 -37t-34 -68q0 -24 -1.5 -76t-1.5 -84v-79t3 -78.5t8 -64t14.5 -52.5t22.5 -29
q6 -4 14 -9t11.5 -7t7.5 -5.5t5 -6.5t1 -7v-12q0 -24 -24 -24q-65 -3 -117 -19t-87.5 -36t-71 -39.5t-86.5 -32.5t-116 -13z" />
    <glyph glyph-name="H" unicode="H" horiz-adv-x="1226" 
d="M39 0q-19 0 -19 25v10q0 22 25 28q50 9 81.5 37t31.5 66v1159q0 38 -31.5 65.5t-81.5 36.5q-25 6 -25 29v10q0 25 19 25q43 0 113 -5t106 -5t108 5t115 5q19 0 19 -25v-10q0 -23 -17 -26q-53 -8 -87 -37t-34 -68v-516h502v516q0 38 -31 65.5t-81 36.5q-25 6 -25 29v10
q0 25 18 25q43 0 113.5 -5t106.5 -5t108 5t115 5q18 0 18 -25v-10q0 -23 -16 -26q-53 -8 -87 -37t-34 -68v-1159q0 -39 34 -68t87 -37q16 -3 16 -26v-10q0 -25 -18 -25q-43 0 -115 5t-108 5t-106.5 -5t-113.5 -5q-18 0 -18 25v10q0 22 25 28q50 9 81 37t31 66v561h-502v-561
q0 -39 34 -68t87 -37q17 -3 17 -26v-10q0 -25 -19 -25q-43 0 -115 5t-108 5t-106 -5t-113 -5z" />
    <glyph glyph-name="I" unicode="I" horiz-adv-x="520" 
d="M39 0q-19 0 -19 25v10q0 22 25 28q50 9 81.5 37t31.5 66v1159q0 38 -31.5 65.5t-81.5 36.5q-25 6 -25 29v10q0 25 19 25q43 0 113 -5t106 -5t108 5t115 5q19 0 19 -25v-10q0 -23 -17 -26q-53 -8 -87 -37t-34 -68v-1159q0 -39 34 -68t87 -37q17 -3 17 -26v-10
q0 -25 -19 -25q-43 0 -115 5t-108 5t-106 -5t-113 -5z" />
    <glyph glyph-name="J" unicode="J" horiz-adv-x="763" 
d="M240 -31q-112 0 -171 62t-59 135q0 53 31.5 93t79.5 40q44 0 69 -25.5t33.5 -62.5t14.5 -74t22 -62.5t47 -25.5q94 0 94 240v1036q0 40 -38 67.5t-115 37.5q-25 3 -25 26v10q0 25 19 25q69 0 149 -5t111 -5q36 0 108 5t115 5q18 0 18 -25v-10q0 -23 -16 -26
q-53 -8 -87 -37t-34 -68v-934q0 -115 -41.5 -209.5t-126 -153.5t-198.5 -59z" />
    <glyph glyph-name="K" unicode="K" horiz-adv-x="1159" 
d="M39 0q-19 0 -19 25v10q0 22 25 28q50 9 81.5 37t31.5 66v1159q0 38 -31.5 65.5t-81.5 36.5q-25 6 -25 29v10q0 25 19 25q43 0 113 -5t106 -5t108 5t115 5q19 0 19 -25v-10q0 -23 -17 -26q-53 -8 -87 -37t-34 -68v-623l422 601q38 49 22 83t-99 44q-25 3 -25 26v10
q0 25 18 25q52 0 129 -5t101 -5t77.5 5t79.5 5q19 0 19 -25v-10q0 -23 -16 -26q-52 -8 -110.5 -39.5t-88.5 -71.5l-311 -434l391 -695q26 -48 73.5 -82t88.5 -42q16 -3 16 -27v-10q0 -25 -19 -25q-29 0 -111.5 5t-127.5 5q-36 0 -103 -5t-104 -5q-18 0 -18 25v10q0 23 24 29
q39 9 51 37.5t-12 70.5l-295 508l-72 -100v-418q0 -39 34 -68t87 -37q17 -3 17 -26v-10q0 -25 -19 -25q-43 0 -115 5t-108 5t-106 -5t-113 -5z" />
    <glyph glyph-name="L" unicode="L" horiz-adv-x="1003" 
d="M39 0q-19 0 -19 25v10q0 22 25 28q50 9 81.5 37t31.5 66v1159q0 38 -31.5 65.5t-81.5 36.5q-25 6 -25 29v10q0 25 19 25q43 0 113 -5t106 -5t108 5t115 5q19 0 19 -25v-10q0 -23 -17 -26q-53 -8 -87 -37t-34 -68v-1159q0 -39 32.5 -63.5t78.5 -24.5h66q192 0 276 54.5
t111 205.5q3 24 22 24h17q7 0 12.5 -5t5.5 -13v-278q0 -40 -16.5 -53t-71.5 -13q-71 1 -205.5 3.5t-216.5 2.5q-131 0 -274.5 -3t-159.5 -3z" />
    <glyph glyph-name="M" unicode="M" horiz-adv-x="1386" 
d="M29 0q-19 0 -19 25v10q0 23 17 26q46 8 80.5 37.5t35.5 67.5l43 1159q1 38 -35 67.5t-83 37.5q-17 3 -17 26v10q0 25 19 25q162 -9 323 0l303 -1016l322 1016q156 -9 311 0q19 0 19 -25v-10q0 -23 -17 -26q-47 -8 -83.5 -37.5t-35.5 -67.5l31 -1159q1 -38 36 -67.5
t81 -37.5q16 -3 16 -26v-10q0 -25 -18 -25q-37 0 -106.5 5t-106.5 5q-35 0 -108 -5t-122 -5q-18 0 -18 25v10q0 23 25 26q57 10 87.5 38t28.5 67l-26 1034l-340 -1077q-7 -21 -27 -21h-29q-19 0 -26 21l-330 1067l-35 -1024q-2 -40 32.5 -67.5t104.5 -37.5q25 -3 25 -26v-10
q0 -25 -18 -25q-31 0 -94 5t-95 5q-26 0 -75.5 -5t-75.5 -5z" />
    <glyph glyph-name="N" unicode="N" horiz-adv-x="1138" 
d="M39 0q-19 0 -19 25v10q0 23 17 26q47 8 82 37.5t35 67.5l8 1159q0 38 -36 67.5t-83 37.5q-16 3 -16 26v10q0 25 18 25q145 -9 289 0l575 -1028l6 864q0 38 -34.5 65.5t-104.5 37.5q-24 3 -24 26v10q0 25 18 25q34 0 97.5 -5t90.5 -5q29 0 79.5 5t72.5 5q18 0 18 -25v-10
q0 -23 -16 -26q-46 -8 -80.5 -37t-34.5 -66l-16 -1302q0 -11 -7.5 -18t-17.5 -7h-24q-23 0 -31 16l-663 1227l-2 -1077q0 -85 137 -105q24 -3 24 -26v-10q0 -25 -18 -25q-31 0 -94 5t-95 5q-25 0 -75.5 -5t-75.5 -5z" />
    <glyph glyph-name="O" unicode="O" horiz-adv-x="1193" 
d="M604 -31q-163 0 -291.5 98t-200 275t-71.5 403q0 360 149 564t410 204q93 0 177.5 -36.5t152.5 -104.5t118.5 -160t77.5 -209.5t27 -246.5q0 -371 -147.5 -579t-401.5 -208zM268 760q0 -323 105.5 -518t257.5 -195q134 0 214.5 180.5t80.5 491.5q0 326 -99 521.5
t-241 195.5q-145 0 -231.5 -177.5t-86.5 -498.5z" />
    <glyph glyph-name="P" unicode="P" horiz-adv-x="1024" 
d="M39 0q-19 0 -19 25v10q0 22 25 28q50 9 81.5 37t31.5 66v1159q0 38 -31.5 65.5t-81.5 36.5q-25 6 -25 29v10q0 25 19 25q15 0 106.5 -2t169.5 -2q73 1 129 2t80.5 1.5t32.5 0.5q194 0 315 -111.5t121 -316.5q0 -198 -127 -309t-323 -111q-102 0 -181 29v-506
q0 -39 34 -68t87 -37q17 -3 17 -26v-10q0 -25 -19 -25q-43 0 -115 5t-108 5t-106 -5t-113 -5zM362 754q71 -31 160 -31q112 0 179 82.5t67 238.5q0 177 -67 273t-179 96h-49q-46 0 -78.5 -24.5t-32.5 -63.5v-571z" />
    <glyph glyph-name="Q" unicode="Q" horiz-adv-x="1193" 
d="M1065 -313q-54 -22 -143 0t-250 94q-252 120 -383 67q-62 -24 -115 -71q-20 -16 -35 2l-12 12q-16 16 2 37q142 154 244 201q-154 86 -243 275t-89 441q0 360 149 564t410 204q93 0 177.5 -36.5t152.5 -104.5t118.5 -160t77.5 -209.5t27 -246.5q0 -317 -109.5 -517
t-304.5 -253l21 -9q285 -126 403 -79q23 9 43 22q21 14 35 0l12 -12q16 -16 4 -33q-39 -66 -90 -116.5t-102 -71.5zM268 760q0 -323 105.5 -518t257.5 -195q134 0 214.5 180.5t80.5 491.5q0 326 -99 521.5t-241 195.5q-145 0 -231.5 -177.5t-86.5 -498.5z" />
    <glyph glyph-name="R" unicode="R" horiz-adv-x="1183" 
d="M39 0q-19 0 -19 25v10q0 22 25 28q50 9 81.5 37t31.5 66v1159q0 38 -31.5 65.5t-81.5 36.5q-25 6 -25 29v10q0 25 19 25q15 0 106.5 -2t169.5 -2q73 1 129 2t80.5 1.5t32.5 0.5q192 0 312 -110t120 -277q0 -304 -317 -381q40 -16 69.5 -42.5t62 -86.5t66.5 -160
q39 -114 77 -188.5t75 -111t66.5 -50.5t68.5 -18q17 -3 17 -27v-10q0 -25 -19 -25q-57 0 -123 -2t-96 -2q-82 0 -139.5 77t-126.5 290q-53 162 -121 248t-141 92l-46 4v-545q0 -39 34 -68t87 -37q17 -3 17 -26v-10q0 -25 -19 -25q-43 0 -115 5t-108 5t-106 -5t-113 -5z
M362 788q74 -14 160 -14q124 0 183 75.5t59 235.5q0 159 -66 243.5t-176 84.5h-49q-46 0 -78.5 -24.5t-32.5 -63.5v-537z" />
    <glyph glyph-name="S" unicode="S" horiz-adv-x="933" 
d="M467 -31q-115 0 -240.5 31t-158.5 61q-27 24 -27 66v324q0 10 7 17t18 7h14q23 0 29 -20q48 -204 149.5 -306t239.5 -102q104 0 166.5 71t62.5 169q0 72 -37 140t-96 123.5t-130.5 111t-143 111.5t-130.5 113.5t-96 129t-37 147.5q0 156 109 253t293 97q100 0 194 -25.5
t135 -60.5q27 -24 27 -65v-252q0 -11 -7 -18t-17 -7h-17q-23 0 -29 21q-25 88 -62.5 153.5t-81 103t-89 55.5t-94.5 18q-70 0 -119 -56.5t-49 -142.5q0 -64 36 -125t93.5 -112.5t127 -103t139.5 -108t127.5 -117t93.5 -139.5t36 -167q0 -180 -110 -288t-326 -108z" />
    <glyph glyph-name="T" unicode="T" horiz-adv-x="1208" 
d="M383 0q-18 0 -18 25v10q0 22 24 28q50 9 81.5 37t31.5 66v1159q0 39 -33.5 63.5t-91.5 24.5h-45q-218 0 -264 -280q-1 -11 -8 -18t-15 -7h-16q-8 0 -13.5 5.5t-5.5 12.5l21 299q3 40 18 53t70 13q72 -1 189.5 -3.5t211.5 -2.5h174q93 0 208 2.5t188 3.5q55 0 70 -13
t18 -53l20 -299q0 -8 -5 -13t-13 -5h-17q-19 0 -22 25q-13 81 -41 138t-64.5 87t-73.5 42.5t-79 12.5h-45q-60 0 -95.5 -24t-35.5 -64v-1159q0 -39 33.5 -68t86.5 -37q17 -3 17 -26v-10q0 -25 -19 -25q-43 0 -115 5t-108 5t-106 -5t-113 -5z" />
    <glyph glyph-name="U" unicode="U" horiz-adv-x="1251" 
d="M645 -31q-105 0 -193 31.5t-157.5 95.5t-108.5 172t-39 252v805q0 38 -31 65.5t-81 36.5q-25 6 -25 29v10q0 25 19 25q43 0 113 -5t106 -5t108 5t115 5q18 0 18 -25v-10q0 -23 -16 -26q-53 -8 -87 -37t-34 -68v-770q0 -117 19 -206.5t50 -144t74.5 -89t87.5 -47.5t95 -13
q65 0 121.5 23.5t104.5 72.5t76 137t28 206v790q0 129 -129 146q-19 3 -19 26v10q0 25 19 25q35 0 92 -3t78 -3q23 0 78.5 3t95.5 3q18 0 18 -25v-10q0 -23 -27 -29q-120 -19 -120 -143v-754q0 -151 -34.5 -262t-97 -175t-141 -94t-176.5 -30z" />
    <glyph glyph-name="V" unicode="V" horiz-adv-x="1282" 
d="M633 0q-20 0 -27 20l-422 1305q-29 90 -157 102q-17 3 -17 27v10q0 25 19 25q54 0 137.5 -5t122.5 -5q38 0 124.5 5t159.5 5q19 0 19 -25v-10q0 -24 -25 -27q-86 -11 -121 -38t-22 -74l287 -973l282 961q17 56 -15 86.5t-120 40.5q-24 3 -24 26v10q0 25 18 25
q52 0 125.5 -5t97.5 -5q22 0 80.5 5t97.5 5q19 0 19 -25v-10q0 -23 -17 -26q-130 -15 -159 -107l-412 -1303q-7 -20 -27 -20h-24z" />
    <glyph glyph-name="W" unicode="W" horiz-adv-x="1732" 
d="M584 0q-22 0 -29 20l-371 1305q-26 90 -157 102q-17 3 -17 27v10q0 25 19 25q54 0 137.5 -5t122.5 -5q46 0 138.5 5t139.5 5q34 0 129.5 -5t124.5 -5q38 0 125 5t160 5q18 0 18 -25v-10q0 -24 -24 -27q-85 -11 -120.5 -38t-23.5 -74l250 -936l250 924q15 56 -16.5 86.5
t-118.5 40.5q-25 3 -25 26v10q0 25 19 25q53 0 124 -5t87 -5q22 0 80.5 5t97.5 5q18 0 18 -25v-10q0 -23 -16 -26q-67 -8 -107 -37t-57 -88l-356 -1285q-7 -20 -29 -20h-22q-20 0 -27 20l-234 777l-241 -777q-7 -20 -27 -20h-22zM424 1315l235 -957l177 570l-119 397
q-14 46 -54 74t-100 28q-79 0 -115 -31.5t-24 -80.5z" />
    <glyph glyph-name="X" unicode="X" horiz-adv-x="1245" 
d="M678 0q-19 0 -19 25v10q0 23 25 26q65 7 97.5 23.5t33.5 40t-12 53.5l-232 469l-241 -459q-28 -54 1 -85.5t122 -41.5q24 -3 24 -26v-10q0 -25 -18 -25q-43 0 -118.5 5t-113.5 5q-35 0 -98.5 -5t-99.5 -5q-19 0 -19 25v10q0 23 17 26q158 14 211 115l294 549l-301 606
q-46 89 -168 101q-16 3 -16 26v10q0 25 19 25q40 0 112 -5t127 -5q51 0 140.5 5t148.5 5q18 0 18 -25v-10q0 -23 -24 -26q-86 -10 -112.5 -42.5t1.5 -84.5l201 -412l219 412q56 106 -102 127q-25 3 -25 26v10q0 25 18 25q30 0 100 -5t111 -5q37 0 96.5 5t82.5 5q18 0 18 -25
v-10q0 -23 -16 -26q-138 -16 -191 -115l-272 -502l309 -633q25 -50 75 -82t118 -39q16 -3 16 -26v-10q0 -25 -18 -25q-41 0 -114.5 5t-127.5 5q-41 0 -132.5 -5t-164.5 -5z" />
    <glyph glyph-name="Y" unicode="Y" horiz-adv-x="1214" 
d="M391 0q-18 0 -18 25v10q0 22 24 28q50 9 81.5 37t31.5 66v299l-326 862q-34 91 -157 103q-17 3 -17 26v10q0 25 19 25q54 0 137.5 -5t122.5 -5q38 0 121.5 5t156.5 5q19 0 19 -25v-10q0 -23 -25 -26q-86 -11 -123 -39t-20 -74l258 -711l250 697q19 54 -14 85.5t-121 41.5
q-25 3 -25 26v10q0 25 18 25q50 0 122 -5t102 -5q22 0 80.5 5t97.5 5q18 0 18 -25v-10q0 -23 -16 -26q-126 -15 -160 -107l-313 -852v-305q0 -39 34 -68t87 -37q16 -3 16 -26v-10q0 -25 -18 -25q-43 0 -115.5 5t-108.5 5t-106 -5t-113 -5z" />
    <glyph glyph-name="Z" unicode="Z" horiz-adv-x="995" 
d="M98 0q-47 0 -47 27v16q0 18 6 33l643 1343h-133q-192 0 -276 -54.5t-111 -205.5q-3 -24 -22 -24h-17q-7 0 -12.5 5.5t-5.5 12.5v279q0 39 16 52t72 13q516 -6 678 -6q47 0 47 -27v-16q0 -18 -6 -33l-643 -1343h213q192 0 276 54.5t111 205.5q3 24 22 24h17q8 0 13 -5
t5 -13v-279q0 -39 -16 -52t-72 -13z" />
    <glyph glyph-name="bracketleft" unicode="[" horiz-adv-x="626" 
d="M215 1669q163 -3 326 0q24 0 24 -24v-21q0 -11 -7 -18t-17 -7h-193v-1808h193q11 0 17.5 -6.5t6.5 -17.5v-21q0 -25 -24 -25q-163 3 -326 0v1948z" />
    <glyph glyph-name="backslash" unicode="\" horiz-adv-x="681" 
d="M606 -82q-10 -3 -23 0t-14 10l-481 1696q-3 8 5 17t18 12l32 8q9 3 21.5 0t13.5 -10l484 -1694q3 -10 -5 -19t-20 -12z" />
    <glyph glyph-name="bracketright" unicode="]" horiz-adv-x="606" 
d="M391 -279q-162 3 -325 0q-25 0 -25 25v21q0 10 7 17t18 7h192v1808h-192q-10 0 -17.5 7.5t-7.5 17.5v21q0 24 25 24q162 -3 325 0v-1948z" />
    <glyph glyph-name="asciicircum" unicode="^" horiz-adv-x="622" 
d="M41 950q-18 12 -6 35l231 506q8 16 29 16h33q20 0 28 -16l232 -506q12 -23 -6 -35l-13 -8q-24 -16 -39 14l-219 412l-219 -412q-15 -30 -39 -14z" />
    <glyph glyph-name="underscore" unicode="_" horiz-adv-x="978" 
d="M45 -92q-11 0 -18 7t-7 17v33q0 11 7 18t18 7h889q10 0 17 -7t7 -18v-33q0 -10 -7 -17t-17 -7h-889z" />
    <glyph glyph-name="grave" unicode="`" horiz-adv-x="505" 
d="M418 1642q-245 114 -328 170q-39 31 -47.5 66.5t16.5 69.5q22 32 58 34t76 -26q23 -16 55.5 -48t95 -99.5t105.5 -112.5q22 -22 12 -39l-6 -10q-11 -18 -37 -5z" />
    <glyph glyph-name="a" unicode="a" horiz-adv-x="866" 
d="M698 -20q-62 0 -101.5 35t-57.5 120q-138 -166 -316 -166q-84 0 -133 56.5t-49 154.5q0 109 108 204.5t375 197.5l2 137q3 107 -8.5 162.5t-36.5 74.5t-75 19q-55 0 -84.5 -30.5t-51.5 -110.5q-38 -140 -114 -140q-30 0 -53 28.5t-23 70.5q0 64 51.5 123t132 93.5
t164.5 34.5q157 0 222 -65t61 -231q-4 -218 -4 -394q1 -108 7 -161.5t16 -70t30 -16.5q26 0 43 23q13 18 35 4l6 -4q11 -7 12 -16.5t-4 -22.5q-20 -58 -56 -84t-98 -26zM238 217q0 -61 24.5 -92t67.5 -31q38 0 94 32.5t102 92.5q-4 62 -4 98v185q-153 -57 -218.5 -125
t-65.5 -160z" />
    <glyph glyph-name="b" unicode="b" horiz-adv-x="1034" 
d="M131 1337q0 81 -96 107q-15 3 -15 20v17q0 17 17 20q131 27 221 86q11 9 25 4l10 -4q14 -6 14 -22v-637q104 116 273 116q171 0 292 -139t121 -360q0 -143 -38.5 -256t-104 -181t-147 -103.5t-173.5 -35.5q-54 0 -100.5 14.5t-72 31.5t-52 31.5t-45.5 14.5
q-24 0 -37.5 -8t-23.5 -30q-11 -23 -35 -23h-10q-32 0 -29 33q6 53 6 164v1140zM315 199q39 -65 101 -98t129 -33q248 0 248 428q0 216 -76.5 330t-202.5 114q-56 0 -108.5 -25t-90.5 -71v-645z" />
    <glyph glyph-name="c" unicode="c" horiz-adv-x="847" 
d="M483 -31q-87 0 -166 37t-141 106t-98.5 178t-36.5 242q0 244 122 378t314 134q79 0 159 -21.5t114 -51.5q17 -14 21.5 -27.5t4.5 -40.5v-196q0 -8 -5.5 -13.5t-12.5 -5.5h-17q-18 0 -24 25q-35 135 -94 198.5t-148 63.5q-106 0 -169.5 -106t-63.5 -302q0 -219 83.5 -342
t217.5 -123q67 0 128 29t105 84q16 19 33 6l8 -6q17 -13 8 -31q-108 -215 -342 -215z" />
    <glyph glyph-name="d" unicode="d" horiz-adv-x="1028" 
d="M721 1337q0 81 -96 107q-15 3 -15 20v17q0 17 17 20q131 27 221 86q11 8 24 4l11 -4q14 -6 14 -22v-1297q0 -63 21.5 -94t74.5 -45q15 -3 15 -20v-17q0 -17 -17 -20q-55 -6 -120.5 -31t-96.5 -55q-15 -12 -35 -4q-18 8 -18 24v121q-107 -158 -275 -158q-82 0 -155.5 37
t-129 104.5t-88 170.5t-32.5 227q0 130 35.5 233.5t97 168.5t140.5 99.5t169 34.5q146 0 238 -71v364zM242 551q0 -211 69 -334t187 -123q69 0 129.5 50t85.5 126v480q-28 108 -92 163.5t-144 55.5q-235 0 -235 -418z" />
    <glyph glyph-name="e" unicode="e" horiz-adv-x="847" 
d="M475 -31q-86 0 -164.5 39.5t-138.5 109t-95.5 172.5t-35.5 222q0 254 120.5 393t307.5 139q147 0 249.5 -101t102.5 -232q0 -54 -15 -69t-52 -15h-510q-2 -18 -2 -60q0 -225 87.5 -346t225.5 -121q129 0 221 115q16 19 33 6l8 -6q17 -13 8 -31q-55 -103 -147.5 -159
t-202.5 -56zM248 698h211q92 0 127 24.5t35 84.5q0 70 -47 119t-115 49q-89 0 -141.5 -66.5t-69.5 -210.5z" />
    <glyph glyph-name="f" unicode="f" horiz-adv-x="681" 
d="M39 0q-19 0 -19 25v10q0 22 25 28q36 10 64 38.5t28 64.5v758q-21 0 -47.5 -3t-36.5 -3q-17 0 -22.5 6t-5.5 18v16q0 26 34 33q64 17 78 45v97q0 104 35.5 193t95 147.5t135 91t156.5 32.5q221 0 221 -139q0 -43 -28 -72.5t-74 -29.5q-27 0 -47.5 15t-35.5 36t-32.5 42.5
t-47.5 36.5t-71 15q-122 0 -122 -305v-180q26 0 77 1t74 1q29 0 40 -7t11 -24v-33q0 -21 -10 -27.5t-39 -6.5l-153 2v-756q0 -40 36.5 -69t100.5 -36q16 -3 16 -26v-10q0 -25 -18 -25q-55 0 -129 5t-101 5q-31 0 -94 -5t-94 -5z" />
    <glyph glyph-name="g" unicode="g" horiz-adv-x="901" 
d="M373 -465q-92 1 -163.5 23.5t-114 59.5t-64 81.5t-21.5 93.5q0 64 36 116.5t147 131.5q-15 3 -27 17t-37 53q-4 7 -6 10l-51 82q-22 35 -15.5 58.5t47.5 55.5q15 11 40 26.5t61 35.5t51 29q-82 44 -130 121t-48 173q0 167 96.5 261t263.5 94q48 0 133 -25.5t136 -25.5
q23 0 67 2t66 2q29 0 40 -7t11 -24v-33q0 -38 -49 -35q-41 2 -121 2q72 -78 72 -198q0 -167 -94 -260t-261 -93h-8q-103 0 -151 -23.5t-48 -55.5q0 -21 21 -29.5t57 -8t82.5 4.5t97.5 5t102.5 -3.5t98 -25.5t82.5 -56t57 -99t21 -151q0 -164 -130.5 -275t-346.5 -110z
M195 -127q0 -108 67.5 -175.5t196.5 -68.5q130 -1 201 63.5t71 170.5q0 51 -14.5 88.5t-35.5 60.5t-58 36.5t-68.5 18.5t-81.5 3t-83 -6t-85 -11q-52 -26 -81 -74t-29 -106zM272 717q0 -143 46.5 -217t136.5 -74q141 0 141 274q0 137 -48.5 215t-119.5 78q-88 0 -122 -66.5
t-34 -209.5z" />
    <glyph glyph-name="h" unicode="h" horiz-adv-x="1001" 
d="M39 0q-19 0 -19 25v10q0 22 25 28q36 10 64 38.5t28 64.5v1171q0 81 -96 107q-14 3 -14 20v17q0 17 16 20q131 27 221 86q11 9 25 4l10 -4q14 -6 14 -22v-682q100 161 277 161q143 0 213.5 -90t70.5 -247v-541q0 -38 31 -67.5t70 -37.5q16 -3 16 -26v-10q0 -25 -18 -25
q-32 0 -97 5t-96 5q-32 0 -94 -5t-94 -5q-19 0 -19 25v10q0 22 25 28q36 10 64 38.5t28 64.5v471q0 276 -176 276q-59 0 -112.5 -35t-79.5 -102v-610q0 -38 30.5 -67.5t69.5 -37.5q16 -3 16 -26v-10q0 -25 -18 -25q-32 0 -97 5t-96 5t-94 -5t-94 -5z" />
    <glyph glyph-name="i" unicode="i" horiz-adv-x="448" 
d="M39 0q-19 0 -19 25v10q0 22 25 28q36 10 64 38.5t28 64.5v571q0 82 -96 107q-14 3 -14 20v17q0 14 16 20q50 16 118 57t111 84q9 9 31 2q19 -8 19 -24v-854q0 -38 30.5 -67.5t69.5 -37.5q16 -3 16 -26v-10q0 -25 -18 -25q-32 0 -97 5t-96 5t-94 -5t-94 -5zM98 1331
q0 65 34 104.5t89 39.5t88 -39.5t33 -104.5q0 -66 -33 -105.5t-88 -39.5q-56 0 -89.5 39.5t-33.5 105.5z" />
    <glyph glyph-name="j" unicode="j" horiz-adv-x="464" 
d="M20 -414q-100 0 -152 51t-52 115q0 47 28.5 87t69.5 40q40 0 62 -21t29.5 -50.5t13.5 -59.5t20 -51t41 -21q29 0 44.5 23.5t23.5 91.5t8 197v749q0 82 -97 107q-14 3 -14 20v17q0 14 16 20q50 16 119 57.5t111 83.5q9 9 31 2q18 -8 18 -24v-928q0 -236 -83 -371
t-237 -135zM127 1341q0 59 30 94t81 35q49 0 78.5 -35t29.5 -94q0 -60 -29.5 -95.5t-78.5 -35.5q-51 0 -81 35.5t-30 95.5z" />
    <glyph glyph-name="k" unicode="k" horiz-adv-x="995" 
d="M39 0q-19 0 -19 25v10q0 22 25 28q36 10 64 38.5t28 64.5v1171q0 81 -96 107q-14 3 -14 20v17q0 17 16 20q143 29 229 86q11 9 25 4l10 -4q15 -6 15 -22v-1098l288 369q25 32 28 57t-23 44t-83 26q-24 3 -24 26v10q0 25 18 25q52 0 129 -5t101 -5t77.5 5t79.5 5
q19 0 19 -25v-10q0 -23 -17 -26q-51 -8 -109 -39.5t-89 -71.5l-185 -231l275 -435q30 -46 77 -81.5t85 -43.5q16 -3 16 -26v-10q0 -25 -18 -25q-29 0 -101.5 5t-117.5 5q-36 0 -103 -5t-104 -5q-19 0 -19 25v10q0 22 25 28q39 9 51 38t-12 71l-174 295l-90 -113v-188
q0 -38 30.5 -67.5t69.5 -37.5q16 -3 16 -26v-10q0 -25 -18 -25q-32 0 -97 5t-96 5t-94 -5t-94 -5z" />
    <glyph glyph-name="l" unicode="l" horiz-adv-x="448" 
d="M39 0q-19 0 -19 25v10q0 22 25 28q36 10 64 38.5t28 64.5v1171q0 81 -96 107q-14 3 -14 20v17q0 17 16 20q143 29 229 86q11 9 25 4l10 -4q15 -6 15 -22v-1399q0 -38 30.5 -67.5t69.5 -37.5q16 -3 16 -26v-10q0 -25 -18 -25q-32 0 -97 5t-96 5t-94 -5t-94 -5z" />
    <glyph glyph-name="m" unicode="m" horiz-adv-x="1492" 
d="M1182 707q0 206 -146 206q-60 0 -113 -35.5t-79 -103.5v-31v-577q0 -38 30.5 -67.5t69.5 -37.5q17 -3 17 -26v-10q0 -25 -19 -25q-32 0 -96 5t-96 5t-95 -5t-94 -5q-18 0 -18 25v10q0 22 24 28q36 10 64 38.5t28 64.5v541q0 206 -145 206q-59 0 -112.5 -35t-79.5 -102
v-610q0 -38 30.5 -67.5t69.5 -37.5q16 -3 16 -26v-10q0 -25 -18 -25q-32 0 -97 5t-96 5t-94 -5t-94 -5q-19 0 -19 25v10q0 22 25 28q36 10 64 38.5t28 64.5v592q0 81 -96 106q-14 3 -14 21v16q0 18 16 21q62 12 123 47.5t98 72.5q9 9 31 2q18 -8 18 -24v-150
q101 174 277 174q91 0 152.5 -48.5t86.5 -135.5q101 184 283 184q119 0 186.5 -81t67.5 -220v-577q0 -38 30.5 -67.5t69.5 -37.5q17 -3 17 -26v-10q0 -25 -19 -25q-32 0 -96 5t-96 5t-95 -5t-94 -5q-18 0 -18 25v10q0 22 25 28q36 10 64 38.5t28 64.5v541z" />
    <glyph glyph-name="n" unicode="n" horiz-adv-x="1001" 
d="M690 637q0 276 -176 276q-59 0 -112.5 -35t-79.5 -102v-610q0 -38 30.5 -67.5t69.5 -37.5q16 -3 16 -26v-10q0 -25 -18 -25q-32 0 -97 5t-96 5t-94 -5t-94 -5q-19 0 -19 25v10q0 22 25 28q36 10 64 38.5t28 64.5v592q0 81 -96 106q-14 3 -14 21v16q0 18 16 21
q62 12 123 47.5t98 72.5q9 9 31 2q18 -8 18 -24v-137q100 161 277 161q143 0 213.5 -90t70.5 -247v-541q0 -38 31 -67.5t70 -37.5q16 -3 16 -26v-10q0 -25 -18 -25q-32 0 -97 5t-96 5q-32 0 -94 -5t-94 -5q-19 0 -19 25v10q0 22 25 28q36 10 64 38.5t28 64.5v471z" />
    <glyph glyph-name="o" unicode="o" horiz-adv-x="948" 
d="M479 -31q-199 0 -318.5 145.5t-119.5 387.5q0 246 119 394t317 148q196 0 313 -144.5t117 -383.5q0 -248 -116.5 -397.5t-311.5 -149.5zM242 520q0 -231 66.5 -359t187.5 -128q100 0 155.5 121t55.5 338q0 232 -63.5 360.5t-178.5 128.5q-106 0 -164.5 -121.5
t-58.5 -339.5z" />
    <glyph glyph-name="p" unicode="p" horiz-adv-x="1040" 
d="M551 -31q-131 0 -238 62v-312q0 -38 30.5 -67t70.5 -37q16 -3 16 -27v-10q0 -14 -4 -19t-14 -5q-32 0 -96 5t-93 5t-90.5 -5t-93.5 -5q-19 0 -19 24v10q0 23 25 29q37 10 64.5 38t27.5 64v1039q0 81 -96 106q-14 3 -14 21v16q0 18 16 21q62 12 123 47.5t98 72.5q9 9 31 2
q18 -8 18 -24v-82q103 106 273 106q171 0 292 -139t121 -360q0 -143 -36 -255.5t-99 -181.5t-142.5 -104t-170.5 -35zM322 178q94 -131 235 -131q55 0 97.5 22.5t76 73t51 139.5t17.5 214q0 216 -76.5 330t-202.5 114q-56 0 -109 -23.5t-89 -62.5v-676z" />
    <glyph glyph-name="q" unicode="q" horiz-adv-x="1024" 
d="M727 78q-106 -109 -272 -109q-83 0 -158 34.5t-132 97t-90.5 158t-33.5 210.5q0 143 36 255.5t99 181t142.5 103.5t170.5 35q59 0 109 -14.5t77 -31.5t54 -31.5t45 -14.5q39 0 62 52q11 22 34 22h11q31 0 28 -33q-6 -53 -6 -164v-1028q0 -80 96 -106q15 -3 15 -21v-16
q0 -17 -17 -20q-129 -26 -221 -87q-11 -8 -24 -4l-11 4q-14 6 -14 23v504zM242 518q0 -223 75 -333.5t203 -110.5q56 0 109 24t90 62v686q-40 59 -108 94t-132 35q-237 0 -237 -457z" />
    <glyph glyph-name="r" unicode="r" horiz-adv-x="727" 
d="M39 0q-19 0 -19 25v10q0 22 25 28q36 10 64 38.5t28 64.5v592q0 81 -96 106q-14 3 -14 21v16q0 18 16 21q62 12 123 47.5t98 72.5q9 9 31 2q18 -8 18 -24v-143q51 74 120.5 120.5t127.5 46.5q75 0 115.5 -42t40.5 -111q0 -50 -24 -77.5t-68 -27.5q-29 0 -49 10.5
t-32.5 25t-24.5 29.5t-31 25.5t-46 10.5q-78 0 -120 -111v-610q0 -38 30.5 -67.5t69.5 -37.5q16 -3 16 -26v-10q0 -25 -18 -25q-32 0 -97 5t-96 5t-94 -5t-94 -5z" />
    <glyph glyph-name="s" unicode="s" horiz-adv-x="733" 
d="M365 -31q-95 0 -180 23.5t-117 50.5q-17 15 -22 28t-5 40v231q0 8 5.5 13t12.5 5h17q18 0 24 -24q33 -123 120 -210t183 -87q64 0 103 44t39 110q0 62 -50.5 120.5t-122.5 107.5t-144 100t-122.5 119t-50.5 144q0 121 79 190.5t220 69.5q82 0 154.5 -17.5t101.5 -41.5
q17 -15 22 -27.5t5 -39.5v-181q0 -7 -5.5 -12.5t-13.5 -5.5h-16q-18 0 -24 24q-30 108 -98 170t-142 62q-55 0 -89 -31.5t-34 -87.5q0 -38 26.5 -75t68.5 -69.5t93 -67t101.5 -74.5t92.5 -83.5t68.5 -101.5t26.5 -123q0 -138 -80 -215.5t-247 -77.5z" />
    <glyph glyph-name="t" unicode="t" horiz-adv-x="569" 
d="M338 -31q-105 0 -161 75.5t-56 262.5v611q-20 0 -46 -2.5t-36 -2.5q-29 0 -29 25v8q0 10 6.5 16t28.5 17q107 52 211 254q5 11 25 4l10 -4q14 -6 14 -23v-204q112 3 180 8q30 2 41 -4t11 -23v-33q0 -34 -50 -34q-22 0 -84 1t-98 1v-545q0 -160 25 -220.5t86 -60.5
q44 0 94 33q22 15 35 0l8 -10q14 -17 0 -37q-85 -113 -215 -113z" />
    <glyph glyph-name="u" unicode="u" horiz-adv-x="995" 
d="M422 -31q-143 0 -214 90.5t-71 247.5v551q0 38 -30.5 67.5t-69.5 37.5q-17 3 -17 26v10q0 25 19 25q20 0 70.5 -5t87.5 -5q14 0 48 2t56 2q11 0 17 -2.5t8.5 -10t3 -16.5t-0.5 -26.5t-2.5 -36t-3 -49t-1.5 -60.5v-440q0 -277 176 -277q59 0 112.5 35.5t79.5 102.5v620
q0 38 -30.5 67.5t-69.5 37.5q-17 3 -17 26v10q0 25 19 25q20 0 70.5 -5t87.5 -5q14 0 48 2t56 2q11 0 17 -2.5t8.5 -10t3 -16.5t-1 -26.5t-3 -36t-3 -48.5t-1.5 -61v-549q0 -63 22 -94t75 -45q14 -3 14 -20v-17q0 -17 -16 -20q-55 -6 -120.5 -31t-96.5 -55q-15 -12 -35 -4
q-19 8 -19 24v125q-100 -162 -276 -162z" />
    <glyph glyph-name="v" unicode="v" horiz-adv-x="983" 
d="M489 0q-22 0 -28 20l-301 828q-18 49 -51 78t-72 37q-17 3 -17 26v10q0 25 19 25q27 0 93.5 -5t119.5 -5q44 0 105 5t96 5q18 0 18 -25v-10q0 -22 -25 -28q-110 -25 -81 -111l188 -561l195 547q15 48 -5 80.5t-73 44.5q-25 6 -25 28v10q0 25 19 25q14 0 68 -5t85 -5
q27 0 75.5 5t61.5 5q19 0 19 -25v-10q0 -23 -17 -26q-88 -20 -120 -111l-304 -832q-6 -20 -26 -20h-17z" />
    <glyph glyph-name="w" unicode="w" horiz-adv-x="1419" 
d="M944 0q-19 0 -26 20l-205 613l-197 -613q-7 -20 -27 -20h-16q-20 0 -27 20l-284 826q-17 50 -51.5 79.5t-73.5 37.5q-17 3 -17 26v10q0 25 19 25q29 0 101.5 -5t117.5 -5q37 0 101.5 5t93.5 5q18 0 18 -25v-10q0 -22 -25 -28q-99 -27 -65 -125l160 -517l131 435l-29 84
q-19 52 -51.5 84.5t-63.5 40.5q-16 3 -16 26v10q0 25 18 25q21 0 91 -5t116 -5q36 0 103 5t104 5q19 0 19 -25v-10q0 -22 -25 -28q-107 -24 -82 -113l158 -531l172 525q14 49 -10.5 79t-69.5 40q-25 6 -25 28v10q0 25 19 25q14 0 68 -5t85 -5q27 0 76 5t62 5q18 0 18 -25
v-10q0 -23 -16 -26q-39 -8 -73.5 -40t-53.5 -85l-279 -818q-7 -20 -26 -20h-17z" />
    <glyph glyph-name="x" unicode="x" horiz-adv-x="1009" 
d="M563 0q-18 0 -18 25v10q0 22 24 28q41 9 51.5 40t-14.5 75l-141 236l-146 -226q-29 -48 -8 -82t80 -45q25 -3 25 -26v-10q0 -25 -19 -25q-26 0 -88.5 5t-91.5 5q-24 0 -78 -5t-80 -5q-18 0 -18 25v10q0 23 16 26q50 7 95 38.5t75 76.5l197 303l-231 383q-25 40 -60 67.5
t-67 33.5q-17 3 -17 26v10q0 25 19 25q29 0 91 -5t107 -5q43 0 113 5t106 5q19 0 19 -25v-10q0 -22 -25 -28q-45 -10 -60.5 -41.5t11.5 -83.5l119 -199l129 199q27 48 10.5 81.5t-61.5 43.5q-25 6 -25 28v10q0 25 19 25q13 0 70.5 -5t88.5 -5q27 0 76 5t62 5q18 0 18 -25
v-10q0 -23 -16 -26q-36 -8 -78.5 -40t-71.5 -75l-180 -279l231 -387q26 -44 65.5 -78t65.5 -43q17 -3 17 -26v-10q0 -25 -19 -25q-18 0 -75.5 5t-104.5 5q-36 0 -103 -5t-104 -5z" />
    <glyph glyph-name="y" unicode="y" horiz-adv-x="989" 
d="M133 -449q-77 0 -125.5 36t-48.5 89q0 43 24.5 71t65.5 28q26 0 49.5 -13t39 -29t39 -29t50.5 -13q122 0 222 297l4 12l-308 858q-16 44 -48.5 70.5t-69.5 34.5q-17 3 -17 26v10q0 25 19 25q27 0 93.5 -5t119.5 -5q52 0 115.5 5t97.5 5q18 0 18 -25v-10q0 -22 -24 -28
q-47 -10 -71 -42t-7 -83l182 -560l201 560q19 51 -6 83t-72 42q-25 6 -25 28v10q0 25 19 25q14 0 68 -5t85 -5q27 0 76 5t62 5q18 0 18 -25v-10q0 -23 -16 -26q-38 -8 -71 -36t-50 -75l-273 -760q-192 -541 -436 -541z" />
    <glyph glyph-name="z" unicode="z" horiz-adv-x="819" 
d="M672 -6q-528 6 -592 6q-19 0 -29 7.5t-10 17.5v8q0 9 27 61l475 858h-68q-127 0 -202.5 -43t-112.5 -135q-9 -24 -27 -24h-14q-8 0 -13.5 5.5t-5.5 12.5l15 197q3 41 17.5 53t68.5 12q58 -1 174 -2.5t203 -2.5t143 -1q39 0 39 -25v-10q0 -16 -3.5 -26t-21.5 -41
l-481 -850h61q189 0 276.5 48t127.5 171q9 24 26 24h17q16 0 16 -18l-20 -238q-3 -41 -17.5 -53t-68.5 -12z" />
    <glyph glyph-name="braceleft" unicode="{" horiz-adv-x="632" 
d="M526 -305q-95 8 -157 66t-62 147q0 51 5 118.5t5 118.5q0 482 -243 527q-23 3 -23 24v21q0 21 23 24q114 21 175.5 137.5t61.5 327.5q0 44 -5 107.5t-5 107.5q0 107 61.5 176t163.5 78q25 0 25 -24v-23q0 -21 -23 -24q-51 -10 -73.5 -47t-22.5 -103q0 -46 7 -119t7 -125
q0 -196 -71 -323.5t-201 -177.5q130 -47 201 -181t71 -352q0 -53 -7 -129t-7 -129q0 -123 96 -149q23 -7 23 -27v-23q0 -24 -25 -24z" />
    <glyph glyph-name="bar" unicode="|" horiz-adv-x="135" 
d="M51 -172q-11 0 -21 7.5t-10 17.5v1708q0 10 10 17t21 7h33q11 0 21 -7t10 -17v-1708q0 -10 -10 -17.5t-21 -7.5h-33z" />
    <glyph glyph-name="braceright" unicode="}" horiz-adv-x="632" 
d="M106 -305q-24 0 -24 24v23q0 21 22 27q97 26 97 149q0 53 -7.5 129t-7.5 129q0 218 71 352t202 181q-130 51 -201.5 178t-71.5 323q0 52 7.5 125t7.5 119q0 131 -97 150q-22 3 -22 24v23q0 24 24 24q102 -9 164 -78t62 -176q0 -44 -5 -107.5t-5 -107.5
q0 -211 61.5 -327.5t175.5 -137.5q23 -3 23 -24v-21q0 -21 -23 -24q-244 -45 -244 -527q0 -51 5.5 -118.5t5.5 -118.5q0 -89 -62.5 -147t-157.5 -66z" />
    <glyph glyph-name="asciitilde" unicode="~" horiz-adv-x="727" 
d="M535 557q-81 0 -186.5 36t-172.5 36q-56 0 -84 -54q-9 -16 -22 -8l-19 13q-14 7 -8 20q13 55 55 88t99 33q73 0 172.5 -37t169.5 -37q66 0 94 55q11 17 24 7l19 -13q13 -7 8 -22q-13 -58 -53.5 -87.5t-95.5 -29.5z" />
    <glyph glyph-name="exclamdown" unicode="&#xa1;" horiz-adv-x="307" 
d="M162 1059q23 0 26 -25l78 -958q5 -56 -23 -86.5t-83 -30.5h-13q-55 0 -83 30.5t-23 86.5l78 958q3 25 26 25h17zM45 1364q0 57 30 92t79 35q51 0 80.5 -35t29.5 -92q0 -56 -30 -90.5t-80 -34.5q-49 0 -79 34.5t-30 90.5z" />
    <glyph glyph-name="cent" unicode="&#xa2;" horiz-adv-x="847" 
d="M483 205q-78 0 -151 31l-35 -117q-1 -7 -14 -10t-23 0l-31 8q-12 3 -19.5 11.5t-4.5 18.5l41 138q-95 71 -150 193.5t-55 289.5q0 244 122 378t314 134q20 0 60 -4l28 98q1 7 13.5 10t21.5 0l33 -8q10 -3 17.5 -11.5t4.5 -16.5l-26 -88q85 -22 121 -54q17 -15 21.5 -27.5
t4.5 -39.5v-197q0 -8 -5 -13t-13 -5h-17q-18 0 -24 24q-40 154 -115 217l-223 -766q70 -61 164 -61q67 0 128 29t105 84q16 19 33 6l8 -6q17 -13 8 -31q-108 -215 -342 -215zM242 803q0 -189 65 -309l209 712q-24 4 -41 4q-106 0 -169.5 -105.5t-63.5 -301.5z" />
    <glyph glyph-name="sterling" unicode="&#xa3;" horiz-adv-x="1280" 
d="M307 -31q-148 0 -217.5 49.5t-69.5 137.5q0 94 70.5 150t198.5 56q59 0 131 -20q-8 182 -43 356h-189q-10 0 -17 7t-7 18v33q0 10 7 17t17 7h170q-19 80 -26.5 117.5t-16 101t-8.5 121.5q0 185 124.5 289t318.5 104q86 0 190.5 -26.5t142.5 -50.5q29 -18 29 -60v-270
q0 -10 -7 -17.5t-18 -7.5h-14q-23 0 -29 21q-95 334 -319 334q-123 0 -185.5 -62t-62.5 -182q0 -22 1.5 -45.5t3 -42t5.5 -44t6.5 -40t9 -42.5t9 -38.5t11 -41.5t11 -38t12.5 -41t11 -39h356q11 0 18 -7t7 -17v-33q0 -11 -7 -18t-18 -7h-331q45 -169 45 -307q0 -57 -15 -141
q63 -34 93 -49.5t81.5 -32t94.5 -16.5q99 0 166.5 39.5t121.5 148.5q9 21 33 14l19 -6q23 -7 16 -31l-107 -344h-43q-351 0 -530 140q-90 -144 -250 -144zM211 152q0 -45 25 -75t79 -30q97 0 105 199q-43 37 -88 37q-48 0 -84.5 -38t-36.5 -93z" />
    <glyph glyph-name="yen" unicode="&#xa5;" horiz-adv-x="1214" 
d="M254 440q-10 0 -17.5 7t-7.5 18v33q0 10 7 17t18 7h233l-303 805q-34 91 -157 103q-17 3 -17 26v10q0 25 19 25q54 0 137.5 -5t122.5 -5q38 0 121.5 5t156.5 5q19 0 19 -25v-10q0 -23 -25 -26q-86 -11 -123 -39t-20 -74l258 -711l250 697q19 54 -14 85.5t-121 41.5
q-25 3 -25 26v10q0 25 18 25q50 0 122 -5t102 -5q22 0 80.5 5t97.5 5q18 0 18 -25v-10q0 -23 -16 -26q-126 -15 -160 -107l-295 -801h246q11 0 18 -7t7 -17v-33q0 -11 -7 -18t-18 -7h-264v-102h264q11 0 18 -7t7 -18v-32q0 -11 -7 -18t-18 -7h-264v-90q0 -39 34 -68t87 -37
q16 -3 16 -26v-10q0 -25 -18 -25q-43 0 -115.5 5t-108.5 5t-106 -5t-113 -5q-18 0 -18 25v10q0 22 24 28q50 9 81.5 37t31.5 66v90h-256q-10 0 -17.5 7t-7.5 18v32q0 11 7.5 18t17.5 7h256v102h-256z" />
    <glyph glyph-name="section" unicode="&#xa7;" horiz-adv-x="722" 
d="M365 -31q-95 0 -180 23.5t-117 50.5q-17 15 -22 28t-5 40v231q0 8 5.5 13t12.5 5h17q18 0 24 -24q33 -123 120 -210t183 -87q64 0 103 44t39 110q0 62 -50.5 120.5t-122.5 107.5t-144 100t-122.5 119t-50.5 144q0 170 150 234q-150 118 -150 244q0 121 79 190.5t220 69.5
q82 0 154.5 -18t101.5 -42q17 -15 22 -27.5t5 -39.5v-181q0 -7 -5.5 -12.5t-13.5 -5.5h-16q-18 0 -24 25q-29 108 -97.5 169.5t-142.5 61.5q-55 0 -89 -31.5t-34 -87.5q0 -38 26.5 -75t68.5 -69.5t93 -67t101.5 -74.5t92.5 -83.5t68.5 -101.5t26.5 -123q0 -163 -108 -237
q108 -108 108 -240q0 -138 -80 -215.5t-247 -77.5zM215 856q0 -31 16.5 -61t50 -59t66.5 -53t82.5 -58.5t81.5 -59.5q33 45 33 105q0 20 -4 38.5t-15 37.5t-20.5 33.5t-29.5 33.5t-32 30t-39.5 31t-39.5 29t-43.5 31t-42.5 29q-64 -30 -64 -107z" />
    <glyph glyph-name="dieresis" unicode="&#xa8;" horiz-adv-x="587" 
d="M152 1679q-51 0 -81 35t-30 92q0 56 30 90.5t81 34.5q49 0 78.5 -34.5t29.5 -90.5q0 -57 -29.5 -92t-78.5 -35zM328 1806q0 56 30 90.5t80 34.5q49 0 79 -34.5t30 -90.5q0 -57 -30 -92t-79 -35q-51 0 -80.5 35t-29.5 92z" />
    <glyph glyph-name="copyright" unicode="&#xa9;" horiz-adv-x="1636" 
d="M819 -27q-161 0 -305 61t-248 164.5t-164.5 248t-60.5 305.5q0 214 103 392t281.5 281t393.5 103q160 0 304 -60.5t247.5 -164t164 -247.5t60.5 -304q0 -161 -60.5 -305.5t-164 -248t-247.5 -164.5t-304 -61zM125 752q0 -146 54 -277t146.5 -225t221.5 -149.5t272 -55.5
t271 55.5t220.5 149.5t146.5 225t54 277t-54 276.5t-146.5 224t-220.5 148.5t-271 55t-272 -55t-221.5 -148.5t-146.5 -224t-54 -276.5zM399 768q0 244 122.5 378t314.5 134q78 0 158 -22t114 -52q17 -15 22 -27.5t5 -39.5v-197q0 -7 -5.5 -12.5t-13.5 -5.5h-16
q-19 0 -25 24q-35 135 -93.5 198.5t-147.5 63.5q-106 0 -170 -105.5t-64 -301.5q0 -219 83.5 -342t217.5 -123q67 0 128.5 29t105.5 84q16 19 32 6l9 -6q17 -13 8 -31q-108 -215 -342 -215q-87 0 -166 37t-141 106t-99 178t-37 242z" />
    <glyph glyph-name="guillemotleft" unicode="&#xab;" horiz-adv-x="1185" 
d="M98 475q-16 11 -16 29v33q0 17 16 28l506 314q21 14 35 -7l8 -12q14 -21 -6 -35l-434 -305l434 -305q19 -16 6 -35l-8 -12q-14 -20 -35 -6zM512 504v33q0 17 16 28l506 314q21 14 35 -7l8 -12q14 -21 -6 -35l-434 -305l434 -305q19 -16 6 -35l-8 -12q-14 -20 -35 -6
l-506 313q-16 11 -16 29z" />
    <glyph glyph-name="registered" unicode="&#xae;" horiz-adv-x="755" 
d="M379 854q-142 0 -240 98.5t-98 239.5t98 238.5t240 97.5q140 0 238 -97.5t98 -238.5t-98 -239.5t-238 -98.5zM96 1192q0 -122 81.5 -204.5t201.5 -82.5q119 0 199.5 83t80.5 204q0 120 -81 202.5t-199 82.5q-120 0 -201.5 -82.5t-81.5 -202.5zM242 1012v2q0 5 6 8
q28 7 28 27v299q0 19 -28 26q-6 0 -6 6v4q0 7 4 7l80 -2q16 0 28.5 0.5t18 1t6.5 0.5q50 0 81.5 -29t31.5 -72q0 -79 -82 -98q29 -10 51 -74q18 -56 34.5 -74t39.5 -22q4 0 4 -6v-2q0 -6 -4 -6q-16 0 -34 -1t-24 -1q-22 0 -36 19.5t-33 74.5q-27 85 -68 88l-10 2v-141
q0 -11 8.5 -18.5t21.5 -8.5q5 -5 5 -8v-2q0 -6 -5 -6q-12 0 -30.5 1t-26.5 1q-10 0 -28.5 -1t-28.5 -1q-4 0 -4 6zM330 1208q12 -2 41 -2q32 0 46.5 19t14.5 61q0 41 -16.5 62.5t-44.5 21.5h-13q-28 0 -28 -22v-140z" />
    <glyph glyph-name="macron" unicode="&#xaf;" horiz-adv-x="628" 
d="M59 1620q-8 0 -13 7.5t-5 17.5v32q0 10 5 17.5t13 7.5h512q17 0 17 -25v-32q0 -25 -17 -25h-512z" />
    <glyph glyph-name="degree" unicode="&#xb0;" horiz-adv-x="483" 
d="M244 1059q-92 0 -147.5 59.5t-55.5 157.5q0 102 54.5 162.5t146.5 60.5t146 -59t54 -158q0 -101 -53.5 -162t-144.5 -61zM158 1286q0 -72 24.5 -116t65.5 -44q35 0 56.5 40.5t21.5 107.5q0 72 -24 116t-64 44q-37 0 -58.5 -40t-21.5 -108z" />
    <glyph glyph-name="plusminus" unicode="&#xb1;" horiz-adv-x="856" 
d="M66 123q-11 0 -18 7t-7 17v33q0 10 7.5 17.5t17.5 7.5h725q10 0 17 -7t7 -18v-33q0 -11 -6.5 -17.5t-17.5 -6.5h-725zM41 621v32q0 21 25 21h321v264q0 10 7.5 17.5t17.5 7.5h32q10 0 17.5 -7.5t7.5 -17.5v-264h322q24 0 24 -21v-32q0 -21 -24 -21h-322v-264
q0 -10 -7.5 -17.5t-17.5 -7.5h-32q-10 0 -17.5 7.5t-7.5 17.5v264h-321q-25 0 -25 21z" />
    <glyph glyph-name="acute" unicode="&#xb4;" horiz-adv-x="505" 
d="M88 1642q-26 -13 -37 5l-6 10q-10 17 12 39q43 45 105.5 112.5t95 99.5t55.5 48q40 28 75.5 26t57.5 -34q26 -34 17.5 -69.5t-47.5 -66.5q-83 -56 -328 -170z" />
    <glyph glyph-name="periodcentered" unicode="&#xb7;" horiz-adv-x="321" 
d="M162 594q-51 0 -81 35t-30 92q0 56 30 90.5t81 34.5q49 0 78.5 -34.5t29.5 -90.5q0 -57 -29.5 -92t-78.5 -35z" />
    <glyph glyph-name="cedilla" unicode="&#xb8;" horiz-adv-x="473" 
d="M231 -465q-58 0 -107 22.5t-77 55.5q-15 15 4 33l8 8q17 17 33 -2q41 -35 113 -35q44 0 72 23.5t28 68.5q0 63 -38 90.5t-126 32.5l43 195l76 -9l-29 -129q107 -15 154 -56.5t47 -121.5q0 -83 -51 -129.5t-150 -46.5z" />
    <glyph glyph-name="guillemotright" unicode="&#xbb;" horiz-adv-x="1185" 
d="M582 162q-21 -14 -35 6l-8 12q-13 19 6 35l434 305l-434 305q-20 14 -6 35l8 12q14 21 35 7l505 -314q17 -11 17 -28v-33q0 -18 -17 -29zM109 180q-13 19 6 35l434 305l-434 305q-20 14 -6 35l8 12q14 21 35 7l505 -314q17 -11 17 -28v-33q0 -18 -17 -29l-505 -313
q-21 -14 -35 6z" />
    <glyph glyph-name="questiondown" unicode="&#xbf;" horiz-adv-x="694" 
d="M412 1094q29 13 41 -17q33 -72 28.5 -146t-30 -129.5t-64.5 -122.5t-75.5 -124.5t-62.5 -135t-26 -153.5q0 -106 34.5 -154.5t104.5 -48.5q35 0 60 16t40 39t29 46t36.5 39t54.5 16q46 0 74 -29.5t28 -72.5q0 -63 -55 -101.5t-137 -38.5q-123 0 -227 50.5t-164 136
t-60 184.5q0 62 23 120.5t58.5 102.5t78.5 91.5t82 88t70 92t42 102.5t-2 120q-4 16 19 29zM301 1386q0 57 30 92t79 35q51 0 80.5 -35t29.5 -92q0 -56 -29.5 -90t-80.5 -34q-49 0 -79 34t-30 90z" />
    <glyph glyph-name="Agrave" unicode="&#xc0;" horiz-adv-x="1261" 
d="M29 0q-19 0 -19 25v10q0 23 17 26q130 15 159 107l402 1302q7 21 26 21h25q20 0 27 -21l411 -1304q30 -91 158 -103q16 -3 16 -26v-10q0 -25 -18 -25q-55 0 -138 5t-122 5q-38 0 -125 -5t-160 -5q-18 0 -18 25v10q0 23 24 26q85 11 121 38.5t23 74.5l-105 367h-344
l-100 -355q-15 -56 16.5 -86.5t118.5 -40.5q25 -3 25 -26v-10q0 -25 -19 -25q-52 0 -125.5 5t-97.5 5q-22 0 -80.5 -5t-97.5 -5zM244 1923q22 32 57.5 34t75.5 -26q23 -16 55.5 -48t95 -99.5t105.5 -112.5q22 -22 12 -39l-6 -10q-10 -17 -37 -4q-245 114 -328 170
q-83 67 -30 135zM412 621h299l-150 528z" />
    <glyph glyph-name="Aacute" unicode="&#xc1;" horiz-adv-x="1261" 
d="M29 0q-19 0 -19 25v10q0 23 17 26q130 15 159 107l402 1302q7 21 26 21h25q20 0 27 -21l411 -1304q30 -91 158 -103q16 -3 16 -26v-10q0 -25 -18 -25q-55 0 -138 5t-122 5q-38 0 -125 -5t-160 -5q-18 0 -18 25v10q0 23 24 26q85 11 121 38.5t23 74.5l-105 367h-344
l-100 -355q-15 -56 16.5 -86.5t118.5 -40.5q25 -3 25 -26v-10q0 -25 -19 -25q-52 0 -125.5 5t-97.5 5q-22 0 -80.5 -5t-97.5 -5zM412 621h299l-150 528zM596 1632q-10 17 12 39q43 45 105.5 112.5t95 99.5t55.5 48q40 28 75.5 26t57.5 -34q53 -68 -30 -135
q-83 -56 -328 -170q-27 -13 -37 4z" />
    <glyph glyph-name="Acircumflex" unicode="&#xc2;" horiz-adv-x="1261" 
d="M29 0q-19 0 -19 25v10q0 23 17 26q130 15 159 107l402 1302q7 21 26 21h25q20 0 27 -21l411 -1304q30 -91 158 -103q16 -3 16 -26v-10q0 -25 -18 -25q-55 0 -138 5t-122 5q-38 0 -125 -5t-160 -5q-18 0 -18 25v10q0 23 24 26q85 11 121 38.5t23 74.5l-105 367h-344
l-100 -355q-15 -56 16.5 -86.5t118.5 -40.5q25 -3 25 -26v-10q0 -25 -19 -25q-52 0 -125.5 5t-97.5 5q-22 0 -80.5 -5t-97.5 -5zM397 1634l189 283q13 16 28 16h33q16 0 29 -16l188 -283q16 -26 -8 -43l-8 -6q-22 -19 -43 6l-174 221l-174 -221q-21 -25 -43 -6l-8 6
q-25 18 -9 43zM412 621h299l-150 528z" />
    <glyph glyph-name="Atilde" unicode="&#xc3;" horiz-adv-x="1261" 
d="M29 0q-19 0 -19 25v10q0 23 17 26q130 15 159 107l402 1302q7 21 26 21h25q20 0 27 -21l411 -1304q30 -91 158 -103q16 -3 16 -26v-10q0 -25 -18 -25q-55 0 -138 5t-122 5q-38 0 -125 -5t-160 -5q-18 0 -18 25v10q0 23 24 26q85 11 121 38.5t23 74.5l-105 367h-344
l-100 -355q-15 -56 16.5 -86.5t118.5 -40.5q25 -3 25 -26v-10q0 -25 -19 -25q-52 0 -125.5 5t-97.5 5q-22 0 -80.5 -5t-97.5 -5zM369 1640q15 56 56.5 88.5t98.5 32.5q42 0 111 -36.5t108 -36.5q67 0 95 55q11 16 24 6l19 -12q13 -6 10 -23q-14 -58 -55.5 -87.5t-96.5 -29.5
q-50 0 -124 36t-111 36q-57 0 -84 -53q-10 -16 -23 -8l-18 12q-13 7 -10 20zM412 621h299l-150 528z" />
    <glyph glyph-name="Adieresis" unicode="&#xc4;" horiz-adv-x="1261" 
d="M29 0q-19 0 -19 25v10q0 23 17 26q130 15 159 107l402 1302q7 21 26 21h25q20 0 27 -21l411 -1304q30 -91 158 -103q16 -3 16 -26v-10q0 -25 -18 -25q-55 0 -138 5t-122 5q-38 0 -125 -5t-160 -5q-18 0 -18 25v10q0 23 24 26q85 11 121 38.5t23 74.5l-105 367h-344
l-100 -355q-15 -56 16.5 -86.5t118.5 -40.5q25 -3 25 -26v-10q0 -25 -19 -25q-52 0 -125.5 5t-97.5 5q-22 0 -80.5 -5t-97.5 -5zM377 1782q0 56 30 90.5t80 34.5q49 0 79 -34.5t30 -90.5q0 -57 -30 -92t-79 -35q-51 0 -80.5 35t-29.5 92zM412 621h299l-150 528zM664 1782
q0 56 30 90.5t80 34.5q49 0 79 -34.5t30 -90.5q0 -57 -30 -92t-79 -35q-51 0 -80.5 35t-29.5 92z" />
    <glyph glyph-name="Aring" unicode="&#xc5;" horiz-adv-x="1261" 
d="M29 0q-19 0 -19 25v10q0 23 17 26q130 15 159 107l402 1302q3 11 12 17q-78 11 -124 68.5t-46 146.5q0 102 54.5 162.5t146.5 60.5t146 -59t54 -158q0 -95 -47 -154t-129 -67q8 -8 11 -17l411 -1304q30 -91 158 -103q16 -3 16 -26v-10q0 -25 -18 -25q-55 0 -138 5t-122 5
q-38 0 -125 -5t-160 -5q-18 0 -18 25v10q0 23 24 26q85 11 121 38.5t23 74.5l-105 367h-344l-100 -355q-15 -56 16.5 -86.5t118.5 -40.5q25 -3 25 -26v-10q0 -25 -19 -25q-52 0 -125.5 5t-97.5 5q-22 0 -80.5 -5t-97.5 -5zM412 621h299l-150 528zM547 1712q0 -72 24.5 -116
t65.5 -44q35 0 56.5 40.5t21.5 107.5q0 72 -24 116t-64 44q-37 0 -58.5 -40t-21.5 -108z" />
    <glyph glyph-name="AE" unicode="&#xc6;" horiz-adv-x="1792" 
d="M29 0q-19 0 -19 25v10q0 23 17 26q138 16 186 107l655 1294q14 29 47 29q52 0 158 -3t158 -3q123 0 248 2.5t180 3.5q55 0 71.5 -13t16.5 -53v-278q0 -8 -5.5 -13.5t-12.5 -5.5h-17q-19 0 -22 25q-14 78 -40 127t-73.5 79t-111.5 41.5t-162 12.5l-177 2v-610h232
q74 0 120.5 42t53.5 128q3 18 27 18h10q14 0 19 -4t5 -14q0 -38 -3 -103t-3 -104q0 -41 3 -105t3 -106q0 -10 -5 -14t-19 -4h-10q-24 0 -27 26q-20 162 -174 162h-232v-561q0 -39 32.5 -63.5t78.5 -24.5h90q192 0 276 54.5t111 205.5q3 24 23 24h16q8 0 13.5 -5.5t5.5 -12.5
v-278q0 -39 -16.5 -52.5t-72.5 -13.5q-61 1 -204.5 3.5t-241.5 2.5q-131 0 -274.5 -3t-159.5 -3q-19 0 -19 25v10q0 22 25 28q50 9 81.5 37t31.5 66v377h-428l-179 -355q-29 -55 -3.5 -86t112.5 -41q25 -3 25 -26v-10q0 -25 -19 -25q-36 0 -109.5 5t-113.5 5q-37 0 -96 -5
t-82 -5zM532 621h390v772z" />
    <glyph glyph-name="Ccedilla" unicode="&#xc7;" horiz-adv-x="1077" 
d="M610 -31l-18 -80q107 -15 154 -56.5t47 -121.5q0 -83 -51 -129.5t-150 -46.5q-58 0 -107 22.5t-77 55.5q-14 15 4 33l8 8q17 17 33 -2q41 -35 112 -35q44 0 72.5 23.5t28.5 68.5q0 63 -38 90.5t-126 32.5l30 143q-103 16 -191.5 75.5t-155.5 156.5t-105.5 239.5
t-38.5 313.5q0 362 153.5 557.5t413.5 195.5q98 0 194.5 -22.5t147.5 -54.5q29 -18 29 -60v-270q0 -10 -7.5 -17.5t-17.5 -7.5h-14q-23 0 -29 21q-51 181 -136.5 257.5t-203.5 76.5q-136 0 -219.5 -149.5t-83.5 -436.5q0 -344 123 -542.5t305 -198.5q146 0 279 145
q19 19 43 2l6 -4q24 -17 4 -43q-164 -240 -418 -240z" />
    <glyph glyph-name="Egrave" unicode="&#xc8;" horiz-adv-x="1028" 
d="M948 1128q-19 0 -22 25q-27 151 -111 205.5t-276 54.5h-66q-46 0 -78.5 -24.5t-32.5 -63.5v-520h232q74 0 120.5 42t53.5 128q3 18 27 18h10q14 0 19 -4t5 -14q0 -38 -3 -103t-3 -104q0 -41 3 -105t3 -106q0 -10 -5 -14t-19 -4h-10q-24 0 -27 26q-20 162 -174 162h-232
v-561q0 -39 32.5 -63.5t78.5 -24.5h90q192 0 276 54.5t111 205.5q3 24 23 24h16q8 0 13.5 -5.5t5.5 -12.5v-278q0 -40 -16.5 -53t-71.5 -13q-61 1 -205 3.5t-242 2.5q-131 0 -274.5 -3t-159.5 -3q-19 0 -19 25v10q0 22 25 28q50 9 81.5 37t31.5 66v1159q0 38 -31.5 65.5
t-81.5 36.5q-25 6 -25 29v10q0 25 19 25q16 0 159.5 -3t274.5 -3q82 0 216.5 2.5t205.5 3.5q55 0 71.5 -13t16.5 -53v-278q0 -8 -5.5 -13.5t-12.5 -5.5h-17zM293 1923q22 32 57.5 34t75.5 -26q23 -16 55.5 -48t95 -99.5t105.5 -112.5q22 -22 12 -39l-6 -10q-10 -17 -37 -4
q-242 113 -327 170q-39 31 -47.5 66t16.5 69z" />
    <glyph glyph-name="Eacute" unicode="&#xc9;" horiz-adv-x="1028" 
d="M948 1128q-19 0 -22 25q-27 151 -111 205.5t-276 54.5h-66q-46 0 -78.5 -24.5t-32.5 -63.5v-520h232q74 0 120.5 42t53.5 128q3 18 27 18h10q14 0 19 -4t5 -14q0 -38 -3 -103t-3 -104q0 -41 3 -105t3 -106q0 -10 -5 -14t-19 -4h-10q-24 0 -27 26q-20 162 -174 162h-232
v-561q0 -39 32.5 -63.5t78.5 -24.5h90q192 0 276 54.5t111 205.5q3 24 23 24h16q8 0 13.5 -5.5t5.5 -12.5v-278q0 -40 -16.5 -53t-71.5 -13q-61 1 -205 3.5t-242 2.5q-131 0 -274.5 -3t-159.5 -3q-19 0 -19 25v10q0 22 25 28q50 9 81.5 37t31.5 66v1159q0 38 -31.5 65.5
t-81.5 36.5q-25 6 -25 29v10q0 25 19 25q16 0 159.5 -3t274.5 -3q82 0 216.5 2.5t205.5 3.5q55 0 71.5 -13t16.5 -53v-278q0 -8 -5.5 -13.5t-12.5 -5.5h-17zM410 1632q-10 17 12 39q43 45 105.5 112.5t95 99.5t55.5 48q40 28 75.5 26t57.5 -34q25 -34 16.5 -69t-47.5 -66
q-85 -57 -327 -170q-27 -13 -37 4z" />
    <glyph glyph-name="Ecircumflex" unicode="&#xca;" horiz-adv-x="1028" 
d="M948 1128q-19 0 -22 25q-27 151 -111 205.5t-276 54.5h-66q-46 0 -78.5 -24.5t-32.5 -63.5v-520h232q74 0 120.5 42t53.5 128q3 18 27 18h10q14 0 19 -4t5 -14q0 -38 -3 -103t-3 -104q0 -41 3 -105t3 -106q0 -10 -5 -14t-19 -4h-10q-24 0 -27 26q-20 162 -174 162h-232
v-561q0 -39 32.5 -63.5t78.5 -24.5h90q192 0 276 54.5t111 205.5q3 24 23 24h16q8 0 13.5 -5.5t5.5 -12.5v-278q0 -40 -16.5 -53t-71.5 -13q-61 1 -205 3.5t-242 2.5q-131 0 -274.5 -3t-159.5 -3q-19 0 -19 25v10q0 22 25 28q50 9 81.5 37t31.5 66v1159q0 38 -31.5 65.5
t-81.5 36.5q-25 6 -25 29v10q0 25 19 25q16 0 159.5 -3t274.5 -3q82 0 216.5 2.5t205.5 3.5q55 0 71.5 -13t16.5 -53v-278q0 -8 -5.5 -13.5t-12.5 -5.5h-17zM313 1634l189 283q13 16 28 16h33q16 0 29 -16l188 -283q16 -26 -8 -43l-8 -6q-22 -19 -43 6l-174 221l-174 -221
q-21 -25 -43 -6l-8 6q-25 18 -9 43z" />
    <glyph glyph-name="Edieresis" unicode="&#xcb;" horiz-adv-x="1028" 
d="M948 1128q-19 0 -22 25q-27 151 -111 205.5t-276 54.5h-66q-46 0 -78.5 -24.5t-32.5 -63.5v-520h232q74 0 120.5 42t53.5 128q3 18 27 18h10q14 0 19 -4t5 -14q0 -38 -3 -103t-3 -104q0 -41 3 -105t3 -106q0 -10 -5 -14t-19 -4h-10q-24 0 -27 26q-20 162 -174 162h-232
v-561q0 -39 32.5 -63.5t78.5 -24.5h90q192 0 276 54.5t111 205.5q3 24 23 24h16q8 0 13.5 -5.5t5.5 -12.5v-278q0 -40 -16.5 -53t-71.5 -13q-61 1 -205 3.5t-242 2.5q-131 0 -274.5 -3t-159.5 -3q-19 0 -19 25v10q0 22 25 28q50 9 81.5 37t31.5 66v1159q0 38 -31.5 65.5
t-81.5 36.5q-25 6 -25 29v10q0 25 19 25q16 0 159.5 -3t274.5 -3q82 0 216.5 2.5t205.5 3.5q55 0 71.5 -13t16.5 -53v-278q0 -8 -5.5 -13.5t-12.5 -5.5h-17zM293 1782q0 56 30 90.5t80 34.5q49 0 79 -34.5t30 -90.5q0 -57 -30 -92t-79 -35q-51 0 -80.5 35t-29.5 92z
M580 1782q0 56 30 90.5t80 34.5q49 0 79 -34.5t30 -90.5q0 -57 -30 -92t-79 -35q-51 0 -80.5 35t-29.5 92z" />
    <glyph glyph-name="Igrave" unicode="&#xcc;" horiz-adv-x="520" 
d="M39 0q-19 0 -19 25v10q0 22 25 28q50 9 81.5 37t31.5 66v1159q0 38 -31.5 65.5t-81.5 36.5q-25 6 -25 29v10q0 25 19 25q43 0 113 -5t106 -5t108 5t115 5q19 0 19 -25v-10q0 -23 -17 -26q-53 -8 -87 -37t-34 -68v-1159q0 -39 34 -68t87 -37q17 -3 17 -26v-10
q0 -25 -19 -25q-43 0 -115 5t-108 5t-106 -5t-113 -5zM6 1923q22 32 57.5 34t75.5 -26q23 -16 55.5 -48t95 -99.5t105.5 -112.5q23 -23 13 -39l-7 -10q-10 -17 -36 -4q-245 114 -328 170q-39 31 -47.5 66t16.5 69z" />
    <glyph glyph-name="Iacute" unicode="&#xcd;" horiz-adv-x="520" 
d="M39 0q-19 0 -19 25v10q0 22 25 28q50 9 81.5 37t31.5 66v1159q0 38 -31.5 65.5t-81.5 36.5q-25 6 -25 29v10q0 25 19 25q43 0 113 -5t106 -5t108 5t115 5q19 0 19 -25v-10q0 -23 -17 -26q-53 -8 -87 -37t-34 -68v-1159q0 -39 34 -68t87 -37q17 -3 17 -26v-10
q0 -25 -19 -25q-43 0 -115 5t-108 5t-106 -5t-113 -5zM123 1632q-10 17 12 39q43 45 105.5 112.5t95 99.5t55.5 48q40 28 75.5 26t57.5 -34q53 -68 -30 -135q-83 -56 -328 -170q-27 -13 -37 4z" />
    <glyph glyph-name="Icircumflex" unicode="&#xce;" horiz-adv-x="520" 
d="M39 0q-19 0 -19 25v10q0 22 25 28q50 9 81.5 37t31.5 66v1159q0 38 -31.5 65.5t-81.5 36.5q-25 6 -25 29v10q0 25 19 25q43 0 113 -5t106 -5t108 5t115 5q19 0 19 -25v-10q0 -23 -17 -26q-53 -8 -87 -37t-34 -68v-1159q0 -39 34 -68t87 -37q17 -3 17 -26v-10
q0 -25 -19 -25q-43 0 -115 5t-108 5t-106 -5t-113 -5zM27 1634l188 283q13 16 29 16h32q16 0 29 -16l189 -283q16 -25 -9 -43l-8 -6q-22 -19 -43 6l-174 221l-174 -221q-21 -25 -43 -6l-8 6q-24 17 -8 43z" />
    <glyph glyph-name="Idieresis" unicode="&#xcf;" horiz-adv-x="520" 
d="M39 0q-19 0 -19 25v10q0 22 25 28q50 9 81.5 37t31.5 66v1159q0 38 -31.5 65.5t-81.5 36.5q-25 6 -25 29v10q0 25 19 25q43 0 113 -5t106 -5t108 5t115 5q19 0 19 -25v-10q0 -23 -17 -26q-53 -8 -87 -37t-34 -68v-1159q0 -39 34 -68t87 -37q17 -3 17 -26v-10
q0 -25 -19 -25q-43 0 -115 5t-108 5t-106 -5t-113 -5zM6 1782q0 56 30 90.5t81 34.5q49 0 78.5 -34.5t29.5 -90.5q0 -57 -29.5 -92t-78.5 -35q-51 0 -81 35t-30 92zM293 1782q0 56 30 90.5t80 34.5q49 0 79 -34.5t30 -90.5q0 -57 -30 -92t-79 -35q-51 0 -80.5 35t-29.5 92z
" />
    <glyph glyph-name="Eth" unicode="&#xd0;" horiz-adv-x="1165" 
d="M487 0l-188 4q-72 0 -158.5 -2t-101.5 -2q-19 0 -19 25v10q0 22 25 28q50 9 81.5 37t31.5 66v532h-97q-20 0 -20 25v33q0 24 20 24h97v545q0 38 -31.5 65.5t-81.5 36.5q-25 6 -25 29v10q0 25 19 25q25 0 119 -2.5t166 -3.5q17 1 70.5 3.5t92.5 2.5q122 0 226 -39
t179 -107.5t128 -161t78.5 -201t25.5 -226.5q0 -350 -171 -553t-466 -203zM362 166q0 -39 32.5 -63.5t78.5 -24.5h27q178 0 287.5 176t109.5 465q0 181 -32 318t-88.5 217.5t-127.5 119.5t-155 39h-21q-46 0 -78.5 -24.5t-32.5 -63.5v-545h256q19 0 19 -24v-33
q0 -25 -19 -25h-256v-532z" />
    <glyph glyph-name="Ntilde" unicode="&#xd1;" horiz-adv-x="1138" 
d="M39 0q-19 0 -19 25v10q0 23 17 26q47 8 82 37.5t35 67.5l8 1159q0 38 -36 67.5t-83 37.5q-16 3 -16 26v10q0 25 18 25q145 -9 289 0l575 -1028l6 864q0 38 -34.5 65.5t-104.5 37.5q-24 3 -24 26v10q0 25 18 25q34 0 97.5 -5t90.5 -5q29 0 79.5 5t72.5 5q18 0 18 -25v-10
q0 -23 -16 -26q-46 -8 -80.5 -37t-34.5 -66l-16 -1302q0 -11 -7.5 -18t-17.5 -7h-24q-23 0 -31 16l-663 1227l-2 -1077q0 -85 137 -105q24 -3 24 -26v-10q0 -25 -18 -25q-31 0 -94 5t-95 5q-25 0 -75.5 -5t-75.5 -5zM313 1640q15 56 57 88.5t99 32.5q43 0 111 -36.5
t108 -36.5q66 0 94 55q11 17 25 6l18 -12q14 -7 11 -23q-14 -58 -55.5 -87.5t-96.5 -29.5q-50 0 -124 36t-111 36q-57 0 -84 -53q-10 -16 -23 -8l-18 12q-14 7 -11 20z" />
    <glyph glyph-name="Ograve" unicode="&#xd2;" horiz-adv-x="1193" 
d="M604 -31q-163 0 -291.5 98t-200 275t-71.5 403q0 360 149 564t410 204q93 0 177.5 -36.5t152.5 -104.5t118.5 -160t77.5 -209.5t27 -246.5q0 -371 -147.5 -579t-401.5 -208zM268 760q0 -323 105.5 -518t257.5 -195q134 0 214.5 180.5t80.5 491.5q0 326 -99 521.5
t-241 195.5q-145 0 -231.5 -177.5t-86.5 -498.5zM344 1942q22 32 57.5 34t75.5 -26q23 -16 55.5 -48t95 -99.5t105.5 -112.5q22 -22 12 -39l-6 -11q-10 -17 -37 -4q-242 113 -327 170q-39 31 -47.5 66.5t16.5 69.5z" />
    <glyph glyph-name="Oacute" unicode="&#xd3;" horiz-adv-x="1193" 
d="M604 -31q-163 0 -291.5 98t-200 275t-71.5 403q0 360 149 564t410 204q93 0 177.5 -36.5t152.5 -104.5t118.5 -160t77.5 -209.5t27 -246.5q0 -371 -147.5 -579t-401.5 -208zM268 760q0 -323 105.5 -518t257.5 -195q134 0 214.5 180.5t80.5 491.5q0 326 -99 521.5
t-241 195.5q-145 0 -231.5 -177.5t-86.5 -498.5zM461 1651q-10 17 12 39q43 45 105.5 112.5t95 99.5t55.5 48q40 28 75.5 26t57.5 -34q25 -34 16.5 -69.5t-47.5 -66.5q-85 -57 -327 -170q-27 -13 -37 4z" />
    <glyph glyph-name="Ocircumflex" unicode="&#xd4;" horiz-adv-x="1193" 
d="M604 -31q-163 0 -291.5 98t-200 275t-71.5 403q0 360 149 564t410 204q93 0 177.5 -36.5t152.5 -104.5t118.5 -160t77.5 -209.5t27 -246.5q0 -371 -147.5 -579t-401.5 -208zM268 760q0 -323 105.5 -518t257.5 -195q134 0 214.5 180.5t80.5 491.5q0 326 -99 521.5
t-241 195.5q-145 0 -231.5 -177.5t-86.5 -498.5zM365 1653l188 282q14 17 29 17h32q15 0 29 -17l188 -282q16 -26 -8 -43l-8 -6q-22 -19 -43 6l-174 221l-174 -221q-21 -25 -43 -6l-8 6q-24 17 -8 43z" />
    <glyph glyph-name="Otilde" unicode="&#xd5;" horiz-adv-x="1193" 
d="M604 -31q-163 0 -291.5 98t-200 275t-71.5 403q0 360 149 564t410 204q93 0 177.5 -36.5t152.5 -104.5t118.5 -160t77.5 -209.5t27 -246.5q0 -371 -147.5 -579t-401.5 -208zM268 760q0 -323 105.5 -518t257.5 -195q134 0 214.5 180.5t80.5 491.5q0 326 -99 521.5
t-241 195.5q-145 0 -231.5 -177.5t-86.5 -498.5zM336 1659q15 56 57 88.5t99 32.5q42 0 111 -37t108 -37q66 0 94 55q11 16 24 6l19 -12q13 -6 10 -22q-14 -58 -55 -87.5t-96 -29.5q-50 0 -124.5 36t-111.5 36q-56 0 -84 -54q-9 -16 -22 -8l-19 12q-14 7 -10 21z" />
    <glyph glyph-name="Odieresis" unicode="&#xd6;" horiz-adv-x="1193" 
d="M604 -31q-163 0 -291.5 98t-200 275t-71.5 403q0 360 149 564t410 204q93 0 177.5 -36.5t152.5 -104.5t118.5 -160t77.5 -209.5t27 -246.5q0 -371 -147.5 -579t-401.5 -208zM268 760q0 -323 105.5 -518t257.5 -195q134 0 214.5 180.5t80.5 491.5q0 326 -99 521.5
t-241 195.5q-145 0 -231.5 -177.5t-86.5 -498.5zM344 1800q0 56 30 90.5t81 34.5q49 0 78.5 -34.5t29.5 -90.5q0 -57 -29.5 -92t-78.5 -35q-51 0 -81 35t-30 92zM631 1800q0 56 30 90.5t80 34.5q49 0 79 -34.5t30 -90.5q0 -57 -30 -92t-79 -35q-51 0 -80.5 35t-29.5 92z" />
    <glyph glyph-name="multiply" unicode="&#xd7;" horiz-adv-x="765" 
d="M70 346q-8 8 -8 18t8 17l256 256l-256 256q-8 7 -8 17t8 18l22 22q8 8 18 8t17 -8l256 -256l256 256q7 8 17 8t18 -8l22 -22q8 -8 8 -18t-8 -17l-256 -256l256 -256q8 -7 8 -17t-8 -18l-22 -22q-8 -8 -18 -8t-17 8l-256 256l-256 -256q-7 -8 -17 -8t-18 8z" />
    <glyph glyph-name="Oslash" unicode="&#xd8;" horiz-adv-x="1193" 
d="M604 -31q-169 0 -301 107l-63 -115q-4 -9 -17 -10.5t-22 4.5l-29 14q-10 6 -15 17t-1 20l75 139q-90 104 -140 258.5t-50 341.5q0 360 149 564t410 204q174 0 309 -120l62 114q4 9 17 10.5t22 -4.5l28 -14q10 -5 15.5 -16.5t-0.5 -20.5l-76 -141q83 -103 129.5 -249
t46.5 -316q0 -371 -147.5 -579t-401.5 -208zM268 760q0 -244 66 -426l491 907q-46 94 -108 144.5t-131 50.5q-145 0 -231.5 -177.5t-86.5 -498.5zM383 225q49 -86 113 -132t135 -46q134 0 214.5 180.5t80.5 491.5q0 233 -56 407z" />
    <glyph glyph-name="Ugrave" unicode="&#xd9;" horiz-adv-x="1251" 
d="M645 -31q-105 0 -193 31.5t-157.5 95.5t-108.5 172t-39 252v805q0 38 -31 65.5t-81 36.5q-25 6 -25 29v10q0 25 19 25q43 0 113 -5t106 -5t108 5t115 5q18 0 18 -25v-10q0 -23 -16 -26q-53 -8 -87 -37t-34 -68v-770q0 -117 19 -206.5t50 -144t74.5 -89t87.5 -47.5t95 -13
q65 0 121.5 23.5t104.5 72.5t76 137t28 206v790q0 129 -129 146q-19 3 -19 26v10q0 25 19 25q35 0 92 -3t78 -3q23 0 78.5 3t95.5 3q18 0 18 -25v-10q0 -23 -27 -29q-120 -19 -120 -143v-754q0 -151 -34.5 -262t-97 -175t-141 -94t-176.5 -30zM373 1923q22 32 57.5 34
t75.5 -26q23 -16 55.5 -48t95 -99.5t105.5 -112.5q22 -22 12 -39l-6 -10q-10 -17 -37 -4q-245 114 -328 170q-83 67 -30 135z" />
    <glyph glyph-name="Uacute" unicode="&#xda;" horiz-adv-x="1251" 
d="M645 -31q-105 0 -193 31.5t-157.5 95.5t-108.5 172t-39 252v805q0 38 -31 65.5t-81 36.5q-25 6 -25 29v10q0 25 19 25q43 0 113 -5t106 -5t108 5t115 5q18 0 18 -25v-10q0 -23 -16 -26q-53 -8 -87 -37t-34 -68v-770q0 -117 19 -206.5t50 -144t74.5 -89t87.5 -47.5t95 -13
q65 0 121.5 23.5t104.5 72.5t76 137t28 206v790q0 129 -129 146q-19 3 -19 26v10q0 25 19 25q35 0 92 -3t78 -3q23 0 78.5 3t95.5 3q18 0 18 -25v-10q0 -23 -27 -29q-120 -19 -120 -143v-754q0 -151 -34.5 -262t-97 -175t-141 -94t-176.5 -30zM489 1632q-10 16 13 39
q43 45 105.5 112.5t95 99.5t55.5 48q40 28 75.5 26t57.5 -34q25 -34 16.5 -69t-47.5 -66q-83 -56 -328 -170q-26 -13 -36 4z" />
    <glyph glyph-name="Ucircumflex" unicode="&#xdb;" horiz-adv-x="1251" 
d="M645 -31q-105 0 -193 31.5t-157.5 95.5t-108.5 172t-39 252v805q0 38 -31 65.5t-81 36.5q-25 6 -25 29v10q0 25 19 25q43 0 113 -5t106 -5t108 5t115 5q18 0 18 -25v-10q0 -23 -16 -26q-53 -8 -87 -37t-34 -68v-770q0 -117 19 -206.5t50 -144t74.5 -89t87.5 -47.5t95 -13
q65 0 121.5 23.5t104.5 72.5t76 137t28 206v790q0 129 -129 146q-19 3 -19 26v10q0 25 19 25q35 0 92 -3t78 -3q23 0 78.5 3t95.5 3q18 0 18 -25v-10q0 -23 -27 -29q-120 -19 -120 -143v-754q0 -151 -34.5 -262t-97 -175t-141 -94t-176.5 -30zM393 1634l189 283q13 16 28 16
h33q16 0 29 -16l188 -283q16 -26 -8 -43l-8 -6q-22 -19 -43 6l-174 221l-174 -221q-21 -25 -43 -6l-9 6q-24 17 -8 43z" />
    <glyph glyph-name="Udieresis" unicode="&#xdc;" horiz-adv-x="1251" 
d="M645 -31q-105 0 -193 31.5t-157.5 95.5t-108.5 172t-39 252v805q0 38 -31 65.5t-81 36.5q-25 6 -25 29v10q0 25 19 25q43 0 113 -5t106 -5t108 5t115 5q18 0 18 -25v-10q0 -23 -16 -26q-53 -8 -87 -37t-34 -68v-770q0 -117 19 -206.5t50 -144t74.5 -89t87.5 -47.5t95 -13
q65 0 121.5 23.5t104.5 72.5t76 137t28 206v790q0 129 -129 146q-19 3 -19 26v10q0 25 19 25q35 0 92 -3t78 -3q23 0 78.5 3t95.5 3q18 0 18 -25v-10q0 -23 -27 -29q-120 -19 -120 -143v-754q0 -151 -34.5 -262t-97 -175t-141 -94t-176.5 -30zM373 1782q0 56 30 90.5
t80 34.5q49 0 79 -34.5t30 -90.5q0 -57 -30 -92t-79 -35q-51 0 -80.5 35t-29.5 92zM659 1782q0 56 30 90.5t81 34.5q49 0 79 -34.5t30 -90.5q0 -57 -30 -92t-79 -35q-51 0 -81 35t-30 92z" />
    <glyph glyph-name="Yacute" unicode="&#xdd;" horiz-adv-x="1214" 
d="M391 0q-18 0 -18 25v10q0 22 24 28q50 9 81.5 37t31.5 66v299l-326 862q-34 91 -157 103q-17 3 -17 26v10q0 25 19 25q54 0 137.5 -5t122.5 -5q38 0 121.5 5t156.5 5q19 0 19 -25v-10q0 -23 -25 -26q-86 -11 -123 -39t-20 -74l258 -711l250 697q19 54 -14 85.5t-121 41.5
q-25 3 -25 26v10q0 25 18 25q50 0 122 -5t102 -5q22 0 80.5 5t97.5 5q18 0 18 -25v-10q0 -23 -16 -26q-126 -15 -160 -107l-313 -852v-305q0 -39 34 -68t87 -37q16 -3 16 -26v-10q0 -25 -18 -25q-43 0 -115.5 5t-108.5 5t-106 -5t-113 -5zM526 1632q-10 16 13 39
q43 45 105.5 112.5t95 99.5t55.5 48q40 28 75.5 26t57.5 -34q25 -34 16.5 -69t-47.5 -66q-83 -56 -328 -170q-27 -13 -37 4z" />
    <glyph glyph-name="Thorn" unicode="&#xde;" horiz-adv-x="1024" 
d="M543 336q-102 0 -181 29v-199q0 -39 34 -68t87 -37q17 -3 17 -26v-10q0 -25 -19 -25q-43 0 -115 5t-108 5t-106 -5t-113 -5q-19 0 -19 25v10q0 22 25 28q50 9 81.5 37t31.5 66v1159q0 38 -31.5 65.5t-81.5 36.5q-25 6 -25 29v10q0 25 19 25q43 0 113 -5t106 -5t108 5
t115 5q19 0 19 -25v-10q0 -23 -17 -26q-53 -8 -87 -37t-34 -68v-143q37 2 134 2q236 0 366.5 -110t130.5 -318q0 -198 -127 -309t-323 -111zM362 446q69 -30 160 -30q112 0 179 82.5t67 238.5q0 369 -307 369q-17 0 -49 -1t-50 -1v-658z" />
    <glyph glyph-name="germandbls" unicode="&#xdf;" horiz-adv-x="1150" 
d="M786 -31q-137 0 -233 57t-96 160q0 44 27.5 69.5t70.5 25.5q44 0 68 -26t33 -63.5t20 -75t42.5 -63.5t86.5 -26q58 0 100.5 50.5t42.5 129.5q0 52 -24.5 103t-63.5 93.5t-86 85t-94 86t-86 87.5t-63.5 97.5t-24.5 108.5q0 84 68.5 178t183.5 168q30 117 -39.5 205
t-181.5 88q-115 0 -165 -74.5t-50 -236.5v-1030q0 -40 36.5 -69t100.5 -36q16 -3 16 -26v-10q0 -25 -18 -25q-55 0 -129 5t-101 5q-31 0 -94 -5t-94 -5q-19 0 -19 25v10q0 22 25 28q36 10 64 38.5t28 64.5v758q-21 0 -47.5 -3t-36.5 -3q-17 0 -22.5 6t-5.5 18v16q0 26 34 33
q64 17 78 45v97q0 91 41 178t104 149t141.5 99.5t151.5 37.5q83 0 154.5 -33.5t115.5 -85t62.5 -114.5t3.5 -121q-129 -92 -177 -166.5t-48 -161.5q0 -45 23.5 -88t61 -80t82.5 -75.5t90 -82t82.5 -90.5t61 -110t23.5 -133q0 -119 -94.5 -203t-229.5 -84z" />
    <glyph glyph-name="agrave" unicode="&#xe0;" horiz-adv-x="866" 
d="M698 -20q-62 0 -101.5 35t-57.5 120q-138 -166 -316 -166q-84 0 -133 56.5t-49 154.5q0 109 108 204.5t375 197.5l2 137q3 107 -8.5 162.5t-36.5 74.5t-75 19q-55 0 -84.5 -30.5t-51.5 -110.5q-38 -140 -114 -140q-30 0 -53 28.5t-23 70.5q0 64 51.5 123t132 93.5
t164.5 34.5q157 0 222 -65t61 -231q-4 -218 -4 -394q1 -108 7 -161.5t16 -70t30 -16.5q26 0 43 23q13 18 35 4l6 -4q11 -7 12 -16.5t-4 -22.5q-20 -58 -56 -84t-98 -26zM174 1477q22 32 57.5 34t75.5 -26q23 -16 55.5 -48t95 -99.5t105.5 -112.5q22 -22 12 -39l-6 -10
q-11 -18 -37 -5q-242 113 -327 170q-39 31 -47.5 66.5t16.5 69.5zM238 217q0 -61 24.5 -92t67.5 -31q38 0 94 32.5t102 92.5q-4 62 -4 98v185q-153 -57 -218.5 -125t-65.5 -160z" />
    <glyph glyph-name="aacute" unicode="&#xe1;" horiz-adv-x="866" 
d="M698 -20q-62 0 -101.5 35t-57.5 120q-138 -166 -316 -166q-84 0 -133 56.5t-49 154.5q0 109 108 204.5t375 197.5l2 137q3 107 -8.5 162.5t-36.5 74.5t-75 19q-55 0 -84.5 -30.5t-51.5 -110.5q-38 -140 -114 -140q-30 0 -53 28.5t-23 70.5q0 64 51.5 123t132 93.5
t164.5 34.5q157 0 222 -65t61 -231q-4 -218 -4 -394q1 -108 7 -161.5t16 -70t30 -16.5q26 0 43 23q13 18 35 4l6 -4q11 -7 12 -16.5t-4 -22.5q-20 -58 -56 -84t-98 -26zM238 217q0 -61 24.5 -92t67.5 -31q38 0 94 32.5t102 92.5q-4 62 -4 98v185q-153 -57 -218.5 -125
t-65.5 -160zM291 1186q-10 17 12 39q43 45 105.5 112.5t95 99.5t55.5 48q40 28 75.5 26t57.5 -34q26 -34 17.5 -69.5t-47.5 -66.5q-83 -56 -328 -170q-26 -13 -37 5z" />
    <glyph glyph-name="acircumflex" unicode="&#xe2;" horiz-adv-x="866" 
d="M698 -20q-62 0 -101.5 35t-57.5 120q-138 -166 -316 -166q-84 0 -133 56.5t-49 154.5q0 109 108 204.5t375 197.5l2 137q3 107 -8.5 162.5t-36.5 74.5t-75 19q-55 0 -84.5 -30.5t-51.5 -110.5q-38 -140 -114 -140q-30 0 -53 28.5t-23 70.5q0 64 51.5 123t132 93.5
t164.5 34.5q157 0 222 -65t61 -231q-4 -218 -4 -394q1 -108 7 -161.5t16 -70t30 -16.5q26 0 43 23q13 18 35 4l6 -4q11 -7 12 -16.5t-4 -22.5q-20 -58 -56 -84t-98 -26zM195 1188l188 282q14 17 29 17h32q15 0 29 -17l189 -282q16 -25 -9 -43l-8 -6q-22 -19 -43 6l-174 221
l-174 -221q-21 -25 -43 -6l-8 6q-24 17 -8 43zM238 217q0 -61 24.5 -92t67.5 -31q38 0 94 32.5t102 92.5q-4 62 -4 98v185q-153 -57 -218.5 -125t-65.5 -160z" />
    <glyph glyph-name="atilde" unicode="&#xe3;" horiz-adv-x="866" 
d="M698 -20q-62 0 -101.5 35t-57.5 120q-138 -166 -316 -166q-84 0 -133 56.5t-49 154.5q0 109 108 204.5t375 197.5l2 137q3 107 -8.5 162.5t-36.5 74.5t-75 19q-55 0 -84.5 -30.5t-51.5 -110.5q-38 -140 -114 -140q-30 0 -53 28.5t-23 70.5q0 64 51.5 123t132 93.5
t164.5 34.5q157 0 222 -65t61 -231q-4 -218 -4 -394q1 -108 7 -161.5t16 -70t30 -16.5q26 0 43 23q13 18 35 4l6 -4q11 -7 12 -16.5t-4 -22.5q-20 -58 -56 -84t-98 -26zM166 1194q15 56 57 88.5t99 32.5q42 0 111 -37t108 -37q66 0 94 55q11 17 24 7l19 -13q13 -6 10 -22
q-14 -58 -55 -87.5t-96 -29.5q-50 0 -124.5 36t-111.5 36q-56 0 -84 -54q-9 -16 -22 -8l-19 13q-13 7 -10 20zM238 217q0 -61 24.5 -92t67.5 -31q38 0 94 32.5t102 92.5q-4 62 -4 98v185q-153 -57 -218.5 -125t-65.5 -160z" />
    <glyph glyph-name="adieresis" unicode="&#xe4;" horiz-adv-x="866" 
d="M698 -20q-62 0 -101.5 35t-57.5 120q-138 -166 -316 -166q-84 0 -133 56.5t-49 154.5q0 109 108 204.5t375 197.5l2 137q3 107 -8.5 162.5t-36.5 74.5t-75 19q-55 0 -84.5 -30.5t-51.5 -110.5q-38 -140 -114 -140q-30 0 -53 28.5t-23 70.5q0 64 51.5 123t132 93.5
t164.5 34.5q157 0 222 -65t61 -231q-4 -218 -4 -394q1 -108 7 -161.5t16 -70t30 -16.5q26 0 43 23q13 18 35 4l6 -4q11 -7 12 -16.5t-4 -22.5q-20 -58 -56 -84t-98 -26zM174 1335q0 56 30 90.5t81 34.5q49 0 78.5 -34.5t29.5 -90.5q0 -57 -29.5 -92t-78.5 -35q-51 0 -81 35
t-30 92zM238 217q0 -61 24.5 -92t67.5 -31q38 0 94 32.5t102 92.5q-4 62 -4 98v185q-153 -57 -218.5 -125t-65.5 -160zM461 1335q0 56 30 90.5t80 34.5q49 0 79 -34.5t30 -90.5q0 -57 -30 -92t-79 -35q-51 0 -80.5 35t-29.5 92z" />
    <glyph glyph-name="aring" unicode="&#xe5;" horiz-adv-x="866" 
d="M698 -20q-62 0 -101.5 35t-57.5 120q-138 -166 -316 -166q-84 0 -133 56.5t-49 154.5q0 109 108 204.5t375 197.5l2 137q3 107 -8.5 162.5t-36.5 74.5t-75 19q-55 0 -84.5 -30.5t-51.5 -110.5q-38 -140 -114 -140q-30 0 -53 28.5t-23 70.5q0 64 51.5 123t132 93.5
t164.5 34.5q157 0 222 -65t61 -231q-4 -218 -4 -394q1 -108 7 -161.5t16 -70t30 -16.5q26 0 43 23q13 18 35 4l6 -4q11 -7 12 -16.5t-4 -22.5q-20 -58 -56 -84t-98 -26zM227 1317q0 102 54.5 162.5t146.5 60.5t146.5 -59t54.5 -158q0 -101 -54 -162t-145 -61
q-92 0 -147.5 59.5t-55.5 157.5zM238 217q0 -61 24.5 -92t67.5 -31q38 0 94 32.5t102 92.5q-4 62 -4 98v185q-153 -57 -218.5 -125t-65.5 -160zM344 1327q0 -72 24.5 -116t65.5 -44q35 0 56.5 40.5t21.5 107.5q0 72 -24 116t-64 44q-37 0 -58.5 -40t-21.5 -108z" />
    <glyph glyph-name="ae" unicode="&#xe6;" horiz-adv-x="1339" 
d="M236 -31q-92 0 -143.5 56t-51.5 155q0 109 108 204.5t375 197.5q0 24 1 70t1 67q3 107 -8.5 162.5t-36.5 74.5t-75 19q-55 0 -84.5 -30.5t-51.5 -110.5q-38 -140 -114 -140q-30 0 -53 28.5t-23 70.5q0 64 51.5 123t132 93.5t164.5 34.5q102 0 163 -25t89 -83
q114 108 281 108q147 0 249.5 -101t102.5 -232q0 -54 -15.5 -69t-52.5 -15h-510q-2 -18 -2 -60q0 -225 88 -346t226 -121q129 0 221 115q16 19 32 6l9 -6q17 -13 8 -31q-55 -103 -147.5 -159t-202.5 -56q-109 0 -205 61.5t-156 170.5q-158 -232 -370 -232zM238 217
q0 -61 24.5 -92t67.5 -31q45 0 113.5 47t127.5 138q-39 106 -39 225q-159 -57 -226.5 -125.5t-67.5 -161.5zM739 698h211q92 0 127 24.5t35 84.5q0 70 -47 119t-115 49q-89 0 -141.5 -66.5t-69.5 -210.5z" />
    <glyph glyph-name="ccedilla" unicode="&#xe7;" horiz-adv-x="847" 
d="M492 -483q-58 0 -107.5 22t-77.5 55q-15 14 4 33l8 8q17 17 33 -2q39 -34 113 -34q44 0 72 23.5t28 68.5q0 63 -38 90.5t-126 32.5l35 157q-80 10 -150.5 51.5t-125.5 110t-87 172t-32 227.5q0 244 122 378t314 134q79 0 159 -21.5t114 -51.5q17 -14 21.5 -27.5
t4.5 -40.5v-196q0 -8 -5.5 -13.5t-12.5 -5.5h-17q-18 0 -24 25q-35 135 -94 198.5t-148 63.5q-106 0 -169.5 -106t-63.5 -302q0 -219 83.5 -342t217.5 -123q67 0 128 29t105 84q16 19 33 6l8 -6q17 -13 8 -31q-102 -200 -311 -215l-22 -98q107 -15 153.5 -56.5t46.5 -121.5
q0 -84 -50.5 -130t-149.5 -46z" />
    <glyph glyph-name="egrave" unicode="&#xe8;" horiz-adv-x="847" 
d="M475 -31q-86 0 -164.5 39.5t-138.5 109t-95.5 172.5t-35.5 222q0 254 120.5 393t307.5 139q147 0 249.5 -101t102.5 -232q0 -54 -15 -69t-52 -15h-510q-2 -18 -2 -60q0 -225 87.5 -346t225.5 -121q129 0 221 115q16 19 33 6l8 -6q17 -13 8 -31q-55 -103 -147.5 -159
t-202.5 -56zM199 1477q22 32 57.5 34t75.5 -26q23 -16 55.5 -48t95 -99.5t105.5 -112.5q22 -22 12 -39l-6 -10q-11 -18 -37 -5q-245 114 -328 170q-39 31 -47.5 66.5t17.5 69.5zM248 698h211q92 0 127 24.5t35 84.5q0 70 -47 119t-115 49q-89 0 -141.5 -66.5t-69.5 -210.5z
" />
    <glyph glyph-name="eacute" unicode="&#xe9;" horiz-adv-x="847" 
d="M475 -31q-86 0 -164.5 39.5t-138.5 109t-95.5 172.5t-35.5 222q0 254 120.5 393t307.5 139q147 0 249.5 -101t102.5 -232q0 -54 -15 -69t-52 -15h-510q-2 -18 -2 -60q0 -225 87.5 -346t225.5 -121q129 0 221 115q16 19 33 6l8 -6q17 -13 8 -31q-55 -103 -147.5 -159
t-202.5 -56zM248 698h211q92 0 127 24.5t35 84.5q0 70 -47 119t-115 49q-89 0 -141.5 -66.5t-69.5 -210.5zM315 1186q-10 16 13 39q43 45 105.5 112.5t95 99.5t55.5 48q40 28 75.5 26t57.5 -34q25 -34 16.5 -69.5t-47.5 -66.5q-83 -56 -328 -170q-25 -13 -36 5z" />
    <glyph glyph-name="ecircumflex" unicode="&#xea;" horiz-adv-x="847" 
d="M475 -31q-86 0 -164.5 39.5t-138.5 109t-95.5 172.5t-35.5 222q0 254 120.5 393t307.5 139q147 0 249.5 -101t102.5 -232q0 -54 -15 -69t-52 -15h-510q-2 -18 -2 -60q0 -225 87.5 -346t225.5 -121q129 0 221 115q16 19 33 6l8 -6q17 -13 8 -31q-55 -103 -147.5 -159
t-202.5 -56zM219 1188l189 282q14 17 28 17h33q15 0 29 -17l188 -282q16 -26 -8 -43l-8 -6q-22 -19 -43 6l-174 221l-174 -221q-21 -25 -43 -6l-9 6q-24 17 -8 43zM248 698h211q92 0 127 24.5t35 84.5q0 70 -47 119t-115 49q-89 0 -141.5 -66.5t-69.5 -210.5z" />
    <glyph glyph-name="edieresis" unicode="&#xeb;" horiz-adv-x="847" 
d="M475 -31q-86 0 -164.5 39.5t-138.5 109t-95.5 172.5t-35.5 222q0 254 120.5 393t307.5 139q147 0 249.5 -101t102.5 -232q0 -54 -15 -69t-52 -15h-510q-2 -18 -2 -60q0 -225 87.5 -346t225.5 -121q129 0 221 115q16 19 33 6l8 -6q17 -13 8 -31q-55 -103 -147.5 -159
t-202.5 -56zM199 1335q0 56 30 90.5t80 34.5q49 0 79 -34.5t30 -90.5q0 -57 -30 -92t-79 -35q-51 0 -80.5 35t-29.5 92zM248 698h211q92 0 127 24.5t35 84.5q0 70 -47 119t-115 49q-89 0 -141.5 -66.5t-69.5 -210.5zM485 1335q0 56 30 90.5t81 34.5q49 0 79 -34.5t30 -90.5
q0 -57 -30 -92t-79 -35q-51 0 -81 35t-30 92z" />
    <glyph glyph-name="igrave" unicode="&#xec;" horiz-adv-x="448" 
d="M39 0q-19 0 -19 25v10q0 22 25 28q36 10 64 38.5t28 64.5v571q0 82 -96 107q-14 3 -14 20v17q0 14 16 20q50 16 118 57t111 84q9 9 31 2q19 -8 19 -24v-854q0 -38 30.5 -67.5t69.5 -37.5q16 -3 16 -26v-10q0 -25 -18 -25q-32 0 -97 5t-96 5t-94 -5t-94 -5zM-25 1456
q22 32 58 34t76 -26q23 -16 55.5 -48t95 -99.5t105.5 -112.5q22 -22 12 -39l-6 -10q-10 -17 -37 -4q-245 114 -328 170q-39 31 -47.5 66t16.5 69z" />
    <glyph glyph-name="iacute" unicode="&#xed;" horiz-adv-x="448" 
d="M39 0q-19 0 -19 25v10q0 22 25 28q36 10 64 38.5t28 64.5v571q0 82 -96 107q-14 3 -14 20v17q0 14 16 20q50 16 118 57t111 84q9 9 31 2q19 -8 19 -24v-854q0 -38 30.5 -67.5t69.5 -37.5q16 -3 16 -26v-10q0 -25 -18 -25q-32 0 -97 5t-96 5t-94 -5t-94 -5zM92 1165
q-10 17 12 39q43 45 105.5 112.5t95 99.5t55.5 48q40 28 76 26t58 -34q25 -34 16.5 -69t-47.5 -66q-83 -56 -328 -170q-27 -13 -37 4z" />
    <glyph glyph-name="icircumflex" unicode="&#xee;" horiz-adv-x="448" 
d="M39 0q-19 0 -19 25v10q0 22 25 28q36 10 64 38.5t28 64.5v571q0 82 -96 107q-14 3 -14 20v17q0 14 16 20q50 16 118 57t111 84q9 9 31 2q19 -8 19 -24v-854q0 -38 30.5 -67.5t69.5 -37.5q16 -3 16 -26v-10q0 -25 -18 -25q-32 0 -97 5t-96 5t-94 -5t-94 -5zM-4 1167
l188 283q13 16 29 16h33q15 0 28 -16l189 -283q16 -26 -8 -43l-9 -6q-22 -19 -43 6l-174 222l-174 -222q-21 -25 -43 -6l-8 6q-24 17 -8 43z" />
    <glyph glyph-name="idieresis" unicode="&#xef;" horiz-adv-x="448" 
d="M39 0q-19 0 -19 25v10q0 22 25 28q36 10 64 38.5t28 64.5v571q0 82 -96 107q-14 3 -14 20v17q0 14 16 20q50 16 118 57t111 84q9 9 31 2q19 -8 19 -24v-854q0 -38 30.5 -67.5t69.5 -37.5q16 -3 16 -26v-10q0 -25 -18 -25q-32 0 -97 5t-96 5t-94 -5t-94 -5zM-25 1315
q0 56 30 90.5t81 34.5q49 0 79 -34.5t30 -90.5q0 -57 -30 -92t-79 -35q-51 0 -81 35t-30 92zM262 1315q0 56 30 90.5t81 34.5q49 0 78.5 -34.5t29.5 -90.5q0 -57 -29.5 -92t-78.5 -35q-51 0 -81 35t-30 92z" />
    <glyph glyph-name="eth" unicode="&#xf0;" horiz-adv-x="948" 
d="M479 -31q-199 0 -318.5 145.5t-119.5 387.5q0 246 119 394t317 148q96 0 164 -32q-45 124 -121 233l-151 -117q-6 -5 -14.5 -2.5t-14.5 11.5l-21 24q-14 21 0 31l150 117q-99 114 -238 194q-25 15 -10 39l8 12q14 24 39 11q155 -74 285 -191l186 148q14 10 29 -9l20 -26
q15 -19 3 -31l-181 -139q154 -163 225.5 -369t71.5 -428v-4q0 -248 -116.5 -397.5t-311.5 -149.5zM242 520q0 -231 66.5 -359t187.5 -128q100 0 155.5 121t55.5 338q0 232 -63.5 360.5t-178.5 128.5q-106 0 -164.5 -121.5t-58.5 -339.5z" />
    <glyph glyph-name="ntilde" unicode="&#xf1;" horiz-adv-x="1001" 
d="M690 637q0 276 -176 276q-59 0 -112.5 -35t-79.5 -102v-610q0 -38 30.5 -67.5t69.5 -37.5q16 -3 16 -26v-10q0 -25 -18 -25q-32 0 -97 5t-96 5t-94 -5t-94 -5q-19 0 -19 25v10q0 22 25 28q36 10 64 38.5t28 64.5v592q0 81 -96 106q-14 3 -14 21v16q0 18 16 21
q62 12 123 47.5t98 72.5q9 9 31 2q18 -8 18 -24v-137q100 161 277 161q143 0 213.5 -90t70.5 -247v-541q0 -38 31 -67.5t70 -37.5q16 -3 16 -26v-10q0 -25 -18 -25q-32 0 -97 5t-96 5q-32 0 -94 -5t-94 -5q-19 0 -19 25v10q0 22 25 28q36 10 64 38.5t28 64.5v471zM246 1194
q15 56 56.5 88.5t98.5 32.5q43 0 112 -37t108 -37q66 0 94 55q11 17 24 7l19 -13q13 -6 10 -22q-14 -58 -55.5 -87.5t-96.5 -29.5q-50 0 -124 36t-111 36q-56 0 -84 -54q-10 -16 -23 -8l-18 13q-13 7 -10 20z" />
    <glyph glyph-name="ograve" unicode="&#xf2;" horiz-adv-x="948" 
d="M479 -31q-199 0 -318.5 145.5t-119.5 387.5q0 246 119 394t317 148q196 0 313 -144.5t117 -383.5q0 -248 -116.5 -397.5t-311.5 -149.5zM217 1489q22 32 57.5 34t75.5 -26q23 -16 55.5 -48t95 -99.5t105.5 -112.5q22 -22 12 -39l-6 -10q-10 -17 -37 -4q-242 113 -327 170
q-39 31 -47.5 66t16.5 69zM242 520q0 -231 66.5 -359t187.5 -128q100 0 155.5 121t55.5 338q0 232 -63.5 360.5t-178.5 128.5q-106 0 -164.5 -121.5t-58.5 -339.5z" />
    <glyph glyph-name="oacute" unicode="&#xf3;" horiz-adv-x="948" 
d="M479 -31q-199 0 -318.5 145.5t-119.5 387.5q0 246 119 394t317 148q196 0 313 -144.5t117 -383.5q0 -248 -116.5 -397.5t-311.5 -149.5zM242 520q0 -231 66.5 -359t187.5 -128q100 0 155.5 121t55.5 338q0 232 -63.5 360.5t-178.5 128.5q-106 0 -164.5 -121.5
t-58.5 -339.5zM334 1198q-10 17 12 39q43 45 105.5 112.5t95 99.5t55.5 48q40 28 75.5 26t57.5 -34q53 -68 -30 -135q-83 -56 -328 -170q-27 -13 -37 4z" />
    <glyph glyph-name="ocircumflex" unicode="&#xf4;" horiz-adv-x="948" 
d="M479 -31q-199 0 -318.5 145.5t-119.5 387.5q0 246 119 394t317 148q196 0 313 -144.5t117 -383.5q0 -248 -116.5 -397.5t-311.5 -149.5zM238 1200l188 283q13 16 29 16h32q16 0 29 -16l189 -283q16 -25 -9 -43l-8 -6q-22 -19 -43 6l-174 221l-174 -221q-21 -25 -43 -6
l-8 6q-24 17 -8 43zM242 520q0 -231 66.5 -359t187.5 -128q100 0 155.5 121t55.5 338q0 232 -63.5 360.5t-178.5 128.5q-106 0 -164.5 -121.5t-58.5 -339.5z" />
    <glyph glyph-name="otilde" unicode="&#xf5;" horiz-adv-x="948" 
d="M479 -31q-199 0 -318.5 145.5t-119.5 387.5q0 246 119 394t317 148q196 0 313 -144.5t117 -383.5q0 -248 -116.5 -397.5t-311.5 -149.5zM209 1206q15 56 57 88.5t99 32.5q43 0 111 -37t108 -37q65 0 94 56q11 16 24 6l19 -12q13 -6 10 -23q-14 -58 -55 -87.5t-96 -29.5
q-50 0 -124.5 36t-111.5 36q-57 0 -84 -53q-9 -16 -22 -8l-19 12q-13 7 -10 20zM242 520q0 -231 66.5 -359t187.5 -128q100 0 155.5 121t55.5 338q0 232 -63.5 360.5t-178.5 128.5q-106 0 -164.5 -121.5t-58.5 -339.5z" />
    <glyph glyph-name="odieresis" unicode="&#xf6;" horiz-adv-x="948" 
d="M479 -31q-199 0 -318.5 145.5t-119.5 387.5q0 246 119 394t317 148q196 0 313 -144.5t117 -383.5q0 -248 -116.5 -397.5t-311.5 -149.5zM217 1348q0 56 30 90.5t81 34.5q49 0 78.5 -34.5t29.5 -90.5q0 -57 -29.5 -92t-78.5 -35q-51 0 -81 35t-30 92zM242 520
q0 -231 66.5 -359t187.5 -128q100 0 155.5 121t55.5 338q0 232 -63.5 360.5t-178.5 128.5q-106 0 -164.5 -121.5t-58.5 -339.5zM504 1348q0 56 30 90.5t80 34.5q49 0 79 -34.5t30 -90.5q0 -57 -30 -92t-79 -35q-51 0 -80.5 35t-29.5 92z" />
    <glyph glyph-name="divide" unicode="&#xf7;" horiz-adv-x="856" 
d="M428 274q-45 0 -71.5 31.5t-26.5 83.5q0 50 26.5 81.5t71.5 31.5q44 0 71 -31.5t27 -81.5q0 -51 -27 -83t-71 -32zM41 621v32q0 11 7.5 18t17.5 7h725q10 0 17 -7t7 -18v-32q0 -11 -7 -18t-17 -7h-725q-10 0 -17.5 7t-7.5 18zM330 881q0 50 26.5 81t71.5 31q44 0 71 -31
t27 -81q0 -51 -27 -83t-71 -32q-45 0 -71.5 31.5t-26.5 83.5z" />
    <glyph glyph-name="oslash" unicode="&#xf8;" horiz-adv-x="948" 
d="M98 -197q-29 13 -20 31l121 240q-76 70 -117 180t-41 248q0 246 119 394t317 148q106 0 191 -45l129 254q3 6 15.5 6.5t21.5 -2.5l30 -12q10 -5 16.5 -14.5t2.5 -16.5l-135 -268q76 -70 117.5 -180.5t41.5 -249.5q0 -248 -116.5 -397.5t-311.5 -149.5q-115 0 -203 49
l-112 -225q-1 -6 -14.5 -6.5t-22.5 4.5zM242 520q0 -177 37 -289l337 666q-60 84 -151 84q-106 0 -164.5 -121.5t-58.5 -339.5zM332 123q63 -90 164 -90q100 0 155.5 121t55.5 338q0 186 -39 299z" />
    <glyph glyph-name="ugrave" unicode="&#xf9;" horiz-adv-x="995" 
d="M422 -31q-143 0 -214 90.5t-71 247.5v551q0 38 -30.5 67.5t-69.5 37.5q-17 3 -17 26v10q0 25 19 25q20 0 70.5 -5t87.5 -5q14 0 48 2t56 2q11 0 17 -2.5t8.5 -10t3 -16.5t-0.5 -26.5t-2.5 -36t-3 -49t-1.5 -60.5v-440q0 -277 176 -277q59 0 112.5 35.5t79.5 102.5v620
q0 38 -30.5 67.5t-69.5 37.5q-17 3 -17 26v10q0 25 19 25q20 0 70.5 -5t87.5 -5q14 0 48 2t56 2q11 0 17 -2.5t8.5 -10t3 -16.5t-1 -26.5t-3 -36t-3 -48.5t-1.5 -61v-549q0 -63 22 -94t75 -45q14 -3 14 -20v-17q0 -17 -16 -20q-55 -6 -120.5 -31t-96.5 -55q-15 -12 -35 -4
q-19 8 -19 24v125q-100 -162 -276 -162zM211 1456q22 32 57.5 34t75.5 -26q23 -16 55.5 -48t95 -99.5t105.5 -112.5q22 -22 12 -39l-6 -10q-10 -17 -37 -4q-242 113 -327 170q-39 31 -47.5 66t16.5 69z" />
    <glyph glyph-name="uacute" unicode="&#xfa;" horiz-adv-x="995" 
d="M422 -31q-143 0 -214 90.5t-71 247.5v551q0 38 -30.5 67.5t-69.5 37.5q-17 3 -17 26v10q0 25 19 25q20 0 70.5 -5t87.5 -5q14 0 48 2t56 2q11 0 17 -2.5t8.5 -10t3 -16.5t-0.5 -26.5t-2.5 -36t-3 -49t-1.5 -60.5v-440q0 -277 176 -277q59 0 112.5 35.5t79.5 102.5v620
q0 38 -30.5 67.5t-69.5 37.5q-17 3 -17 26v10q0 25 19 25q20 0 70.5 -5t87.5 -5q14 0 48 2t56 2q11 0 17 -2.5t8.5 -10t3 -16.5t-1 -26.5t-3 -36t-3 -48.5t-1.5 -61v-549q0 -63 22 -94t75 -45q14 -3 14 -20v-17q0 -17 -16 -20q-55 -6 -120.5 -31t-96.5 -55q-15 -12 -35 -4
q-19 8 -19 24v125q-100 -162 -276 -162zM328 1165q-10 17 12 39q43 45 105.5 112.5t95 99.5t55.5 48q40 28 75.5 26t57.5 -34q25 -34 16.5 -69t-47.5 -66q-85 -57 -327 -170q-27 -13 -37 4z" />
    <glyph glyph-name="ucircumflex" unicode="&#xfb;" horiz-adv-x="995" 
d="M422 -31q-143 0 -214 90.5t-71 247.5v551q0 38 -30.5 67.5t-69.5 37.5q-17 3 -17 26v10q0 25 19 25q20 0 70.5 -5t87.5 -5q14 0 48 2t56 2q11 0 17 -2.5t8.5 -10t3 -16.5t-0.5 -26.5t-2.5 -36t-3 -49t-1.5 -60.5v-440q0 -277 176 -277q59 0 112.5 35.5t79.5 102.5v620
q0 38 -30.5 67.5t-69.5 37.5q-17 3 -17 26v10q0 25 19 25q20 0 70.5 -5t87.5 -5q14 0 48 2t56 2q11 0 17 -2.5t8.5 -10t3 -16.5t-1 -26.5t-3 -36t-3 -48.5t-1.5 -61v-549q0 -63 22 -94t75 -45q14 -3 14 -20v-17q0 -17 -16 -20q-55 -6 -120.5 -31t-96.5 -55q-15 -12 -35 -4
q-19 8 -19 24v125q-100 -162 -276 -162zM231 1167l189 283q13 16 29 16h32q16 0 29 -16l188 -283q16 -26 -8 -43l-8 -6q-22 -19 -43 6l-174 222l-174 -222q-21 -25 -43 -6l-8 6q-25 18 -9 43z" />
    <glyph glyph-name="udieresis" unicode="&#xfc;" horiz-adv-x="995" 
d="M422 -31q-143 0 -214 90.5t-71 247.5v551q0 38 -30.5 67.5t-69.5 37.5q-17 3 -17 26v10q0 25 19 25q20 0 70.5 -5t87.5 -5q14 0 48 2t56 2q11 0 17 -2.5t8.5 -10t3 -16.5t-0.5 -26.5t-2.5 -36t-3 -49t-1.5 -60.5v-440q0 -277 176 -277q59 0 112.5 35.5t79.5 102.5v620
q0 38 -30.5 67.5t-69.5 37.5q-17 3 -17 26v10q0 25 19 25q20 0 70.5 -5t87.5 -5q14 0 48 2t56 2q11 0 17 -2.5t8.5 -10t3 -16.5t-1 -26.5t-3 -36t-3 -48.5t-1.5 -61v-549q0 -63 22 -94t75 -45q14 -3 14 -20v-17q0 -17 -16 -20q-55 -6 -120.5 -31t-96.5 -55q-15 -12 -35 -4
q-19 8 -19 24v125q-100 -162 -276 -162zM211 1315q0 56 30 90.5t81 34.5q49 0 78.5 -34.5t29.5 -90.5q0 -57 -29.5 -92t-78.5 -35q-51 0 -81 35t-30 92zM498 1315q0 56 30 90.5t80 34.5q49 0 79 -34.5t30 -90.5q0 -57 -30 -92t-79 -35q-51 0 -80.5 35t-29.5 92z" />
    <glyph glyph-name="yacute" unicode="&#xfd;" horiz-adv-x="989" 
d="M133 -449q-77 0 -125.5 36t-48.5 89q0 43 24.5 71t65.5 28q26 0 49.5 -13t39 -29t39 -29t50.5 -13q122 0 222 297l4 12l-308 858q-16 44 -48.5 70.5t-69.5 34.5q-17 3 -17 26v10q0 25 19 25q27 0 93.5 -5t119.5 -5q52 0 115.5 5t97.5 5q18 0 18 -25v-10q0 -22 -24 -28
q-47 -10 -71 -42t-7 -83l182 -560l201 560q19 51 -6 83t-72 42q-25 6 -25 28v10q0 25 19 25q14 0 68 -5t85 -5q27 0 76 5t62 5q18 0 18 -25v-10q0 -23 -16 -26q-38 -8 -71 -36t-50 -75l-273 -760q-192 -541 -436 -541zM403 1165q-10 16 13 39q43 45 105.5 112.5t95 99.5
t55.5 48q40 28 75.5 26t57.5 -34q25 -34 16.5 -69t-47.5 -66q-83 -56 -328 -170q-26 -13 -36 4z" />
    <glyph glyph-name="thorn" unicode="&#xfe;" horiz-adv-x="1040" 
d="M551 -31q-131 0 -238 62v-312q0 -38 30.5 -67t70.5 -37q16 -3 16 -27v-10q0 -14 -4 -19t-14 -5q-32 0 -96 5t-93 5t-90.5 -5t-93.5 -5q-19 0 -19 24v10q0 23 25 29q37 10 64.5 38t27.5 64v1618q0 81 -96 107q-14 3 -14 20v17q0 17 16 20q131 27 221 86q11 9 25 4l10 -4
q14 -6 14 -22v-627q103 106 273 106q171 0 292 -139t121 -360q0 -143 -36 -255.5t-99 -181.5t-142.5 -104t-170.5 -35zM322 178q94 -131 235 -131q55 0 97.5 22.5t76 73t51 139.5t17.5 214q0 216 -76.5 330t-202.5 114q-55 0 -108 -24t-90 -62v-676z" />
    <glyph glyph-name="ydieresis" unicode="&#xff;" horiz-adv-x="989" 
d="M133 -449q-77 0 -125.5 36t-48.5 89q0 43 24.5 71t65.5 28q26 0 49.5 -13t39 -29t39 -29t50.5 -13q122 0 222 297l4 12l-308 858q-16 44 -48.5 70.5t-69.5 34.5q-17 3 -17 26v10q0 25 19 25q27 0 93.5 -5t119.5 -5q52 0 115.5 5t97.5 5q18 0 18 -25v-10q0 -22 -24 -28
q-47 -10 -71 -42t-7 -83l182 -560l201 560q19 51 -6 83t-72 42q-25 6 -25 28v10q0 25 19 25q14 0 68 -5t85 -5q27 0 76 5t62 5q18 0 18 -25v-10q0 -23 -16 -26q-38 -8 -71 -36t-50 -75l-273 -760q-192 -541 -436 -541zM287 1315q0 56 30 90.5t80 34.5q49 0 79 -34.5
t30 -90.5q0 -57 -30 -92t-79 -35q-51 0 -80.5 35t-29.5 92zM573 1315q0 56 30 90.5t81 34.5q49 0 79 -34.5t30 -90.5q0 -57 -30 -92t-79 -35q-51 0 -81 35t-30 92z" />
    <glyph glyph-name="Amacron" unicode="&#x100;" horiz-adv-x="1261" 
d="M29 0q-19 0 -19 25v10q0 23 17 26q130 15 159 107l402 1302q7 21 26 21h25q20 0 27 -21l411 -1304q30 -91 158 -103q16 -3 16 -26v-10q0 -25 -18 -25q-55 0 -138 5t-122 5q-38 0 -125 -5t-160 -5q-18 0 -18 25v10q0 23 24 26q85 11 121 38.5t23 74.5l-105 367h-344
l-100 -355q-15 -56 16.5 -86.5t118.5 -40.5q25 -3 25 -26v-10q0 -25 -19 -25q-52 0 -125.5 5t-97.5 5q-22 0 -80.5 -5t-97.5 -5zM356 1620v33q0 10 5.5 17t13.5 7h512q16 0 16 -24v-33q0 -25 -16 -25h-512q-8 0 -13.5 7.5t-5.5 17.5zM412 621h299l-150 528z" />
    <glyph glyph-name="amacron" unicode="&#x101;" horiz-adv-x="866" 
d="M698 -20q-62 0 -101.5 35t-57.5 120q-138 -166 -316 -166q-84 0 -133 56.5t-49 154.5q0 109 108 204.5t375 197.5l2 137q3 107 -8.5 162.5t-36.5 74.5t-75 19q-55 0 -84.5 -30.5t-51.5 -110.5q-38 -140 -114 -140q-30 0 -53 28.5t-23 70.5q0 64 51.5 123t132 93.5
t164.5 34.5q157 0 222 -65t61 -231q-4 -218 -4 -394q1 -108 7 -161.5t16 -70t30 -16.5q26 0 43 23q13 18 35 4l6 -4q11 -7 12 -16.5t-4 -22.5q-20 -58 -56 -84t-98 -26zM154 1174v32q0 10 5 17.5t13 7.5h512q16 0 16 -25v-32q0 -25 -16 -25h-512q-8 0 -13 7.5t-5 17.5z
M238 217q0 -61 24.5 -92t67.5 -31q38 0 94 32.5t102 92.5q-4 62 -4 98v185q-153 -57 -218.5 -125t-65.5 -160z" />
    <glyph glyph-name="Abreve" unicode="&#x102;" horiz-adv-x="1261" 
d="M29 0q-19 0 -19 25v10q0 23 17 26q130 15 159 107l402 1302q7 21 26 21h25q20 0 27 -21l411 -1304q30 -91 158 -103q16 -3 16 -26v-10q0 -25 -18 -25q-55 0 -138 5t-122 5q-38 0 -125 -5t-160 -5q-18 0 -18 25v10q0 23 24 26q85 11 121 38.5t23 74.5l-105 367h-344
l-100 -355q-15 -56 16.5 -86.5t118.5 -40.5q25 -3 25 -26v-10q0 -25 -19 -25q-52 0 -125.5 5t-97.5 5q-22 0 -80.5 -5t-97.5 -5zM383 1772q-3 30 29 30h55q30 0 33 -30q14 -142 137 -142q115 0 125 142q3 30 33 30h55q32 0 29 -26q-8 -96 -69.5 -154.5t-176.5 -58.5
q-114 0 -178 57t-72 152zM412 621h299l-150 528z" />
    <glyph glyph-name="abreve" unicode="&#x103;" horiz-adv-x="866" 
d="M698 -20q-62 0 -101.5 35t-57.5 120q-138 -166 -316 -166q-84 0 -133 56.5t-49 154.5q0 109 108 204.5t375 197.5l2 137q3 107 -8.5 162.5t-36.5 74.5t-75 19q-55 0 -84.5 -30.5t-51.5 -110.5q-38 -140 -114 -140q-30 0 -53 28.5t-23 70.5q0 64 51.5 123t132 93.5
t164.5 34.5q157 0 222 -65t61 -231q-4 -218 -4 -394q1 -108 7 -161.5t16 -70t30 -16.5q26 0 43 23q13 18 35 4l6 -4q11 -7 12 -16.5t-4 -22.5q-20 -58 -56 -84t-98 -26zM180 1325q-3 31 29 31h55q30 0 33 -31q14 -141 137 -141q115 0 125 141q3 31 33 31h55q32 0 29 -27
q-8 -96 -69.5 -154.5t-176.5 -58.5q-114 0 -178 57t-72 152zM238 217q0 -61 24.5 -92t67.5 -31q38 0 94 32.5t102 92.5q-4 62 -4 98v185q-153 -57 -218.5 -125t-65.5 -160z" />
    <glyph glyph-name="Aogonek" unicode="&#x104;" horiz-adv-x="1261" 
d="M29 0q-19 0 -19 25v10q0 23 17 26q130 15 159 107l402 1302q7 21 26 21h25q20 0 27 -21l411 -1304q30 -91 158 -103q16 -3 16 -26v-10q0 -25 -18 -25q-10 -10 -53.5 -43t-96.5 -86q-59 -59 -59 -129q0 -48 30.5 -83.5t78.5 -35.5q45 0 86 35q15 15 28 2l10 -10
q16 -16 5 -29q-66 -108 -191 -108q-82 0 -133 50t-51 124q0 88 84 172q25 26 87 71t93 72q-24 1 -84.5 4.5t-93.5 3.5q-38 0 -125 -5t-160 -5q-18 0 -18 25v10q0 23 24 26q85 11 121 38.5t23 74.5l-105 367h-344l-100 -355q-15 -56 16.5 -86.5t118.5 -40.5q25 -3 25 -26v-10
q0 -25 -19 -25q-52 0 -125.5 5t-97.5 5q-22 0 -80.5 -5t-97.5 -5zM412 621h299l-150 528z" />
    <glyph glyph-name="aogonek" unicode="&#x105;" horiz-adv-x="866" 
d="M223 -31q-84 0 -133 56.5t-49 154.5q0 109 108 204.5t375 197.5l2 137q3 107 -8.5 162.5t-36.5 74.5t-75 19q-55 0 -84.5 -30.5t-51.5 -110.5q-38 -140 -114 -140q-30 0 -53 28.5t-23 70.5q0 64 51.5 123t132 93.5t164.5 34.5q157 0 222 -65t61 -231q-4 -218 -4 -394
q1 -108 7 -161.5t16 -70t30 -16.5q26 0 43 23q13 18 35 4l6 -4q11 -7 12 -16.5t-4 -22.5q-24 -71 -72 -94q-9 -8 -29 -22.5t-47 -37.5t-63 -59q-59 -59 -59 -129q0 -48 30 -83.5t78 -35.5q45 0 86 35q16 16 29 2l10 -10q15 -15 4 -29q-66 -108 -190 -108q-82 0 -133.5 50.5
t-51.5 123.5q0 88 84 172q18 18 41 36.5t55 41.5t52 39q-52 5 -86 41t-51 112q-138 -166 -316 -166zM238 217q0 -61 24.5 -92t67.5 -31q38 0 94 32.5t102 92.5q-4 62 -4 98v185q-153 -57 -218.5 -125t-65.5 -160z" />
    <glyph glyph-name="Cacute" unicode="&#x106;" horiz-adv-x="1077" 
d="M610 -31q-117 0 -219.5 52.5t-180.5 150t-123.5 249.5t-45.5 339q0 362 153.5 557.5t413.5 195.5q98 0 194.5 -22.5t147.5 -54.5q29 -18 29 -60v-270q0 -10 -7.5 -17.5t-17.5 -7.5h-14q-23 0 -29 21q-51 181 -136.5 257.5t-203.5 76.5q-136 0 -219.5 -149.5t-83.5 -436.5
q0 -344 123 -542.5t305 -198.5q146 0 279 145q19 19 43 2l6 -4q24 -17 4 -43q-164 -240 -418 -240zM467 1653q-10 17 12 39q43 45 105.5 112.5t95 99.5t55.5 48q40 28 75.5 26t57.5 -34q26 -34 17.5 -69.5t-47.5 -66.5q-83 -56 -328 -170q-27 -13 -37 4z" />
    <glyph glyph-name="cacute" unicode="&#x107;" horiz-adv-x="847" 
d="M483 -31q-87 0 -166 37t-141 106t-98.5 178t-36.5 242q0 244 122 378t314 134q79 0 159 -21.5t114 -51.5q17 -14 21.5 -27.5t4.5 -40.5v-196q0 -8 -5.5 -13.5t-12.5 -5.5h-17q-18 0 -24 25q-35 135 -94 198.5t-148 63.5q-106 0 -169.5 -106t-63.5 -302q0 -219 83.5 -342
t217.5 -123q67 0 128 29t105 84q16 19 33 6l8 -6q17 -13 8 -31q-108 -215 -342 -215zM319 1198q-10 16 13 39q43 45 105.5 112.5t95 99.5t55.5 48q40 28 75.5 26t57.5 -34q25 -34 16.5 -69t-47.5 -66q-83 -56 -328 -170q-26 -13 -36 4z" />
    <glyph glyph-name="Ccaron" unicode="&#x10c;" horiz-adv-x="1077" 
d="M610 -31q-117 0 -219.5 52.5t-180.5 150t-123.5 249.5t-45.5 339q0 362 153.5 557.5t413.5 195.5q98 0 194.5 -22.5t147.5 -54.5q29 -18 29 -60v-270q0 -10 -7.5 -17.5t-17.5 -7.5h-14q-23 0 -29 21q-51 181 -136.5 257.5t-203.5 76.5q-136 0 -219.5 -149.5t-83.5 -436.5
q0 -344 123 -542.5t305 -198.5q146 0 279 145q19 19 43 2l6 -4q24 -17 4 -43q-164 -240 -418 -240zM319 1896q-16 25 9 43l8 7q21 18 43 -7l174 -221l174 221q22 25 43 7l8 -7q24 -17 8 -43l-188 -282q-14 -17 -29 -17h-32q-15 0 -29 17z" />
    <glyph glyph-name="ccaron" unicode="&#x10d;" horiz-adv-x="847" 
d="M483 -31q-87 0 -166 37t-141 106t-98.5 178t-36.5 242q0 244 122 378t314 134q79 0 159 -21.5t114 -51.5q17 -14 21.5 -27.5t4.5 -40.5v-196q0 -8 -5.5 -13.5t-12.5 -5.5h-17q-18 0 -24 25q-35 135 -94 198.5t-148 63.5q-106 0 -169.5 -106t-63.5 -302q0 -219 83.5 -342
t217.5 -123q67 0 128 29t105 84q16 19 33 6l8 -6q17 -13 8 -31q-108 -215 -342 -215zM172 1442q-16 26 8 43l8 6q22 19 43 -6l175 -221l174 221q21 25 43 6l8 -6q24 -17 8 -43l-188 -283q-13 -16 -29 -16h-33q-16 0 -29 16z" />
    <glyph glyph-name="Dcaron" unicode="&#x10e;" horiz-adv-x="1165" 
d="M487 0l-188 4q-72 0 -158.5 -2t-101.5 -2q-19 0 -19 25v10q0 22 25 28q50 9 81.5 37t31.5 66v1159q0 38 -31.5 65.5t-81.5 36.5q-25 6 -25 29v10q0 25 19 25q25 0 119 -2.5t166 -3.5q17 1 70.5 3.5t92.5 2.5q122 0 226 -39t179 -107.5t128 -161t78.5 -201t25.5 -226.5
q0 -350 -171 -553t-466 -203zM299 1876q-16 26 8 43l8 6q22 19 43 -6l174 -221l175 221q21 25 43 6l8 -6q24 -17 8 -43l-188 -283q-13 -16 -29 -16h-33q-16 0 -29 16zM362 166q0 -39 32.5 -63.5t78.5 -24.5h27q178 0 287.5 176t109.5 465q0 181 -32 318t-88.5 217.5
t-127.5 119.5t-155 39h-21q-46 0 -78.5 -24.5t-32.5 -63.5v-1159z" />
    <glyph glyph-name="dcaron" unicode="&#x10f;" horiz-adv-x="1028" 
d="M721 1337q0 81 -96 107q-15 3 -15 20v17q0 17 17 20q131 27 221 86q11 8 24 4l11 -4q14 -6 14 -22v-1297q0 -63 21.5 -94t74.5 -45q15 -3 15 -20v-17q0 -17 -17 -20q-55 -6 -120.5 -31t-96.5 -55q-15 -12 -35 -4q-18 8 -18 24v121q-107 -158 -275 -158q-82 0 -155.5 37
t-129 104.5t-88 170.5t-32.5 227q0 130 35.5 233.5t97 168.5t140.5 99.5t169 34.5q146 0 238 -71v364zM242 551q0 -211 69 -334t187 -123q69 0 129.5 50t85.5 126v480q-28 108 -92 163.5t-144 55.5q-235 0 -235 -418zM950 1626q1 49 24.5 77t61.5 26q42 0 65 -28.5t25 -78.5
q-7 -101 -61 -365q-5 -30 -27 -26l-10 2q-10 0 -15.5 6.5t-8.5 26.5q-10 59 -26.5 151t-23 136.5t-4.5 72.5z" />
    <glyph glyph-name="Dcroat" unicode="&#x110;" horiz-adv-x="1165" 
d="M487 0l-188 4q-72 0 -158.5 -2t-101.5 -2q-19 0 -19 25v10q0 22 25 28q50 9 81.5 37t31.5 66v532h-97q-20 0 -20 25v33q0 24 20 24h97v545q0 38 -31.5 65.5t-81.5 36.5q-25 6 -25 29v10q0 25 19 25q25 0 119 -2.5t166 -3.5q17 1 70.5 3.5t92.5 2.5q122 0 226 -39
t179 -107.5t128 -161t78.5 -201t25.5 -226.5q0 -350 -171 -553t-466 -203zM362 166q0 -39 32.5 -63.5t78.5 -24.5h27q178 0 287.5 176t109.5 465q0 181 -32 318t-88.5 217.5t-127.5 119.5t-155 39h-21q-46 0 -78.5 -24.5t-32.5 -63.5v-545h256q19 0 19 -24v-33
q0 -25 -19 -25h-256v-532z" />
    <glyph glyph-name="dcroat" unicode="&#x111;" horiz-adv-x="1028" 
d="M721 1337q0 81 -96 107q-15 3 -15 20v17q0 17 17 20q131 27 221 86q11 8 24 4l11 -4q14 -6 14 -22v-273h82q16 0 16 -24v-33q0 -25 -16 -25h-82v-942q0 -63 21.5 -94t74.5 -45q15 -3 15 -20v-17q0 -17 -17 -20q-55 -6 -120.5 -31t-96.5 -55q-15 -12 -35 -4q-18 8 -18 24
v121q-107 -158 -275 -158q-82 0 -155.5 37t-129 104.5t-88 170.5t-32.5 227q0 130 35.5 233.5t97 168.5t140.5 99.5t169 34.5q146 0 238 -71v237h-195q-14 0 -14 25v33q0 24 14 24h195v45zM242 551q0 -211 69 -334t187 -123q69 0 129.5 50t85.5 126v480q-28 108 -92 163.5
t-144 55.5q-235 0 -235 -418z" />
    <glyph glyph-name="Emacron" unicode="&#x112;" horiz-adv-x="1028" 
d="M948 1128q-19 0 -22 25q-27 151 -111 205.5t-276 54.5h-66q-46 0 -78.5 -24.5t-32.5 -63.5v-520h232q74 0 120.5 42t53.5 128q3 18 27 18h10q14 0 19 -4t5 -14q0 -38 -3 -103t-3 -104q0 -41 3 -105t3 -106q0 -10 -5 -14t-19 -4h-10q-24 0 -27 26q-20 162 -174 162h-232
v-561q0 -39 32.5 -63.5t78.5 -24.5h90q192 0 276 54.5t111 205.5q3 24 23 24h16q8 0 13.5 -5.5t5.5 -12.5v-278q0 -40 -16.5 -53t-71.5 -13q-61 1 -205 3.5t-242 2.5q-131 0 -274.5 -3t-159.5 -3q-19 0 -19 25v10q0 22 25 28q50 9 81.5 37t31.5 66v1159q0 38 -31.5 65.5
t-81.5 36.5q-25 6 -25 29v10q0 25 19 25q16 0 159.5 -3t274.5 -3q82 0 216.5 2.5t205.5 3.5q55 0 71.5 -13t16.5 -53v-278q0 -8 -5.5 -13.5t-12.5 -5.5h-17zM272 1620v33q0 10 5.5 17t13.5 7h512q16 0 16 -24v-33q0 -25 -16 -25h-512q-8 0 -13.5 7.5t-5.5 17.5z" />
    <glyph glyph-name="emacron" unicode="&#x113;" horiz-adv-x="847" 
d="M475 -31q-86 0 -164.5 39.5t-138.5 109t-95.5 172.5t-35.5 222q0 254 120.5 393t307.5 139q147 0 249.5 -101t102.5 -232q0 -54 -15 -69t-52 -15h-510q-2 -18 -2 -60q0 -225 87.5 -346t225.5 -121q129 0 221 115q16 19 33 6l8 -6q17 -13 8 -31q-55 -103 -147.5 -159
t-202.5 -56zM178 1174v32q0 10 5.5 17.5t13.5 7.5h512q16 0 16 -25v-32q0 -25 -16 -25h-512q-8 0 -13.5 7.5t-5.5 17.5zM248 698h211q92 0 127 24.5t35 84.5q0 70 -47 119t-115 49q-89 0 -141.5 -66.5t-69.5 -210.5z" />
    <glyph glyph-name="Edotaccent" unicode="&#x116;" horiz-adv-x="1028" 
d="M948 1128q-19 0 -22 25q-27 151 -111 205.5t-276 54.5h-66q-46 0 -78.5 -24.5t-32.5 -63.5v-520h232q74 0 120.5 42t53.5 128q3 18 27 18h10q14 0 19 -4t5 -14q0 -38 -3 -103t-3 -104q0 -41 3 -105t3 -106q0 -10 -5 -14t-19 -4h-10q-24 0 -27 26q-20 162 -174 162h-232
v-561q0 -39 32.5 -63.5t78.5 -24.5h90q192 0 276 54.5t111 205.5q3 24 23 24h16q8 0 13.5 -5.5t5.5 -12.5v-278q0 -40 -16.5 -53t-71.5 -13q-61 1 -205 3.5t-242 2.5q-131 0 -274.5 -3t-159.5 -3q-19 0 -19 25v10q0 22 25 28q50 9 81.5 37t31.5 66v1159q0 38 -31.5 65.5
t-81.5 36.5q-25 6 -25 29v10q0 25 19 25q16 0 159.5 -3t274.5 -3q82 0 216.5 2.5t205.5 3.5q55 0 71.5 -13t16.5 -53v-278q0 -8 -5.5 -13.5t-12.5 -5.5h-17zM436 1782q0 56 30 90.5t81 34.5q49 0 78.5 -34.5t29.5 -90.5q0 -57 -29.5 -92t-78.5 -35q-51 0 -81 35t-30 92z" />
    <glyph glyph-name="edotaccent" unicode="&#x117;" horiz-adv-x="847" 
d="M475 -31q-86 0 -164.5 39.5t-138.5 109t-95.5 172.5t-35.5 222q0 254 120.5 393t307.5 139q147 0 249.5 -101t102.5 -232q0 -54 -15 -69t-52 -15h-510q-2 -18 -2 -60q0 -225 87.5 -346t225.5 -121q129 0 221 115q16 19 33 6l8 -6q17 -13 8 -31q-55 -103 -147.5 -159
t-202.5 -56zM248 698h211q92 0 127 24.5t35 84.5q0 70 -47 119t-115 49q-89 0 -141.5 -66.5t-69.5 -210.5zM342 1335q0 56 30 90.5t81 34.5q49 0 78.5 -34.5t29.5 -90.5q0 -57 -29.5 -92t-78.5 -35q-51 0 -81 35t-30 92z" />
    <glyph glyph-name="Eogonek" unicode="&#x118;" horiz-adv-x="1028" 
d="M948 1128q-19 0 -22 25q-27 151 -111 205.5t-276 54.5h-66q-46 0 -78.5 -24.5t-32.5 -63.5v-520h232q74 0 120.5 42t53.5 128q3 18 27 18h10q14 0 19 -4t5 -14q0 -38 -3 -103t-3 -104q0 -41 3 -105t3 -106q0 -10 -5 -14t-19 -4h-10q-24 0 -27 26q-20 162 -174 162h-232
v-561q0 -39 32.5 -63.5t78.5 -24.5h90q192 0 276 54.5t111 205.5q3 24 23 24h16q8 0 13.5 -5.5t5.5 -12.5v-278q0 -40 -16 -53t-70 -13q-10 -10 -53.5 -43t-96.5 -86q-59 -59 -59 -129q0 -48 30 -83.5t78 -35.5q45 0 86 35q15 16 29 2l10 -10q15 -15 4 -29
q-66 -108 -190 -108q-82 0 -133.5 50.5t-51.5 123.5q0 88 84 172q25 26 86 70.5t93 72.5q-262 4 -365 4q-131 0 -274.5 -3t-159.5 -3q-19 0 -19 25v10q0 22 25 28q50 9 81.5 37t31.5 66v1159q0 38 -31.5 65.5t-81.5 36.5q-25 6 -25 29v10q0 25 19 25q16 0 159.5 -3t274.5 -3
q82 0 216.5 2.5t205.5 3.5q55 0 71.5 -13t16.5 -53v-278q0 -8 -5.5 -13.5t-12.5 -5.5h-17z" />
    <glyph glyph-name="eogonek" unicode="&#x119;" horiz-adv-x="847" 
d="M475 -31q-86 0 -164.5 39.5t-138.5 109t-95.5 172.5t-35.5 222q0 254 120.5 393t307.5 139q147 0 249.5 -101t102.5 -232q0 -54 -15 -69t-52 -15h-510q-2 -18 -2 -60q0 -225 87.5 -346t225.5 -121q129 0 221 115q16 19 33 6l8 -6q17 -13 8 -31q-50 -95 -135 -151
q-10 -9 -30 -23.5t-47.5 -38t-65.5 -61.5q-60 -60 -60 -129q0 -48 30.5 -83.5t78.5 -35.5q45 0 86 35q16 15 29 2l10 -10q15 -15 4 -29q-66 -109 -190 -109q-82 0 -133.5 50.5t-51.5 124.5q0 88 84 172q18 18 92 75q-32 -4 -51 -4zM248 698h211q92 0 127 24.5t35 84.5
q0 70 -47 119t-115 49q-89 0 -141.5 -66.5t-69.5 -210.5z" />
    <glyph glyph-name="Ecaron" unicode="&#x11a;" horiz-adv-x="1028" 
d="M948 1128q-19 0 -22 25q-27 151 -111 205.5t-276 54.5h-66q-46 0 -78.5 -24.5t-32.5 -63.5v-520h232q74 0 120.5 42t53.5 128q3 18 27 18h10q14 0 19 -4t5 -14q0 -38 -3 -103t-3 -104q0 -41 3 -105t3 -106q0 -10 -5 -14t-19 -4h-10q-24 0 -27 26q-20 162 -174 162h-232
v-561q0 -39 32.5 -63.5t78.5 -24.5h90q192 0 276 54.5t111 205.5q3 24 23 24h16q8 0 13.5 -5.5t5.5 -12.5v-278q0 -40 -16.5 -53t-71.5 -13q-61 1 -205 3.5t-242 2.5q-131 0 -274.5 -3t-159.5 -3q-19 0 -19 25v10q0 22 25 28q50 9 81.5 37t31.5 66v1159q0 38 -31.5 65.5
t-81.5 36.5q-25 6 -25 29v10q0 25 19 25q16 0 159.5 -3t274.5 -3q82 0 216.5 2.5t205.5 3.5q55 0 71.5 -13t16.5 -53v-278q0 -8 -5.5 -13.5t-12.5 -5.5h-17zM262 1876q-16 26 8 43l9 6q22 19 43 -6l174 -221l174 221q21 25 43 6l8 -6q24 -17 8 -43l-188 -283
q-13 -16 -29 -16h-33q-15 0 -28 16z" />
    <glyph glyph-name="ecaron" unicode="&#x11b;" horiz-adv-x="847" 
d="M475 -31q-86 0 -164.5 39.5t-138.5 109t-95.5 172.5t-35.5 222q0 254 120.5 393t307.5 139q147 0 249.5 -101t102.5 -232q0 -54 -15 -69t-52 -15h-510q-2 -18 -2 -60q0 -225 87.5 -346t225.5 -121q129 0 221 115q16 19 33 6l8 -6q17 -13 8 -31q-55 -103 -147.5 -159
t-202.5 -56zM168 1430q-16 26 8 43l8 6q22 19 43 -6l174 -222l174 222q21 25 43 6l9 -6q24 -17 8 -43l-189 -283q-14 -17 -28 -17h-33q-15 0 -29 17zM248 698h211q92 0 127 24.5t35 84.5q0 70 -47 119t-115 49q-89 0 -141.5 -66.5t-69.5 -210.5z" />
    <glyph glyph-name="uni0122" unicode="&#x122;" horiz-adv-x="1193" 
d="M618 -31q-117 0 -220.5 52.5t-183.5 150t-126.5 249.5t-46.5 339q0 181 42 325t117.5 237t178 142t225.5 49q94 0 201 -26t145 -51q29 -18 29 -60v-270q0 -10 -7.5 -17.5t-17.5 -7.5h-14q-23 0 -29 21q-51 180 -132 257t-187 77q-144 0 -234 -153.5t-90 -453.5
q0 -352 111.5 -567t267.5 -215q75 0 129.5 51t54.5 140v405q0 38 -31 65.5t-81 36.5q-25 6 -25 29v10q0 25 19 25q43 0 113 -5t106 -5t108 5t115 5q19 0 19 -25v-10q0 -23 -17 -26q-53 -8 -87 -37t-34 -68q0 -24 -1.5 -76t-1.5 -84v-79t3 -78.5t8 -64t14.5 -52.5t22.5 -29
q6 -4 14 -9t11.5 -7t7.5 -5.5t5 -6.5t1 -7v-12q0 -24 -24 -24q-65 -3 -117 -19t-87.5 -36t-71 -39.5t-86.5 -32.5t-116 -13zM328 -399l4 8q11 22 30 8q56 -37 123 -37q118 0 125 74q-42 8 -66 42t-24 87q0 59 30 94t81 35q52 0 84.5 -41t32.5 -119q0 -37 -16 -76.5
t-45.5 -75t-79.5 -58.5t-111 -23q-89 0 -152 45q-26 17 -16 37z" />
    <glyph glyph-name="uni0123" unicode="&#x123;" horiz-adv-x="901" 
d="M373 -465q-92 1 -163.5 23.5t-114 59.5t-64 81.5t-21.5 93.5q0 64 36 116.5t147 131.5q-15 3 -27 17t-37 53q-4 7 -6 10l-51 82q-22 35 -15.5 58.5t47.5 55.5q15 11 40 26.5t61 35.5t51 29q-82 44 -130 121t-48 173q0 167 96.5 261t263.5 94q48 0 133 -25.5t136 -25.5
q23 0 67 2t66 2q29 0 40 -7t11 -24v-33q0 -38 -49 -35q-41 2 -121 2q72 -78 72 -198q0 -167 -94 -260t-261 -93h-8q-103 0 -151 -23.5t-48 -55.5q0 -21 21 -29.5t57 -8t82.5 4.5t97.5 5t102.5 -3.5t98 -25.5t82.5 -56t57 -99t21 -151q0 -164 -130.5 -275t-346.5 -110z
M195 -127q0 -108 67.5 -175.5t196.5 -68.5q130 -1 201 63.5t71 170.5q0 51 -14.5 88.5t-35.5 60.5t-58 36.5t-68.5 18.5t-81.5 3t-83 -6t-85 -11q-52 -26 -81 -74t-29 -106zM272 717q0 -143 46.5 -217t136.5 -74q141 0 141 274q0 137 -48.5 215t-119.5 78q-88 0 -122 -66.5
t-34 -209.5zM317 1296q0 103 46 209t151 191q17 14 31 -6l12 -19q6 -14 1.5 -23t-21.5 -26q-43 -41 -68.5 -105.5t-22.5 -121.5q46 -5 72.5 -39.5t26.5 -89.5q0 -58 -30 -92.5t-81 -34.5q-52 0 -84.5 39.5t-32.5 117.5z" />
    <glyph glyph-name="Imacron" unicode="&#x12a;" horiz-adv-x="520" 
d="M39 0q-19 0 -19 25v10q0 22 25 28q50 9 81.5 37t31.5 66v1159q0 38 -31.5 65.5t-81.5 36.5q-25 6 -25 29v10q0 25 19 25q43 0 113 -5t106 -5t108 5t115 5q19 0 19 -25v-10q0 -23 -17 -26q-53 -8 -87 -37t-34 -68v-1159q0 -39 34 -68t87 -37q17 -3 17 -26v-10
q0 -25 -19 -25q-43 0 -115 5t-108 5t-106 -5t-113 -5zM-14 1620v33q0 10 5 17t13 7h512q16 0 16 -24v-33q0 -25 -16 -25h-512q-8 0 -13 7.5t-5 17.5z" />
    <glyph glyph-name="imacron" unicode="&#x12b;" horiz-adv-x="448" 
d="M39 0q-19 0 -19 25v10q0 22 25 28q36 10 64 38.5t28 64.5v571q0 82 -96 107q-14 3 -14 20v17q0 14 16 20q50 16 118 57t111 84q9 9 31 2q19 -8 19 -24v-854q0 -38 30.5 -67.5t69.5 -37.5q16 -3 16 -26v-10q0 -25 -18 -25q-32 0 -97 5t-96 5t-94 -5t-94 -5zM-45 1153v33
q0 10 5 17t13 7h512q17 0 17 -24v-33q0 -25 -17 -25h-512q-8 0 -13 7.5t-5 17.5z" />
    <glyph glyph-name="Iogonek" unicode="&#x12e;" horiz-adv-x="520" 
d="M39 0q-19 0 -19 25v10q0 22 25 28q50 9 81.5 37t31.5 66v1159q0 38 -31.5 65.5t-81.5 36.5q-25 6 -25 29v10q0 25 19 25q43 0 113 -5t106 -5t108 5t115 5q19 0 19 -25v-10q0 -23 -17 -26q-53 -8 -87 -37t-34 -68v-1159q0 -39 34 -68t87 -37q17 -3 17 -26v-10
q0 -25 -19 -25h-43q-69 -51 -127 -109q-59 -59 -59 -129q0 -48 30 -83t78 -35q46 0 86 34q16 16 29 3l10 -11q15 -15 4 -28q-66 -109 -190 -109q-82 0 -133 50t-51 124q0 88 84 172q24 26 81 67.5t78 59.5q-66 4 -100 4q-36 0 -106 -5t-113 -5z" />
    <glyph glyph-name="iogonek" unicode="&#x12f;" horiz-adv-x="448" 
d="M39 0q-19 0 -19 25v10q0 22 25 28q36 10 64 38.5t28 64.5v571q0 82 -96 107q-14 3 -14 20v17q0 14 16 20q50 16 118 57t111 84q9 9 31 2q19 -8 19 -24v-854q0 -38 30.5 -67.5t69.5 -37.5q16 -3 16 -26v-10q0 -25 -18 -25q-9 -9 -52.5 -42t-95.5 -85q-59 -59 -59 -129
q0 -48 30.5 -83.5t78.5 -35.5q45 0 86 35q15 15 28 2l10 -10q16 -16 5 -29q-66 -108 -191 -108q-82 0 -133 50t-51 124q0 88 84 172q25 26 87 71t93 72q-111 6 -113 6q-31 0 -94 -5t-94 -5zM119 1315q0 56 30 90.5t80 34.5q49 0 79 -34.5t30 -90.5q0 -57 -30 -92t-79 -35
q-51 0 -80.5 35t-29.5 92z" />
    <glyph glyph-name="dotlessi" unicode="&#x131;" horiz-adv-x="448" 
d="M39 0q-19 0 -19 25v10q0 22 25 28q36 10 64 38.5t28 64.5v571q0 82 -96 107q-14 3 -14 20v17q0 14 16 20q50 16 118 57t111 84q9 9 31 2q19 -8 19 -24v-854q0 -38 30.5 -67.5t69.5 -37.5q16 -3 16 -26v-10q0 -25 -18 -25q-32 0 -97 5t-96 5t-94 -5t-94 -5z" />
    <glyph glyph-name="IJ" unicode="&#x132;" horiz-adv-x="1284" 
d="M39 0q-19 0 -19 25v10q0 22 25 28q50 9 81.5 37t31.5 66v1159q0 38 -31.5 65.5t-81.5 36.5q-25 6 -25 29v10q0 25 19 25q43 0 113 -5t106 -5t108 5t115 5q19 0 19 -25v-10q0 -23 -17 -26q-53 -8 -87 -37t-34 -68v-1159q0 -39 34 -68t87 -37q17 -3 17 -26v-10
q0 -25 -19 -25q-43 0 -115 5t-108 5t-106 -5t-113 -5zM530 166q0 53 31.5 93t79.5 40q44 0 69 -25.5t33.5 -62.5t14.5 -74t22 -62.5t47 -25.5q95 0 95 240v1036q0 40 -38.5 67.5t-115.5 37.5q-25 3 -25 26v10q0 25 19 25q69 0 149 -5t111 -5q36 0 108 5t115 5q19 0 19 -25
v-10q0 -23 -17 -26q-53 -8 -87 -37t-34 -68v-934q0 -115 -41.5 -209.5t-126 -153.5t-198.5 -59q-112 0 -171 62t-59 135z" />
    <glyph glyph-name="ij" unicode="&#x133;" horiz-adv-x="913" 
d="M39 0q-19 0 -19 25v10q0 22 25 28q36 10 64 38.5t28 64.5v571q0 82 -96 107q-14 3 -14 20v17q0 14 16 20q50 16 118 57t111 84q9 9 31 2q19 -8 19 -24v-854q0 -38 30.5 -67.5t69.5 -37.5q16 -3 16 -26v-10q0 -25 -18 -25q-32 0 -97 5t-96 5t-94 -5t-94 -5zM98 1331
q0 65 34 104.5t89 39.5t88 -39.5t33 -104.5q0 -66 -33 -105.5t-88 -39.5q-56 0 -89.5 39.5t-33.5 105.5zM264 -248q0 47 28.5 87t69.5 40q40 0 62 -21t29.5 -50.5t13.5 -59.5t20 -51t41 -21q29 0 44.5 23.5t23.5 91.5t8 197v749q0 82 -96 107q-14 3 -14 20v17q0 14 16 20
q50 16 118 57t111 84q9 9 31 2q18 -8 18 -24v-928q0 -236 -82.5 -371t-236.5 -135q-100 0 -152.5 51t-52.5 115zM575 1341q0 59 30 94t81 35q49 0 79 -35t30 -94q0 -60 -29.5 -95.5t-79.5 -35.5q-51 0 -81 35.5t-30 95.5z" />
    <glyph glyph-name="uni0136" unicode="&#x136;" horiz-adv-x="1159" 
d="M39 0q-19 0 -19 25v10q0 22 25 28q50 9 81.5 37t31.5 66v1159q0 38 -31.5 65.5t-81.5 36.5q-25 6 -25 29v10q0 25 19 25q43 0 113 -5t106 -5t108 5t115 5q19 0 19 -25v-10q0 -23 -17 -26q-53 -8 -87 -37t-34 -68v-623l422 601q38 49 22 83t-99 44q-25 3 -25 26v10
q0 25 18 25q52 0 129 -5t101 -5t77.5 5t79.5 5q19 0 19 -25v-10q0 -23 -16 -26q-52 -8 -110.5 -39.5t-88.5 -71.5l-311 -434l391 -695q26 -48 73.5 -82t88.5 -42q16 -3 16 -27v-10q0 -25 -19 -25q-29 0 -111.5 5t-127.5 5q-36 0 -103 -5t-104 -5q-18 0 -18 25v10q0 23 24 29
q39 9 51 37.5t-12 70.5l-295 508l-72 -100v-418q0 -39 34 -68t87 -37q17 -3 17 -26v-10q0 -25 -19 -25q-43 0 -115 5t-108 5t-106 -5t-113 -5zM289 -399l4 8q11 22 31 8q56 -37 122 -37q118 0 125 74q-42 8 -66 42t-24 87q0 59 30 94t81 35q52 0 84.5 -41t32.5 -119
q0 -37 -16 -76.5t-45.5 -75t-79.5 -58.5t-111 -23q-89 0 -152 45q-26 17 -16 37z" />
    <glyph glyph-name="uni0137" unicode="&#x137;" horiz-adv-x="995" 
d="M39 0q-19 0 -19 25v10q0 22 25 28q36 10 64 38.5t28 64.5v1171q0 81 -96 107q-14 3 -14 20v17q0 17 16 20q143 29 229 86q11 9 25 4l10 -4q15 -6 15 -22v-1098l288 369q25 32 28 57t-23 44t-83 26q-24 3 -24 26v10q0 25 18 25q52 0 129 -5t101 -5t77.5 5t79.5 5
q19 0 19 -25v-10q0 -23 -17 -26q-51 -8 -109 -39.5t-89 -71.5l-185 -231l275 -435q30 -46 77 -81.5t85 -43.5q16 -3 16 -26v-10q0 -25 -18 -25q-29 0 -101.5 5t-117.5 5q-36 0 -103 -5t-104 -5q-19 0 -19 25v10q0 22 25 28q39 9 51 38t-12 71l-174 295l-90 -113v-188
q0 -38 30.5 -67.5t69.5 -37.5q16 -3 16 -26v-10q0 -25 -18 -25q-32 0 -97 5t-96 5t-94 -5t-94 -5zM203 -399l4 8q11 22 31 8q56 -37 122 -37q118 0 125 74q-42 8 -66 42t-24 87q0 59 30 94t81 35q52 0 84.5 -41t32.5 -119q0 -37 -16 -76.5t-45.5 -75t-79.5 -58.5t-111 -23
q-89 0 -152 45q-26 17 -16 37z" />
    <glyph glyph-name="Lacute" unicode="&#x139;" horiz-adv-x="1003" 
d="M39 0q-19 0 -19 25v10q0 22 25 28q50 9 81.5 37t31.5 66v1159q0 38 -31.5 65.5t-81.5 36.5q-25 6 -25 29v10q0 25 19 25q43 0 113 -5t106 -5t108 5t115 5q19 0 19 -25v-10q0 -23 -17 -26q-53 -8 -87 -37t-34 -68v-1159q0 -39 32.5 -63.5t78.5 -24.5h66q192 0 276 54.5
t111 205.5q3 24 22 24h17q7 0 12.5 -5t5.5 -13v-278q0 -40 -16.5 -53t-71.5 -13q-71 1 -205.5 3.5t-216.5 2.5q-131 0 -274.5 -3t-159.5 -3zM121 1622q-10 17 12 39q43 45 105.5 112.5t95 99.5t55.5 48q40 28 75.5 26t57.5 -34q53 -68 -30 -135q-83 -56 -328 -170
q-27 -13 -37 4z" />
    <glyph glyph-name="lacute" unicode="&#x13a;" horiz-adv-x="448" 
d="M39 0q-19 0 -19 25v10q0 22 25 28q36 10 64 38.5t28 64.5v1171q0 81 -96 107q-14 3 -14 20v17q0 17 16 20q143 29 229 86q11 9 25 4l10 -4q15 -6 15 -22v-1399q0 -38 30.5 -67.5t69.5 -37.5q16 -3 16 -26v-10q0 -25 -18 -25q-32 0 -97 5t-96 5t-94 -5t-94 -5zM92 1706
q-10 17 12 39q43 45 105.5 112.5t95 99.5t55.5 48q40 28 76 26t58 -34q25 -34 16.5 -69t-47.5 -66q-83 -56 -328 -170q-27 -13 -37 4z" />
    <glyph glyph-name="uni013B" unicode="&#x13b;" horiz-adv-x="1003" 
d="M39 0q-19 0 -19 25v10q0 22 25 28q50 9 81.5 37t31.5 66v1159q0 38 -31.5 65.5t-81.5 36.5q-25 6 -25 29v10q0 25 19 25q43 0 113 -5t106 -5t108 5t115 5q19 0 19 -25v-10q0 -23 -17 -26q-53 -8 -87 -37t-34 -68v-1159q0 -39 32.5 -63.5t78.5 -24.5h66q192 0 276 54.5
t111 205.5q3 24 22 24h17q7 0 12.5 -5t5.5 -13v-278q0 -40 -16.5 -53t-71.5 -13q-71 1 -205.5 3.5t-216.5 2.5q-131 0 -274.5 -3t-159.5 -3zM211 -399l4 8q11 22 31 8q56 -37 123 -37q118 0 125 74q-42 8 -66.5 42t-24.5 87q0 59 30 94t81 35q52 0 84.5 -41t32.5 -119
q0 -37 -16 -76.5t-45.5 -75t-79.5 -58.5t-111 -23q-89 0 -152 45q-26 17 -16 37z" />
    <glyph glyph-name="uni013C" unicode="&#x13c;" horiz-adv-x="448" 
d="M39 0q-19 0 -19 25v10q0 22 25 28q36 10 64 38.5t28 64.5v1171q0 81 -96 107q-14 3 -14 20v17q0 17 16 20q143 29 229 86q11 9 25 4l10 -4q15 -6 15 -22v-1399q0 -38 30.5 -67.5t69.5 -37.5q16 -3 16 -26v-10q0 -25 -18 -25q-32 0 -97 5t-96 5t-94 -5t-94 -5zM-61 -389
l4 8q11 22 30 8q56 -37 123 -37q118 0 125 74q-42 8 -66 42t-24 87q0 59 30 94t81 35q52 0 84 -40.5t32 -119.5q0 -37 -16 -76.5t-45.5 -75t-79.5 -58.5t-111 -23q-88 0 -151 45q-26 17 -16 37z" />
    <glyph glyph-name="Lcaron" unicode="&#x13d;" horiz-adv-x="1003" 
d="M39 0q-19 0 -19 25v10q0 22 25 28q50 9 81.5 37t31.5 66v1159q0 38 -31.5 65.5t-81.5 36.5q-25 6 -25 29v10q0 25 19 25q43 0 113 -5t106 -5t108 5t115 5q19 0 19 -25v-10q0 -23 -17 -26q-53 -8 -87 -37t-34 -68v-1159q0 -39 32.5 -63.5t78.5 -24.5h66q192 0 276 54.5
t111 205.5q3 24 22 24h17q7 0 12.5 -5t5.5 -13v-278q0 -40 -16.5 -53t-71.5 -13q-71 1 -205.5 3.5t-216.5 2.5q-131 0 -274.5 -3t-159.5 -3zM557 1630q1 49 24.5 77t61.5 26q42 0 65 -28.5t25 -78.5q-7 -100 -61 -364q-3 -16 -10 -22.5t-17 -4.5l-10 2q-10 0 -16 6.5
t-9 26.5q-8 52 -20.5 121t-19 106t-10.5 74.5t-3 58.5z" />
    <glyph glyph-name="lcaron" unicode="&#x13e;" horiz-adv-x="448" 
d="M39 0q-19 0 -19 25v10q0 22 25 28q36 10 64 38.5t28 64.5v1171q0 81 -96 107q-14 3 -14 20v17q0 17 16 20q143 29 229 86q11 9 25 4l10 -4q15 -6 15 -22v-1399q0 -38 30.5 -67.5t69.5 -37.5q16 -3 16 -26v-10q0 -25 -18 -25q-32 0 -97 5t-96 5t-94 -5t-94 -5zM379 1628
q1 49 24.5 77t61.5 26q42 0 65 -28.5t25 -78.5q-7 -100 -61 -364q-3 -16 -10 -22.5t-17 -4.5l-10 2q-10 0 -16 6.5t-9 26.5q-8 52 -20.5 121t-19 106t-10.5 74.5t-3 58.5z" />
    <glyph glyph-name="Lslash" unicode="&#x141;" horiz-adv-x="1003" 
d="M39 0q-19 0 -19 25v10q0 22 25 28q50 9 81.5 37t31.5 66v440l-123 -80q-18 -12 -33 6l-18 29q-6 9 -4 18.5t10 14.5l168 111v620q0 38 -31.5 65.5t-81.5 36.5q-25 6 -25 29v10q0 25 19 25q43 0 113 -5t106 -5t108 5t115 5q19 0 19 -25v-10q0 -23 -17 -26q-53 -8 -87 -37
t-34 -68v-487l236 153q7 6 17 4.5t16 -10.5l18 -27q13 -20 -8 -34l-279 -183v-575q0 -39 32.5 -63.5t78.5 -24.5h66q192 0 276 54.5t111 205.5q3 24 22 24h17q7 0 12.5 -5t5.5 -13v-278q0 -40 -16.5 -53t-71.5 -13q-71 1 -205.5 3.5t-216.5 2.5q-131 0 -274.5 -3t-159.5 -3z
" />
    <glyph glyph-name="lslash" unicode="&#x142;" horiz-adv-x="448" 
d="M39 0q-19 0 -19 25v10q0 22 25 28q36 10 64 38.5t28 64.5v416l-102 -127q-18 -21 -35 -4l-27 20q-18 14 -4 35l168 209v622q0 81 -96 107q-14 3 -14 20v17q0 17 16 20q143 29 229 86q11 9 25 4l10 -4q15 -6 15 -22v-619l100 125q16 19 35 4l26 -20q18 -14 4 -35
l-165 -207v-647q0 -38 30.5 -67.5t69.5 -37.5q16 -3 16 -26v-10q0 -25 -18 -25q-32 0 -97 5t-96 5t-94 -5t-94 -5z" />
    <glyph glyph-name="Nacute" unicode="&#x143;" horiz-adv-x="1138" 
d="M39 0q-19 0 -19 25v10q0 23 17 26q47 8 82 37.5t35 67.5l8 1159q0 38 -36 67.5t-83 37.5q-16 3 -16 26v10q0 25 18 25q145 -9 289 0l575 -1028l6 864q0 38 -34.5 65.5t-104.5 37.5q-24 3 -24 26v10q0 25 18 25q34 0 97.5 -5t90.5 -5q29 0 79.5 5t72.5 5q18 0 18 -25v-10
q0 -23 -16 -26q-46 -8 -80.5 -37t-34.5 -66l-16 -1302q0 -11 -7.5 -18t-17.5 -7h-24q-23 0 -31 16l-663 1227l-2 -1077q0 -85 137 -105q24 -3 24 -26v-10q0 -25 -18 -25q-31 0 -94 5t-95 5q-25 0 -75.5 -5t-75.5 -5zM438 1632q-10 16 13 39q43 45 105.5 112.5t95 99.5
t55.5 48q40 28 75.5 26t57.5 -34q25 -34 16.5 -69t-47.5 -66q-83 -56 -328 -170q-27 -13 -37 4z" />
    <glyph glyph-name="nacute" unicode="&#x144;" horiz-adv-x="1001" 
d="M690 637q0 276 -176 276q-59 0 -112.5 -35t-79.5 -102v-610q0 -38 30.5 -67.5t69.5 -37.5q16 -3 16 -26v-10q0 -25 -18 -25q-32 0 -97 5t-96 5t-94 -5t-94 -5q-19 0 -19 25v10q0 22 25 28q36 10 64 38.5t28 64.5v592q0 81 -96 106q-14 3 -14 21v16q0 18 16 21
q62 12 123 47.5t98 72.5q9 9 31 2q18 -8 18 -24v-137q100 161 277 161q143 0 213.5 -90t70.5 -247v-541q0 -38 31 -67.5t70 -37.5q16 -3 16 -26v-10q0 -25 -18 -25q-32 0 -97 5t-96 5q-32 0 -94 -5t-94 -5q-19 0 -19 25v10q0 22 25 28q36 10 64 38.5t28 64.5v471zM371 1186
q-10 17 12 39q43 45 105.5 112.5t95 99.5t55.5 48q40 28 75.5 26t57.5 -34q25 -34 16.5 -69.5t-47.5 -66.5q-85 -57 -327 -170q-26 -13 -37 5z" />
    <glyph glyph-name="uni0145" unicode="&#x145;" horiz-adv-x="1138" 
d="M39 0q-19 0 -19 25v10q0 23 17 26q47 8 82 37.5t35 67.5l8 1159q0 38 -36 67.5t-83 37.5q-16 3 -16 26v10q0 25 18 25q145 -9 289 0l575 -1028l6 864q0 38 -34.5 65.5t-104.5 37.5q-24 3 -24 26v10q0 25 18 25q34 0 97.5 -5t90.5 -5q29 0 79.5 5t72.5 5q18 0 18 -25v-10
q0 -23 -16 -26q-46 -8 -80.5 -37t-34.5 -66l-16 -1302q0 -11 -7.5 -18t-17.5 -7h-24q-23 0 -31 16l-663 1227l-2 -1077q0 -85 137 -105q24 -3 24 -26v-10q0 -25 -18 -25q-31 0 -94 5t-95 5q-25 0 -75.5 -5t-75.5 -5zM285 -399l4 8q11 22 30 8q56 -37 123 -37q118 0 125 74
q-42 8 -66 42t-24 87q0 59 30 94t81 35q52 0 84.5 -41t32.5 -119q0 -37 -16 -76.5t-45.5 -75t-79.5 -58.5t-111 -23q-89 0 -152 45q-26 17 -16 37z" />
    <glyph glyph-name="uni0146" unicode="&#x146;" horiz-adv-x="1001" 
d="M690 637q0 276 -176 276q-59 0 -112.5 -35t-79.5 -102v-610q0 -38 30.5 -67.5t69.5 -37.5q16 -3 16 -26v-10q0 -25 -18 -25q-32 0 -97 5t-96 5t-94 -5t-94 -5q-19 0 -19 25v10q0 22 25 28q36 10 64 38.5t28 64.5v592q0 81 -96 106q-14 3 -14 21v16q0 18 16 21
q62 12 123 47.5t98 72.5q9 9 31 2q18 -8 18 -24v-137q100 161 277 161q143 0 213.5 -90t70.5 -247v-541q0 -38 31 -67.5t70 -37.5q16 -3 16 -26v-10q0 -25 -18 -25q-32 0 -97 5t-96 5q-32 0 -94 -5t-94 -5q-19 0 -19 25v10q0 22 25 28q36 10 64 38.5t28 64.5v471zM211 -399
l4 8q11 22 31 8q56 -37 123 -37q118 0 125 74q-42 8 -66.5 42t-24.5 87q0 59 30 94t81 35q52 0 84.5 -41t32.5 -119q0 -37 -16 -76.5t-45.5 -75t-79.5 -58.5t-111 -23q-89 0 -152 45q-26 17 -16 37z" />
    <glyph glyph-name="Ncaron" unicode="&#x147;" horiz-adv-x="1138" 
d="M39 0q-19 0 -19 25v10q0 23 17 26q47 8 82 37.5t35 67.5l8 1159q0 38 -36 67.5t-83 37.5q-16 3 -16 26v10q0 25 18 25q145 -9 289 0l575 -1028l6 864q0 38 -34.5 65.5t-104.5 37.5q-24 3 -24 26v10q0 25 18 25q34 0 97.5 -5t90.5 -5q29 0 79.5 5t72.5 5q18 0 18 -25v-10
q0 -23 -16 -26q-46 -8 -80.5 -37t-34.5 -66l-16 -1302q0 -11 -7.5 -18t-17.5 -7h-24q-23 0 -31 16l-663 1227l-2 -1077q0 -85 137 -105q24 -3 24 -26v-10q0 -25 -18 -25q-31 0 -94 5t-95 5q-25 0 -75.5 -5t-75.5 -5zM291 1876q-16 26 8 43l8 6q22 19 43 -6l174 -221l174 221
q21 25 43 6l9 -6q24 -17 8 -43l-189 -283q-13 -16 -28 -16h-33q-16 0 -29 16z" />
    <glyph glyph-name="ncaron" unicode="&#x148;" horiz-adv-x="1001" 
d="M690 637q0 276 -176 276q-59 0 -112.5 -35t-79.5 -102v-610q0 -38 30.5 -67.5t69.5 -37.5q16 -3 16 -26v-10q0 -25 -18 -25q-32 0 -97 5t-96 5t-94 -5t-94 -5q-19 0 -19 25v10q0 22 25 28q36 10 64 38.5t28 64.5v592q0 81 -96 106q-14 3 -14 21v16q0 18 16 21
q62 12 123 47.5t98 72.5q9 9 31 2q18 -8 18 -24v-137q100 161 277 161q143 0 213.5 -90t70.5 -247v-541q0 -38 31 -67.5t70 -37.5q16 -3 16 -26v-10q0 -25 -18 -25q-32 0 -97 5t-96 5q-32 0 -94 -5t-94 -5q-19 0 -19 25v10q0 22 25 28q36 10 64 38.5t28 64.5v471zM223 1430
q-16 26 8 43l9 6q22 19 43 -6l174 -222l174 222q21 25 43 6l8 -6q24 -17 8 -43l-188 -283q-14 -17 -29 -17h-33q-14 0 -28 17z" />
    <glyph glyph-name="Omacron" unicode="&#x14c;" horiz-adv-x="1193" 
d="M604 -31q-163 0 -291.5 98t-200 275t-71.5 403q0 360 149 564t410 204q93 0 177.5 -36.5t152.5 -104.5t118.5 -160t77.5 -209.5t27 -246.5q0 -371 -147.5 -579t-401.5 -208zM268 760q0 -323 105.5 -518t257.5 -195q134 0 214.5 180.5t80.5 491.5q0 326 -99 521.5
t-241 195.5q-145 0 -231.5 -177.5t-86.5 -498.5zM324 1638v33q0 10 5 17.5t13 7.5h512q16 0 16 -25v-33q0 -24 -16 -24h-512q-8 0 -13 7t-5 17z" />
    <glyph glyph-name="omacron" unicode="&#x14d;" horiz-adv-x="948" 
d="M479 -31q-199 0 -318.5 145.5t-119.5 387.5q0 246 119 394t317 148q196 0 313 -144.5t117 -383.5q0 -248 -116.5 -397.5t-311.5 -149.5zM197 1186v33q0 10 5 17t13 7h512q16 0 16 -24v-33q0 -25 -16 -25h-512q-8 0 -13 7.5t-5 17.5zM242 520q0 -231 66.5 -359t187.5 -128
q100 0 155.5 121t55.5 338q0 232 -63.5 360.5t-178.5 128.5q-106 0 -164.5 -121.5t-58.5 -339.5z" />
    <glyph glyph-name="Ohungarumlaut" unicode="&#x150;" horiz-adv-x="1193" 
d="M604 -31q-163 0 -291.5 98t-200 275t-71.5 403q0 360 149 564t410 204q93 0 177.5 -36.5t152.5 -104.5t118.5 -160t77.5 -209.5t27 -246.5q0 -371 -147.5 -579t-401.5 -208zM268 760q0 -323 105.5 -518t257.5 -195q134 0 214.5 180.5t80.5 491.5q0 326 -99 521.5
t-241 195.5q-145 0 -231.5 -177.5t-86.5 -498.5zM389 1606q-13 13 2 41q27 47 60 107.5t51.5 93.5t38.5 65t34 49q31 37 67 44t65 -19q33 -26 33 -62.5t-31 -75.5q-58 -67 -275 -245q-22 -22 -37 -7zM637 1602q-13 13 2 40q30 52 74.5 134t68 121.5t41.5 60.5
q31 37 66.5 43.5t64.5 -19.5q33 -26 33 -62t-31 -75q-64 -74 -274 -246q-22 -21 -37 -6z" />
    <glyph glyph-name="ohungarumlaut" unicode="&#x151;" horiz-adv-x="948" 
d="M479 -31q-199 0 -318.5 145.5t-119.5 387.5q0 246 119 394t317 148q196 0 313 -144.5t117 -383.5q0 -248 -116.5 -397.5t-311.5 -149.5zM242 520q0 -231 66.5 -359t187.5 -128q100 0 155.5 121t55.5 338q0 232 -63.5 360.5t-178.5 128.5q-106 0 -164.5 -121.5
t-58.5 -339.5zM262 1153q-13 13 2 41q26 45 60 107t52 94.5t38.5 64.5t34.5 49q31 37 66.5 44t64.5 -19q33 -26 33 -62t-31 -75q-61 -71 -275 -246q-21 -21 -37 -6zM510 1149q-13 13 2 41q27 47 60 107.5t51.5 93.5t38.5 65t34 49q31 37 66.5 44t64.5 -19q33 -26 33 -62
t-31 -75q-64 -74 -274 -246q-21 -21 -37 -6z" />
    <glyph glyph-name="OE" unicode="&#x152;" horiz-adv-x="1818" 
d="M604 -31q-163 0 -291.5 98t-200 275t-71.5 403q0 360 149 564t410 204q117 0 307 -14t357 -14q82 0 216.5 2.5t205.5 3.5q55 0 71.5 -13t16.5 -53v-278q0 -7 -6 -13t-13 -6h-16q-8 0 -15 7t-8 18q-27 151 -111 205.5t-276 54.5h-65q-46 0 -78.5 -24.5t-32.5 -63.5v-520
h231q74 0 121 42t54 128q3 18 26 18h10q25 0 25 -18q0 -38 -3 -103t-3 -104q0 -41 3 -105t3 -106q0 -18 -25 -18h-10q-23 0 -26 26q-20 162 -175 162h-231v-561q0 -39 32.5 -63.5t78.5 -24.5h90q192 0 276 54.5t111 205.5q3 24 22 24h17q8 0 13 -5t5 -13v-278
q0 -40 -16.5 -53t-71.5 -13q-61 1 -204.5 3.5t-241.5 2.5q-206 0 -396 -18.5t-264 -18.5zM268 760q0 -323 105.5 -518t257.5 -195q134 0 214.5 180.5t80.5 491.5q0 326 -99 521.5t-241 195.5q-145 0 -231.5 -177.5t-86.5 -498.5z" />
    <glyph glyph-name="oe" unicode="&#x153;" horiz-adv-x="1515" 
d="M479 -31q-199 0 -318.5 145.5t-119.5 387.5q0 246 119 394t317 148q213 0 330 -167q57 83 142.5 125t187.5 42q147 0 249.5 -101t102.5 -232q0 -54 -15.5 -69t-52.5 -15h-510q-2 -18 -2 -60q0 -225 88 -346t226 -121q129 0 221 115q16 19 33 6l8 -6q17 -13 8 -31
q-55 -103 -147.5 -159t-202.5 -56q-95 0 -181.5 48t-148.5 135q-56 -87 -142 -135t-192 -48zM242 520q0 -231 66.5 -359t187.5 -128q100 0 155.5 121t55.5 338q0 232 -63.5 360.5t-178.5 128.5q-106 0 -164.5 -121.5t-58.5 -339.5zM915 698h211q92 0 127 24.5t35 84.5
q0 70 -47 119t-115 49q-89 0 -141.5 -66.5t-69.5 -210.5z" />
    <glyph glyph-name="Racute" unicode="&#x154;" horiz-adv-x="1183" 
d="M39 0q-19 0 -19 25v10q0 22 25 28q50 9 81.5 37t31.5 66v1159q0 38 -31.5 65.5t-81.5 36.5q-25 6 -25 29v10q0 25 19 25q15 0 106.5 -2t169.5 -2q73 1 129 2t80.5 1.5t32.5 0.5q192 0 312 -110t120 -277q0 -304 -317 -381q40 -16 69.5 -42.5t62 -86.5t66.5 -160
q39 -114 77 -188.5t75 -111t66.5 -50.5t68.5 -18q17 -3 17 -27v-10q0 -25 -19 -25q-57 0 -123 -2t-96 -2q-82 0 -139.5 77t-126.5 290q-53 162 -121 248t-141 92l-46 4v-545q0 -39 34 -68t87 -37q17 -3 17 -26v-10q0 -25 -19 -25q-43 0 -115 5t-108 5t-106 -5t-113 -5z
M362 788q74 -14 160 -14q124 0 183 75.5t59 235.5q0 159 -66 243.5t-176 84.5h-49q-46 0 -78.5 -24.5t-32.5 -63.5v-537zM420 1632q-10 17 12 39q43 45 105.5 112.5t95 99.5t55.5 48q40 28 75.5 26t57.5 -34q53 -68 -30 -135q-83 -56 -328 -170q-27 -13 -37 4z" />
    <glyph glyph-name="racute" unicode="&#x155;" horiz-adv-x="727" 
d="M39 0q-19 0 -19 25v10q0 22 25 28q36 10 64 38.5t28 64.5v592q0 81 -96 106q-14 3 -14 21v16q0 18 16 21q62 12 123 47.5t98 72.5q9 9 31 2q18 -8 18 -24v-143q51 74 120.5 120.5t127.5 46.5q75 0 115.5 -42t40.5 -111q0 -50 -24 -77.5t-68 -27.5q-29 0 -49 10.5
t-32.5 25t-24.5 29.5t-31 25.5t-46 10.5q-78 0 -120 -111v-610q0 -38 30.5 -67.5t69.5 -37.5q16 -3 16 -26v-10q0 -25 -18 -25q-32 0 -97 5t-96 5t-94 -5t-94 -5zM264 1186q-10 17 12 39q43 45 105.5 112.5t95 99.5t55.5 48q40 28 76 26t58 -34q25 -34 16.5 -69.5
t-47.5 -66.5q-83 -56 -328 -170q-26 -13 -37 5z" />
    <glyph glyph-name="uni0156" unicode="&#x156;" horiz-adv-x="1183" 
d="M39 0q-19 0 -19 25v10q0 22 25 28q50 9 81.5 37t31.5 66v1159q0 38 -31.5 65.5t-81.5 36.5q-25 6 -25 29v10q0 25 19 25q15 0 106.5 -2t169.5 -2q73 1 129 2t80.5 1.5t32.5 0.5q192 0 312 -110t120 -277q0 -304 -317 -381q40 -16 69.5 -42.5t62 -86.5t66.5 -160
q39 -114 77 -188.5t75 -111t66.5 -50.5t68.5 -18q17 -3 17 -27v-10q0 -25 -19 -25q-57 0 -123 -2t-96 -2q-82 0 -139.5 77t-126.5 290q-53 162 -121 248t-141 92l-46 4v-545q0 -39 34 -68t87 -37q17 -3 17 -26v-10q0 -25 -19 -25q-43 0 -115 5t-108 5t-106 -5t-113 -5z
M301 -399l4 8q11 22 31 8q56 -37 123 -37q118 0 125 74q-42 8 -66 42t-24 87q0 59 29.5 94t80.5 35q52 0 84.5 -41t32.5 -119q0 -37 -16 -76.5t-45.5 -75t-79.5 -58.5t-111 -23q-89 0 -152 45q-26 17 -16 37zM362 788q74 -14 160 -14q124 0 183 75.5t59 235.5
q0 159 -66 243.5t-176 84.5h-49q-46 0 -78.5 -24.5t-32.5 -63.5v-537z" />
    <glyph glyph-name="uni0157" unicode="&#x157;" horiz-adv-x="727" 
d="M39 0q-19 0 -19 25v10q0 22 25 28q36 10 64 38.5t28 64.5v592q0 81 -96 106q-14 3 -14 21v16q0 18 16 21q62 12 123 47.5t98 72.5q9 9 31 2q18 -8 18 -24v-143q51 74 120.5 120.5t127.5 46.5q75 0 115.5 -42t40.5 -111q0 -50 -24 -77.5t-68 -27.5q-29 0 -49 10.5
t-32.5 25t-24.5 29.5t-31 25.5t-46 10.5q-78 0 -120 -111v-610q0 -38 30.5 -67.5t69.5 -37.5q16 -3 16 -26v-10q0 -25 -18 -25q-32 0 -97 5t-96 5t-94 -5t-94 -5zM-63 -389l4 8q11 22 30 8q56 -37 123 -37q118 0 125 74q-42 8 -66 42t-24 87q0 59 30 94t81 35q52 0 84 -40.5
t32 -119.5q0 -37 -16 -76.5t-45.5 -75t-79.5 -58.5t-111 -23q-88 0 -151 45q-26 17 -16 37z" />
    <glyph glyph-name="Rcaron" unicode="&#x158;" horiz-adv-x="1183" 
d="M39 0q-19 0 -19 25v10q0 22 25 28q50 9 81.5 37t31.5 66v1159q0 38 -31.5 65.5t-81.5 36.5q-25 6 -25 29v10q0 25 19 25q15 0 106.5 -2t169.5 -2q73 1 129 2t80.5 1.5t32.5 0.5q192 0 312 -110t120 -277q0 -304 -317 -381q40 -16 69.5 -42.5t62 -86.5t66.5 -160
q39 -114 77 -188.5t75 -111t66.5 -50.5t68.5 -18q17 -3 17 -27v-10q0 -25 -19 -25q-57 0 -123 -2t-96 -2q-82 0 -139.5 77t-126.5 290q-53 162 -121 248t-141 92l-46 4v-545q0 -39 34 -68t87 -37q17 -3 17 -26v-10q0 -25 -19 -25q-43 0 -115 5t-108 5t-106 -5t-113 -5z
M272 1876q-16 25 9 43l8 6q22 19 43 -6l174 -221l174 221q21 25 43 6l8 -6q24 -17 8 -43l-188 -283q-13 -16 -29 -16h-33q-15 0 -28 16zM362 788q74 -14 160 -14q124 0 183 75.5t59 235.5q0 159 -66 243.5t-176 84.5h-49q-46 0 -78.5 -24.5t-32.5 -63.5v-537z" />
    <glyph glyph-name="rcaron" unicode="&#x159;" horiz-adv-x="727" 
d="M39 0q-19 0 -19 25v10q0 22 25 28q36 10 64 38.5t28 64.5v592q0 81 -96 106q-14 3 -14 21v16q0 18 16 21q62 12 123 47.5t98 72.5q9 9 31 2q18 -8 18 -24v-143q51 74 120.5 120.5t127.5 46.5q75 0 115.5 -42t40.5 -111q0 -50 -24 -77.5t-68 -27.5q-29 0 -49 10.5
t-32.5 25t-24.5 29.5t-31 25.5t-46 10.5q-78 0 -120 -111v-610q0 -38 30.5 -67.5t69.5 -37.5q16 -3 16 -26v-10q0 -25 -18 -25q-32 0 -97 5t-96 5t-94 -5t-94 -5zM117 1430q-16 26 8 43l8 6q22 19 43 -6l174 -222l174 222q21 25 43 6l8 -6q25 -18 9 -43l-189 -283
q-14 -17 -28 -17h-33q-15 0 -29 17z" />
    <glyph glyph-name="Sacute" unicode="&#x15a;" horiz-adv-x="933" 
d="M467 -31q-115 0 -240.5 31t-158.5 61q-27 24 -27 66v324q0 10 7 17t18 7h14q23 0 29 -20q48 -204 149.5 -306t239.5 -102q104 0 166.5 71t62.5 169q0 72 -37 140t-96 123.5t-130.5 111t-143 111.5t-130.5 113.5t-96 129t-37 147.5q0 156 109 253t293 97q100 0 194 -25.5
t135 -60.5q27 -24 27 -65v-252q0 -11 -7 -18t-17 -7h-17q-23 0 -29 21q-25 88 -62.5 153.5t-81 103t-89 55.5t-94.5 18q-70 0 -119 -56.5t-49 -142.5q0 -64 36 -125t93.5 -112.5t127 -103t139.5 -108t127.5 -117t93.5 -139.5t36 -167q0 -180 -110 -288t-326 -108zM322 1655
q-10 17 12 39q43 45 105.5 112.5t95 99.5t55.5 48q40 28 75.5 26t57.5 -34q25 -34 16.5 -69.5t-47.5 -66.5q-85 -57 -327 -170q-26 -13 -37 5z" />
    <glyph glyph-name="sacute" unicode="&#x15b;" horiz-adv-x="733" 
d="M365 -31q-95 0 -180 23.5t-117 50.5q-17 15 -22 28t-5 40v231q0 8 5.5 13t12.5 5h17q18 0 24 -24q33 -123 120 -210t183 -87q64 0 103 44t39 110q0 62 -50.5 120.5t-122.5 107.5t-144 100t-122.5 119t-50.5 144q0 121 79 190.5t220 69.5q82 0 154.5 -17.5t101.5 -41.5
q17 -15 22 -27.5t5 -39.5v-181q0 -7 -5.5 -12.5t-13.5 -5.5h-16q-18 0 -24 24q-30 108 -98 170t-142 62q-55 0 -89 -31.5t-34 -87.5q0 -38 26.5 -75t68.5 -69.5t93 -67t101.5 -74.5t92.5 -83.5t68.5 -101.5t26.5 -123q0 -138 -80 -215.5t-247 -77.5zM217 1198q-10 17 12 39
q43 45 105.5 112.5t95 99.5t55.5 48q40 28 75.5 26t57.5 -34q53 -68 -30 -135q-83 -56 -328 -170q-27 -13 -37 4z" />
    <glyph glyph-name="Scedilla" unicode="&#x15e;" horiz-adv-x="933" 
d="M479 -496q-58 0 -107 22.5t-77 55.5q-15 14 4 33l8 8q17 17 33 -2q41 -35 113 -35q44 0 72 23.5t28 68.5q0 63 -38 90.5t-126 32.5l37 170q-109 4 -219 33t-139 57q-27 24 -27 66v324q0 10 7 17t18 7h14q23 0 29 -20q48 -204 149.5 -306t239.5 -102q104 0 166.5 71
t62.5 169q0 72 -37 140t-96 123.5t-130.5 111t-143 111.5t-130.5 113.5t-96 129t-37 147.5q0 156 109 253t293 97q100 0 194 -25.5t135 -60.5q27 -24 27 -65v-252q0 -11 -7 -18t-17 -7h-17q-23 0 -29 21q-25 88 -62.5 153.5t-81 103t-89 55.5t-94.5 18q-70 0 -119 -56.5
t-49 -142.5q0 -64 36 -125t93.5 -112.5t127 -103t139.5 -108t127.5 -117t93.5 -139.5t36 -167q0 -172 -100.5 -279t-298.5 -117l-25 -110q107 -15 154 -56.5t47 -121.5q0 -84 -51 -130.5t-150 -46.5z" />
    <glyph glyph-name="scedilla" unicode="&#x15f;" horiz-adv-x="733" 
d="M377 -485q-58 0 -107 22t-77 55q-15 14 4 33l8 8q17 17 33 -2q39 -34 112 -34q44 0 72.5 23.5t28.5 68.5q0 63 -38 90.5t-126 32.5l35 159q-82 4 -153.5 26t-100.5 46q-17 15 -22 28t-5 40v231q0 8 5.5 13t12.5 5h17q18 0 24 -24q33 -123 120 -210t183 -87q64 0 103 44
t39 110q0 62 -50.5 120.5t-122.5 107.5t-144 100t-122.5 119t-50.5 144q0 121 79 190.5t220 69.5q82 0 154.5 -17.5t101.5 -41.5q17 -15 22 -27.5t5 -39.5v-181q0 -7 -5.5 -12.5t-13.5 -5.5h-16q-18 0 -24 24q-30 108 -98 170t-142 62q-55 0 -89 -31.5t-34 -87.5
q0 -38 26.5 -75t68.5 -69.5t93 -67t101.5 -74.5t92.5 -83.5t68.5 -101.5t26.5 -123q0 -131 -71.5 -207.5t-221.5 -85.5l-22 -100q107 -15 154 -56.5t47 -121.5q0 -83 -51 -129.5t-150 -46.5z" />
    <glyph glyph-name="Scaron" unicode="&#x160;" horiz-adv-x="933" 
d="M467 -31q-115 0 -240.5 31t-158.5 61q-27 24 -27 66v324q0 10 7 17t18 7h14q23 0 29 -20q48 -204 149.5 -306t239.5 -102q104 0 166.5 71t62.5 169q0 72 -37 140t-96 123.5t-130.5 111t-143 111.5t-130.5 113.5t-96 129t-37 147.5q0 156 109 253t293 97q100 0 194 -25.5
t135 -60.5q27 -24 27 -65v-252q0 -11 -7 -18t-17 -7h-17q-23 0 -29 21q-25 88 -62.5 153.5t-81 103t-89 55.5t-94.5 18q-70 0 -119 -56.5t-49 -142.5q0 -64 36 -125t93.5 -112.5t127 -103t139.5 -108t127.5 -117t93.5 -139.5t36 -167q0 -180 -110 -288t-326 -108zM174 1898
q-17 26 8 44l8 6q22 19 43 -6l175 -222l174 222q21 25 43 6l8 -6q25 -18 8 -44l-188 -282q-14 -17 -29 -17h-33q-15 0 -29 17z" />
    <glyph glyph-name="scaron" unicode="&#x161;" horiz-adv-x="733" 
d="M365 -31q-95 0 -180 23.5t-117 50.5q-17 15 -22 28t-5 40v231q0 8 5.5 13t12.5 5h17q18 0 24 -24q33 -123 120 -210t183 -87q64 0 103 44t39 110q0 62 -50.5 120.5t-122.5 107.5t-144 100t-122.5 119t-50.5 144q0 121 79 190.5t220 69.5q82 0 154.5 -17.5t101.5 -41.5
q17 -15 22 -27.5t5 -39.5v-181q0 -7 -5.5 -12.5t-13.5 -5.5h-16q-18 0 -24 24q-30 108 -98 170t-142 62q-55 0 -89 -31.5t-34 -87.5q0 -38 26.5 -75t68.5 -69.5t93 -67t101.5 -74.5t92.5 -83.5t68.5 -101.5t26.5 -123q0 -138 -80 -215.5t-247 -77.5zM70 1442q-16 26 8 43
l8 6q22 19 43 -6l174 -221l174 221q21 25 43 6l8 -6q25 -18 9 -43l-189 -283q-13 -16 -29 -16h-32q-16 0 -29 16z" />
    <glyph glyph-name="uni0162" unicode="&#x162;" horiz-adv-x="1208" 
d="M383 0q-18 0 -18 25v10q0 22 24 28q50 9 81.5 37t31.5 66v1159q0 39 -33.5 63.5t-91.5 24.5h-45q-218 0 -264 -280q-1 -11 -8 -18t-15 -7h-16q-8 0 -13.5 5.5t-5.5 12.5l21 299q3 40 18 53t70 13q72 -1 189.5 -3.5t211.5 -2.5h174q93 0 208 2.5t188 3.5q55 0 70 -13
t18 -53l20 -299q0 -8 -5 -13t-13 -5h-17q-19 0 -22 25q-13 81 -41 138t-64.5 87t-73.5 42.5t-79 12.5h-45q-60 0 -95.5 -24t-35.5 -64v-1159q0 -39 33.5 -68t86.5 -37q17 -3 17 -26v-10q0 -25 -19 -25q-39 0 -182 10l-22 -100q107 -15 153.5 -56.5t46.5 -121.5
q0 -84 -50.5 -130t-149.5 -46q-58 0 -107.5 22t-77.5 55q-14 15 4 33l9 8q17 17 32 -2q39 -34 113 -34q44 0 72 23.5t28 68.5q0 63 -38 90.5t-126 32.5l35 157q-147 -10 -182 -10z" />
    <glyph glyph-name="uni0163" unicode="&#x163;" horiz-adv-x="569" 
d="M338 -31h-4l-19 -80q107 -15 154 -56.5t47 -121.5q0 -83 -51 -129.5t-150 -46.5q-58 0 -107 22.5t-77 55.5q-15 15 4 33l8 8q17 17 33 -2q41 -35 113 -35q44 0 72 23.5t28 68.5q0 63 -38 90.5t-126 32.5l33 150q-67 25 -102 101.5t-35 223.5v611q-20 0 -46 -2.5t-36 -2.5
q-29 0 -29 25v8q0 10 6.5 16t28.5 17q107 52 211 254q5 11 25 4l10 -4q14 -6 14 -23v-204q112 3 180 8q30 2 41 -4t11 -23v-33q0 -34 -50 -34q-22 0 -84 1t-98 1v-545q0 -160 25 -220.5t86 -60.5q44 0 94 33q22 15 35 0l8 -10q14 -17 0 -37q-85 -113 -215 -113z" />
    <glyph glyph-name="Tcaron" unicode="&#x164;" horiz-adv-x="1208" 
d="M383 0q-18 0 -18 25v10q0 22 24 28q50 9 81.5 37t31.5 66v1159q0 39 -33.5 63.5t-91.5 24.5h-45q-218 0 -264 -280q-1 -11 -8 -18t-15 -7h-16q-8 0 -13.5 5.5t-5.5 12.5l21 299q3 40 18 53t70 13q72 -1 189.5 -3.5t211.5 -2.5h174q93 0 208 2.5t188 3.5q55 0 70 -13
t18 -53l20 -299q0 -8 -5 -13t-13 -5h-17q-19 0 -22 25q-13 81 -41 138t-64.5 87t-73.5 42.5t-79 12.5h-45q-60 0 -95.5 -24t-35.5 -64v-1159q0 -39 33.5 -68t86.5 -37q17 -3 17 -26v-10q0 -25 -19 -25q-43 0 -115 5t-108 5t-106 -5t-113 -5zM324 1876q-16 26 8 43l8 6
q22 19 43 -6l174 -221l174 221q21 25 43 6l8 -6q25 -18 9 -43l-189 -283q-13 -16 -29 -16h-32q-16 0 -29 16z" />
    <glyph glyph-name="tcaron" unicode="&#x165;" horiz-adv-x="569" 
d="M338 -31q-105 0 -161 75.5t-56 262.5v611q-20 0 -46 -2.5t-36 -2.5q-29 0 -29 25v8q0 10 6.5 16t28.5 17q107 52 211 254q5 11 25 4l10 -4q14 -6 14 -23v-204q112 3 180 8q30 2 41 -4t11 -23v-33q0 -34 -50 -34q-22 0 -84 1t-98 1v-545q0 -160 25 -220.5t86 -60.5
q44 0 94 33q22 15 35 0l8 -10q14 -17 0 -37q-85 -113 -215 -113zM332 1448q1 49 24.5 76.5t61.5 25.5q42 0 65 -28t25 -78q-6 -94 -62 -365q-3 -16 -9.5 -22t-16.5 -4l-10 2q-11 0 -16.5 6t-8.5 26q-8 52 -20.5 121.5t-19 106t-10.5 74.5t-3 59z" />
    <glyph glyph-name="Umacron" unicode="&#x16a;" horiz-adv-x="1251" 
d="M645 -31q-105 0 -193 31.5t-157.5 95.5t-108.5 172t-39 252v805q0 38 -31 65.5t-81 36.5q-25 6 -25 29v10q0 25 19 25q43 0 113 -5t106 -5t108 5t115 5q18 0 18 -25v-10q0 -23 -16 -26q-53 -8 -87 -37t-34 -68v-770q0 -117 19 -206.5t50 -144t74.5 -89t87.5 -47.5t95 -13
q65 0 121.5 23.5t104.5 72.5t76 137t28 206v790q0 129 -129 146q-19 3 -19 26v10q0 25 19 25q35 0 92 -3t78 -3q23 0 78.5 3t95.5 3q18 0 18 -25v-10q0 -23 -27 -29q-120 -19 -120 -143v-754q0 -151 -34.5 -262t-97 -175t-141 -94t-176.5 -30zM352 1620v33q0 10 5.5 17
t13.5 7h512q16 0 16 -24v-33q0 -25 -16 -25h-512q-8 0 -13.5 7.5t-5.5 17.5z" />
    <glyph glyph-name="umacron" unicode="&#x16b;" horiz-adv-x="995" 
d="M422 -31q-143 0 -214 90.5t-71 247.5v551q0 38 -30.5 67.5t-69.5 37.5q-17 3 -17 26v10q0 25 19 25q20 0 70.5 -5t87.5 -5q14 0 48 2t56 2q11 0 17 -2.5t8.5 -10t3 -16.5t-0.5 -26.5t-2.5 -36t-3 -49t-1.5 -60.5v-440q0 -277 176 -277q59 0 112.5 35.5t79.5 102.5v620
q0 38 -30.5 67.5t-69.5 37.5q-17 3 -17 26v10q0 25 19 25q20 0 70.5 -5t87.5 -5q14 0 48 2t56 2q11 0 17 -2.5t8.5 -10t3 -16.5t-1 -26.5t-3 -36t-3 -48.5t-1.5 -61v-549q0 -63 22 -94t75 -45q14 -3 14 -20v-17q0 -17 -16 -20q-55 -6 -120.5 -31t-96.5 -55q-15 -12 -35 -4
q-19 8 -19 24v125q-100 -162 -276 -162zM190 1153v33q0 10 5.5 17t13.5 7h512q16 0 16 -24v-33q0 -25 -16 -25h-512q-8 0 -13.5 7.5t-5.5 17.5z" />
    <glyph glyph-name="Uring" unicode="&#x16e;" horiz-adv-x="1251" 
d="M645 -31q-105 0 -193 31.5t-157.5 95.5t-108.5 172t-39 252v805q0 38 -31 65.5t-81 36.5q-25 6 -25 29v10q0 25 19 25q43 0 113 -5t106 -5t108 5t115 5q18 0 18 -25v-10q0 -23 -16 -26q-53 -8 -87 -37t-34 -68v-770q0 -117 19 -206.5t50 -144t74.5 -89t87.5 -47.5t95 -13
q65 0 121.5 23.5t104.5 72.5t76 137t28 206v790q0 129 -129 146q-19 3 -19 26v10q0 25 19 25q35 0 92 -3t78 -3q23 0 78.5 3t95.5 3q18 0 18 -25v-10q0 -23 -27 -29q-120 -19 -120 -143v-754q0 -151 -34.5 -262t-97 -175t-141 -94t-176.5 -30zM426 1763q0 102 54.5 163
t146.5 61t146 -59.5t54 -158.5q0 -101 -53.5 -162t-144.5 -61q-92 0 -147.5 59.5t-55.5 157.5zM543 1774q0 -72 24.5 -116t65.5 -44q35 0 56.5 40t21.5 107q0 72 -24 116t-64 44q-37 0 -58.5 -39.5t-21.5 -107.5z" />
    <glyph glyph-name="uring" unicode="&#x16f;" horiz-adv-x="995" 
d="M422 -31q-143 0 -214 90.5t-71 247.5v551q0 38 -30.5 67.5t-69.5 37.5q-17 3 -17 26v10q0 25 19 25q20 0 70.5 -5t87.5 -5q14 0 48 2t56 2q11 0 17 -2.5t8.5 -10t3 -16.5t-0.5 -26.5t-2.5 -36t-3 -49t-1.5 -60.5v-440q0 -277 176 -277q59 0 112.5 35.5t79.5 102.5v620
q0 38 -30.5 67.5t-69.5 37.5q-17 3 -17 26v10q0 25 19 25q20 0 70.5 -5t87.5 -5q14 0 48 2t56 2q11 0 17 -2.5t8.5 -10t3 -16.5t-1 -26.5t-3 -36t-3 -48.5t-1.5 -61v-549q0 -63 22 -94t75 -45q14 -3 14 -20v-17q0 -17 -16 -20q-55 -6 -120.5 -31t-96.5 -55q-15 -12 -35 -4
q-19 8 -19 24v125q-100 -162 -276 -162zM264 1296q0 102 54.5 163t146.5 61t146.5 -59t54.5 -158q0 -101 -54 -162.5t-145 -61.5q-92 0 -147.5 59.5t-55.5 157.5zM381 1307q0 -72 24.5 -116t65.5 -44q35 0 56.5 40t21.5 107q0 72 -24 116t-64 44q-37 0 -58.5 -39.5
t-21.5 -107.5z" />
    <glyph glyph-name="Uhungarumlaut" unicode="&#x170;" horiz-adv-x="1251" 
d="M645 -31q-105 0 -193 31.5t-157.5 95.5t-108.5 172t-39 252v805q0 38 -31 65.5t-81 36.5q-25 6 -25 29v10q0 25 19 25q43 0 113 -5t106 -5t108 5t115 5q18 0 18 -25v-10q0 -23 -16 -26q-53 -8 -87 -37t-34 -68v-770q0 -117 19 -206.5t50 -144t74.5 -89t87.5 -47.5t95 -13
q65 0 121.5 23.5t104.5 72.5t76 137t28 206v790q0 129 -129 146q-19 3 -19 26v10q0 25 19 25q35 0 92 -3t78 -3q23 0 78.5 3t95.5 3q18 0 18 -25v-10q0 -23 -27 -29q-120 -19 -120 -143v-754q0 -151 -34.5 -262t-97 -175t-141 -94t-176.5 -30zM418 1587q-13 13 2 41
q30 52 74.5 134t68 121.5t41.5 60.5q31 37 66.5 43.5t64.5 -19.5q33 -26 33 -62t-31 -75q-64 -74 -274 -246q-21 -21 -37 -6zM666 1583q-13 13 2 41q27 47 60 107.5t51.5 93.5t38.5 65t34 49q31 37 66.5 44t64.5 -19q33 -26 33 -62t-31 -75q-64 -74 -274 -246
q-21 -21 -37 -6z" />
    <glyph glyph-name="uhungarumlaut" unicode="&#x171;" horiz-adv-x="995" 
d="M422 -31q-143 0 -214 90.5t-71 247.5v551q0 38 -30.5 67.5t-69.5 37.5q-17 3 -17 26v10q0 25 19 25q20 0 70.5 -5t87.5 -5q14 0 48 2t56 2q11 0 17 -2.5t8.5 -10t3 -16.5t-0.5 -26.5t-2.5 -36t-3 -49t-1.5 -60.5v-440q0 -277 176 -277q59 0 112.5 35.5t79.5 102.5v620
q0 38 -30.5 67.5t-69.5 37.5q-17 3 -17 26v10q0 25 19 25q20 0 70.5 -5t87.5 -5q14 0 48 2t56 2q11 0 17 -2.5t8.5 -10t3 -16.5t-1 -26.5t-3 -36t-3 -48.5t-1.5 -61v-549q0 -63 22 -94t75 -45q14 -3 14 -20v-17q0 -17 -16 -20q-55 -6 -120.5 -31t-96.5 -55q-15 -12 -35 -4
q-19 8 -19 24v125q-100 -162 -276 -162zM256 1120q-13 13 2 41q30 52 74.5 134t68 121.5t41.5 60.5q31 37 66.5 43.5t64.5 -19.5q33 -26 33 -62t-31 -75q-64 -74 -274 -246q-21 -22 -37 -6zM504 1116q-13 13 2 41q30 52 74.5 134t68 121.5t41.5 60.5q31 37 66.5 43.5
t64.5 -19.5q33 -26 33 -62t-31 -75q-64 -74 -274 -246q-21 -22 -37 -6z" />
    <glyph glyph-name="Uogonek" unicode="&#x172;" horiz-adv-x="1251" 
d="M645 -31q-105 0 -193 31.5t-157.5 95.5t-108.5 172t-39 252v805q0 38 -31 65.5t-81 36.5q-25 6 -25 29v10q0 25 19 25q43 0 113 -5t106 -5t108 5t115 5q18 0 18 -25v-10q0 -23 -16 -26q-53 -8 -87 -37t-34 -68v-770q0 -117 19 -206.5t50 -144t74.5 -89t87.5 -47.5t95 -13
q65 0 121.5 23.5t104.5 72.5t76 137t28 206v790q0 129 -129 146q-19 3 -19 26v10q0 25 19 25q35 0 92 -3t78 -3q23 0 78.5 3t95.5 3q18 0 18 -25v-10q0 -23 -27 -29q-120 -19 -120 -143v-754q0 -374 -209 -499q-8 -8 -49.5 -40t-90.5 -81q-59 -59 -59 -129q0 -48 30.5 -83.5
t78.5 -35.5q45 0 86 35q15 15 28 2l11 -10q15 -15 4 -29q-66 -109 -191 -109q-82 0 -133 50.5t-51 124.5q0 88 84 172q20 22 96 77q-41 -6 -84 -6z" />
    <glyph glyph-name="uogonek" unicode="&#x173;" horiz-adv-x="995" 
d="M422 -31q-143 0 -214 90.5t-71 247.5v551q0 38 -30.5 67.5t-69.5 37.5q-17 3 -17 26v10q0 25 19 25q20 0 70.5 -5t87.5 -5q14 0 48 2t56 2q11 0 17 -2.5t8.5 -10t3 -16.5t-0.5 -26.5t-2.5 -36t-3 -49t-1.5 -60.5v-440q0 -277 176 -277q59 0 112.5 35.5t79.5 102.5v620
q0 38 -30.5 67.5t-69.5 37.5q-17 3 -17 26v10q0 25 19 25q20 0 70.5 -5t87.5 -5q14 0 48 2t56 2q11 0 17 -2.5t8.5 -10t3 -16.5t-1 -26.5t-3 -36t-3 -48.5t-1.5 -61v-549q0 -63 22 -94t75 -45q14 -3 14 -20v-17q0 -17 -16 -20q-10 -10 -53.5 -43t-96.5 -86q-59 -59 -59 -129
q0 -48 30 -83.5t78 -35.5q45 0 86 35q16 16 29 2l10 -11q15 -15 4 -28q-66 -109 -190 -109q-82 0 -133 50t-51 124q0 88 84 172q16 17 38 34.5t51.5 38.5t47.5 36q-57 -22 -92 -53q-15 -12 -35 -4q-19 8 -19 24v125q-100 -162 -276 -162z" />
    <glyph glyph-name="Wcircumflex" unicode="&#x174;" horiz-adv-x="1732" 
d="M584 0q-22 0 -29 20l-371 1305q-26 90 -157 102q-17 3 -17 27v10q0 25 19 25q54 0 137.5 -5t122.5 -5q46 0 138.5 5t139.5 5q34 0 129.5 -5t124.5 -5q38 0 125 5t160 5q18 0 18 -25v-10q0 -24 -24 -27q-85 -11 -120.5 -38t-23.5 -74l250 -936l250 924q15 56 -16.5 86.5
t-118.5 40.5q-25 3 -25 26v10q0 25 19 25q53 0 124 -5t87 -5q22 0 80.5 5t97.5 5q18 0 18 -25v-10q0 -23 -16 -26q-67 -8 -107 -37t-57 -88l-356 -1285q-7 -20 -29 -20h-22q-20 0 -27 20l-234 777l-241 -777q-7 -20 -27 -20h-22zM424 1315l235 -957l177 570l-119 397
q-14 46 -54 74t-100 28q-79 0 -115 -31.5t-24 -80.5zM653 1634l189 283q13 16 28 16h33q16 0 29 -16l188 -283q16 -26 -8 -43l-8 -6q-22 -19 -43 6l-174 221l-174 -221q-21 -25 -43 -6l-8 6q-25 18 -9 43z" />
    <glyph glyph-name="wcircumflex" unicode="&#x175;" horiz-adv-x="1419" 
d="M944 0q-19 0 -26 20l-205 613l-197 -613q-7 -20 -27 -20h-16q-20 0 -27 20l-284 826q-17 50 -51.5 79.5t-73.5 37.5q-17 3 -17 26v10q0 25 19 25q29 0 101.5 -5t117.5 -5q37 0 101.5 5t93.5 5q18 0 18 -25v-10q0 -22 -25 -28q-99 -27 -65 -125l160 -517l131 435l-29 84
q-19 52 -51.5 84.5t-63.5 40.5q-16 3 -16 26v10q0 25 18 25q21 0 91 -5t116 -5q36 0 103 5t104 5q19 0 19 -25v-10q0 -22 -25 -28q-107 -24 -82 -113l158 -531l172 525q14 49 -10.5 79t-69.5 40q-25 6 -25 28v10q0 25 19 25q14 0 68 -5t85 -5q27 0 76 5t62 5q18 0 18 -25
v-10q0 -23 -16 -26q-39 -8 -73.5 -40t-53.5 -85l-279 -818q-7 -20 -26 -20h-17zM502 1167l188 283q13 16 29 16h33q15 0 28 -16l189 -283q16 -26 -8 -43l-9 -6q-22 -19 -43 6l-174 222l-174 -222q-21 -25 -43 -6l-8 6q-24 17 -8 43z" />
    <glyph glyph-name="Ycircumflex" unicode="&#x176;" horiz-adv-x="1214" 
d="M391 0q-18 0 -18 25v10q0 22 24 28q50 9 81.5 37t31.5 66v299l-326 862q-34 91 -157 103q-17 3 -17 26v10q0 25 19 25q54 0 137.5 -5t122.5 -5q38 0 121.5 5t156.5 5q19 0 19 -25v-10q0 -23 -25 -26q-86 -11 -123 -39t-20 -74l258 -711l250 697q19 54 -14 85.5t-121 41.5
q-25 3 -25 26v10q0 25 18 25q50 0 122 -5t102 -5q22 0 80.5 5t97.5 5q18 0 18 -25v-10q0 -23 -16 -26q-126 -15 -160 -107l-313 -852v-305q0 -39 34 -68t87 -37q16 -3 16 -26v-10q0 -25 -18 -25q-43 0 -115.5 5t-108.5 5t-106 -5t-113 -5zM430 1634l188 283q13 16 29 16h33
q16 0 29 -16l188 -283q16 -26 -8 -43l-8 -6q-22 -19 -43 6l-174 221l-175 -221q-21 -25 -43 -6l-8 6q-24 17 -8 43z" />
    <glyph glyph-name="ycircumflex" unicode="&#x177;" horiz-adv-x="989" 
d="M133 -449q-77 0 -125.5 36t-48.5 89q0 43 24.5 71t65.5 28q26 0 49.5 -13t39 -29t39 -29t50.5 -13q122 0 222 297l4 12l-308 858q-16 44 -48.5 70.5t-69.5 34.5q-17 3 -17 26v10q0 25 19 25q27 0 93.5 -5t119.5 -5q52 0 115.5 5t97.5 5q18 0 18 -25v-10q0 -22 -24 -28
q-47 -10 -71 -42t-7 -83l182 -560l201 560q19 51 -6 83t-72 42q-25 6 -25 28v10q0 25 19 25q14 0 68 -5t85 -5q27 0 76 5t62 5q18 0 18 -25v-10q0 -23 -16 -26q-38 -8 -71 -36t-50 -75l-273 -760q-192 -541 -436 -541zM307 1167l189 283q13 16 28 16h33q16 0 29 -16
l188 -283q16 -26 -8 -43l-8 -6q-22 -19 -43 6l-174 222l-174 -222q-21 -25 -43 -6l-9 6q-24 17 -8 43z" />
    <glyph glyph-name="Ydieresis" unicode="&#x178;" horiz-adv-x="1214" 
d="M391 0q-18 0 -18 25v10q0 22 24 28q50 9 81.5 37t31.5 66v299l-326 862q-34 91 -157 103q-17 3 -17 26v10q0 25 19 25q54 0 137.5 -5t122.5 -5q38 0 121.5 5t156.5 5q19 0 19 -25v-10q0 -23 -25 -26q-86 -11 -123 -39t-20 -74l258 -711l250 697q19 54 -14 85.5t-121 41.5
q-25 3 -25 26v10q0 25 18 25q50 0 122 -5t102 -5q22 0 80.5 5t97.5 5q18 0 18 -25v-10q0 -23 -16 -26q-126 -15 -160 -107l-313 -852v-305q0 -39 34 -68t87 -37q16 -3 16 -26v-10q0 -25 -18 -25q-43 0 -115.5 5t-108.5 5t-106 -5t-113 -5zM410 1782q0 56 30 90.5t80 34.5
q49 0 79 -34.5t30 -90.5q0 -57 -30 -92t-79 -35q-51 0 -80.5 35t-29.5 92zM696 1782q0 56 30 90.5t81 34.5q49 0 78.5 -34.5t29.5 -90.5q0 -57 -29.5 -92t-78.5 -35q-51 0 -81 35t-30 92z" />
    <glyph glyph-name="Zacute" unicode="&#x179;" horiz-adv-x="995" 
d="M98 0q-47 0 -47 27v16q0 18 6 33l643 1343h-133q-192 0 -276 -54.5t-111 -205.5q-3 -24 -22 -24h-17q-7 0 -12.5 5.5t-5.5 12.5v279q0 39 16 52t72 13q516 -6 678 -6q47 0 47 -27v-16q0 -18 -6 -33l-643 -1343h213q192 0 276 54.5t111 205.5q3 24 22 24h17q8 0 13 -5
t5 -13v-279q0 -39 -16 -52t-72 -13zM397 1632q-10 16 13 39q43 45 105.5 112.5t95 99.5t55.5 48q40 28 75.5 26t57.5 -34q25 -34 16.5 -69t-47.5 -66q-83 -56 -328 -170q-27 -13 -37 4z" />
    <glyph glyph-name="zacute" unicode="&#x17a;" horiz-adv-x="819" 
d="M672 -6q-528 6 -592 6q-19 0 -29 7.5t-10 17.5v8q0 9 27 61l475 858h-68q-127 0 -202.5 -43t-112.5 -135q-9 -24 -27 -24h-14q-8 0 -13.5 5.5t-5.5 12.5l15 197q3 41 17.5 53t68.5 12q58 -1 174 -2.5t203 -2.5t143 -1q39 0 39 -25v-10q0 -16 -3.5 -26t-21.5 -41
l-481 -850h61q189 0 276.5 48t127.5 171q9 24 26 24h17q16 0 16 -18l-20 -238q-3 -41 -17.5 -53t-68.5 -12zM313 1165q-10 16 13 39q43 45 105.5 112.5t95 99.5t55.5 48q40 28 75.5 26t57.5 -34q25 -34 16.5 -69t-47.5 -66q-83 -56 -328 -170q-27 -13 -37 4z" />
    <glyph glyph-name="Zdotaccent" unicode="&#x17b;" horiz-adv-x="995" 
d="M98 0q-47 0 -47 27v16q0 18 6 33l643 1343h-133q-192 0 -276 -54.5t-111 -205.5q-3 -24 -22 -24h-17q-7 0 -12.5 5.5t-5.5 12.5v279q0 39 16 52t72 13q516 -6 678 -6q47 0 47 -27v-16q0 -18 -6 -33l-643 -1343h213q192 0 276 54.5t111 205.5q3 24 22 24h17q8 0 13 -5
t5 -13v-279q0 -39 -16 -52t-72 -13zM424 1782q0 56 30 90.5t81 34.5q49 0 78.5 -34.5t29.5 -90.5q0 -57 -29.5 -92t-78.5 -35q-51 0 -81 35t-30 92z" />
    <glyph glyph-name="zdotaccent" unicode="&#x17c;" horiz-adv-x="819" 
d="M672 -6q-528 6 -592 6q-19 0 -29 7.5t-10 17.5v8q0 9 27 61l475 858h-68q-127 0 -202.5 -43t-112.5 -135q-9 -24 -27 -24h-14q-8 0 -13.5 5.5t-5.5 12.5l15 197q3 41 17.5 53t68.5 12q58 -1 174 -2.5t203 -2.5t143 -1q39 0 39 -25v-10q0 -16 -3.5 -26t-21.5 -41
l-481 -850h61q189 0 276.5 48t127.5 171q9 24 26 24h17q16 0 16 -18l-20 -238q-3 -41 -17.5 -53t-68.5 -12zM340 1315q0 56 30 90.5t81 34.5q49 0 78.5 -34.5t29.5 -90.5q0 -57 -29.5 -92t-78.5 -35q-51 0 -81 35t-30 92z" />
    <glyph glyph-name="Zcaron" unicode="&#x17d;" horiz-adv-x="995" 
d="M98 0q-47 0 -47 27v16q0 18 6 33l643 1343h-133q-192 0 -276 -54.5t-111 -205.5q-3 -24 -22 -24h-17q-7 0 -12.5 5.5t-5.5 12.5v279q0 39 16 52t72 13q516 -6 678 -6q47 0 47 -27v-16q0 -18 -6 -33l-643 -1343h213q192 0 276 54.5t111 205.5q3 24 22 24h17q8 0 13 -5
t5 -13v-279q0 -39 -16 -52t-72 -13zM250 1876q-16 26 8 43l8 6q22 19 43 -6l174 -221l174 221q21 25 43 6l9 -6q24 -17 8 -43l-189 -283q-13 -16 -28 -16h-33q-16 0 -29 16z" />
    <glyph glyph-name="zcaron" unicode="&#x17e;" horiz-adv-x="819" 
d="M672 -6q-528 6 -592 6q-19 0 -29 7.5t-10 17.5v8q0 9 27 61l475 858h-68q-127 0 -202.5 -43t-112.5 -135q-9 -24 -27 -24h-14q-8 0 -13.5 5.5t-5.5 12.5l15 197q3 41 17.5 53t68.5 12q58 -1 174 -2.5t203 -2.5t143 -1q39 0 39 -25v-10q0 -16 -3.5 -26t-21.5 -41
l-481 -850h61q189 0 276.5 48t127.5 171q9 24 26 24h17q16 0 16 -18l-20 -238q-3 -41 -17.5 -53t-68.5 -12zM166 1409q-16 26 8 43l8 6q22 19 43 -6l174 -221l174 221q21 25 43 6l9 -6q24 -17 8 -43l-189 -283q-13 -16 -28 -16h-33q-16 0 -29 16z" />
    <glyph glyph-name="uni0237" unicode="&#x237;" horiz-adv-x="458" 
d="M20 -414q-100 0 -152 51t-52 115q0 47 28.5 87t69.5 40q40 0 62 -21t29.5 -50.5t13.5 -59.5t20 -51t41 -21q29 0 44.5 23.5t23.5 91.5t8 197v749q0 82 -97 107q-14 3 -14 20v17q0 14 16 20q50 16 119 57.5t111 83.5q9 9 31 2q18 -8 18 -24v-928q0 -236 -83 -371
t-237 -135z" />
    <glyph glyph-name="circumflex" unicode="&#x2c6;" horiz-adv-x="561" 
d="M55 1616q-24 17 -8 43l189 283q13 16 28 16h33q16 0 29 -16l188 -283q16 -26 -8 -43l-8 -6q-22 -19 -43 6l-174 221l-175 -221q-21 -25 -43 -6z" />
    <glyph glyph-name="caron" unicode="&#x2c7;" horiz-adv-x="561" 
d="M63 1950q22 19 43 -6l175 -222l174 222q21 25 43 6l8 -6q24 -17 8 -43l-188 -283q-13 -16 -29 -16h-33q-15 0 -28 16l-189 283q-16 26 8 43z" />
    <glyph glyph-name="breve" unicode="&#x2d8;" horiz-adv-x="577" 
d="M291 1587q-114 0 -178 57t-72 152q-3 31 29 31h55q30 0 33 -31q14 -141 137 -141q115 0 125 141q3 31 33 31h55q32 0 29 -27q-8 -96 -69.5 -154.5t-176.5 -58.5z" />
    <glyph glyph-name="dotaccent" unicode="&#x2d9;" horiz-adv-x="301" 
d="M152 1679q-51 0 -81 35t-30 92q0 56 30 90.5t81 34.5q49 0 78.5 -34.5t29.5 -90.5q0 -57 -29.5 -92t-78.5 -35z" />
    <glyph glyph-name="ring" unicode="&#x2da;" horiz-adv-x="483" 
d="M244 1571q-92 0 -147.5 59.5t-55.5 157.5q0 102 54.5 162.5t146.5 60.5t146 -59t54 -158q0 -101 -53.5 -162t-144.5 -61zM158 1798q0 -72 24.5 -116t65.5 -44q35 0 56.5 40.5t21.5 107.5q0 72 -24 116t-64 44q-37 0 -58.5 -40t-21.5 -108z" />
    <glyph glyph-name="ogonek" unicode="&#x2db;" horiz-adv-x="460" 
d="M225 -436q-82 0 -133 50t-51 124q0 88 84 172q25 26 97.5 78.5t115.5 95.5l49 -33q-10 -10 -53 -43t-96 -86q-60 -60 -60 -129q0 -48 30.5 -83.5t78.5 -35.5q45 0 86 35q15 15 28 2l11 -10q15 -15 4 -29q-66 -108 -191 -108z" />
    <glyph glyph-name="tilde" unicode="&#x2dc;" horiz-adv-x="604" 
d="M412 1622q-50 0 -124.5 36t-111.5 36q-56 0 -84 -54q-9 -16 -22 -8l-19 13q-13 7 -10 20q15 56 57 88.5t99 32.5q43 0 111 -37t108 -37q66 0 94 55q11 17 25 7l18 -13q13 -6 10 -22q-14 -58 -55 -87.5t-96 -29.5z" />
    <glyph glyph-name="hungarumlaut" unicode="&#x2dd;" horiz-adv-x="688" 
d="M94 1610q-22 -22 -37 -6l-8 8q-13 13 2 41q26 45 60 107t52 94.5t38.5 64.5t34.5 49q31 37 66.5 44t64.5 -19q33 -26 33 -62.5t-31 -75.5q-58 -67 -275 -245zM297 1608q-13 13 2 41q27 47 60 107.5t51.5 93.5t38.5 65t34 49q31 37 66.5 44t64.5 -19q33 -26 33 -62.5
t-31 -75.5q-61 -70 -274 -245q-22 -22 -37 -7z" />
    <glyph glyph-name="gravecomb" unicode="&#x300;" 
d="M418 1642q-245 114 -328 170q-39 31 -47.5 66.5t16.5 69.5q22 32 58 34t76 -26q23 -16 55.5 -48t95 -99.5t105.5 -112.5q22 -22 12 -39l-6 -10q-11 -18 -37 -5z" />
    <glyph glyph-name="acutecomb" unicode="&#x301;" 
d="M88 1642q-26 -13 -37 5l-6 10q-10 17 12 39q43 45 105.5 112.5t95 99.5t55.5 48q40 28 75.5 26t57.5 -34q26 -34 17.5 -69.5t-47.5 -66.5q-83 -56 -328 -170z" />
    <glyph glyph-name="uni0302" unicode="&#x302;" 
d="M55 1616q-24 17 -8 43l189 283q13 16 28 16h33q16 0 29 -16l188 -283q16 -26 -8 -43l-8 -6q-22 -19 -43 6l-174 221l-175 -221q-21 -25 -43 -6z" />
    <glyph glyph-name="tildecomb" unicode="&#x303;" 
d="M412 1622q-50 0 -124.5 36t-111.5 36q-56 0 -84 -54q-9 -16 -22 -8l-19 13q-13 7 -10 20q15 56 57 88.5t99 32.5q43 0 111 -37t108 -37q66 0 94 55q11 17 25 7l18 -13q13 -6 10 -22q-14 -58 -55 -87.5t-96 -29.5z" />
    <glyph glyph-name="uni0304" unicode="&#x304;" 
d="M59 1620q-8 0 -13 7.5t-5 17.5v32q0 10 5 17.5t13 7.5h512q17 0 17 -25v-32q0 -25 -17 -25h-512z" />
    <glyph glyph-name="uni0306" unicode="&#x306;" 
d="M291 1587q-114 0 -178 57t-72 152q-3 31 29 31h55q30 0 33 -31q14 -141 137 -141q115 0 125 141q3 31 33 31h55q32 0 29 -27q-8 -96 -69.5 -154.5t-176.5 -58.5z" />
    <glyph glyph-name="uni0307" unicode="&#x307;" 
d="M152 1679q-51 0 -81 35t-30 92q0 56 30 90.5t81 34.5q49 0 78.5 -34.5t29.5 -90.5q0 -57 -29.5 -92t-78.5 -35z" />
    <glyph glyph-name="uni0308" unicode="&#x308;" 
d="M152 1679q-51 0 -81 35t-30 92q0 56 30 90.5t81 34.5q49 0 78.5 -34.5t29.5 -90.5q0 -57 -29.5 -92t-78.5 -35zM328 1806q0 56 30 90.5t80 34.5q49 0 79 -34.5t30 -90.5q0 -57 -30 -92t-79 -35q-51 0 -80.5 35t-29.5 92z" />
    <glyph glyph-name="uni030A" unicode="&#x30a;" 
d="M244 1571q-92 0 -147.5 59.5t-55.5 157.5q0 102 54.5 162.5t146.5 60.5t146 -59t54 -158q0 -101 -53.5 -162t-144.5 -61zM158 1798q0 -72 24.5 -116t65.5 -44q35 0 56.5 40.5t21.5 107.5q0 72 -24 116t-64 44q-37 0 -58.5 -40t-21.5 -108z" />
    <glyph glyph-name="uni030B" unicode="&#x30b;" 
d="M94 1610q-22 -22 -37 -6l-8 8q-13 13 2 41q26 45 60 107t52 94.5t38.5 64.5t34.5 49q31 37 66.5 44t64.5 -19q33 -26 33 -62.5t-31 -75.5q-58 -67 -275 -245zM297 1608q-13 13 2 41q27 47 60 107.5t51.5 93.5t38.5 65t34 49q31 37 66.5 44t64.5 -19q33 -26 33 -62.5
t-31 -75.5q-61 -70 -274 -245q-22 -22 -37 -7z" />
    <glyph glyph-name="uni030C" unicode="&#x30c;" 
d="M63 1950q22 19 43 -6l175 -222l174 222q21 25 43 6l8 -6q24 -17 8 -43l-188 -283q-13 -16 -29 -16h-33q-15 0 -28 16l-189 283q-16 26 8 43z" />
    <glyph glyph-name="uni0312" unicode="&#x312;" 
d="M238 2154q16 13 30 -6l13 -18q5 -14 0.5 -23t-21.5 -26q-42 -41 -67.5 -105.5t-22.5 -122.5q46 -4 72 -38.5t26 -90.5q0 -59 -29.5 -93t-80.5 -34q-52 0 -84.5 40t-32.5 118q0 103 46 208.5t151 190.5z" />
    <glyph glyph-name="uni0326" unicode="&#x326;" 
d="M211 -481q-89 0 -152 45q-26 17 -16 37l4 8q11 22 31 8q56 -37 123 -37q118 0 125 74q-42 8 -66 42t-24 87q0 59 29.5 94t80.5 35q52 0 84.5 -41t32.5 -119q0 -37 -16 -76.5t-45.5 -75t-79.5 -58.5t-111 -23z" />
    <glyph glyph-name="uni0327" unicode="&#x327;" 
d="M231 -465q-58 0 -107 22.5t-77 55.5q-15 15 4 33l8 8q17 17 33 -2q41 -35 113 -35q44 0 72 23.5t28 68.5q0 63 -38 90.5t-126 32.5l43 195l76 -9l-29 -129q107 -15 154 -56.5t47 -121.5q0 -83 -51 -129.5t-150 -46.5z" />
    <glyph glyph-name="uni0328" unicode="&#x328;" 
d="M225 -436q-82 0 -133 50t-51 124q0 88 84 172q25 26 97.5 78.5t115.5 95.5l49 -33q-10 -10 -53 -43t-96 -86q-60 -60 -60 -129q0 -48 30.5 -83.5t78.5 -35.5q45 0 86 35q15 15 28 2l11 -10q15 -15 4 -29q-66 -108 -191 -108z" />
    <glyph glyph-name="Wgrave" unicode="&#x1e80;" horiz-adv-x="1732" 
d="M584 0q-22 0 -29 20l-371 1305q-26 90 -157 102q-17 3 -17 27v10q0 25 19 25q54 0 137.5 -5t122.5 -5q46 0 138.5 5t139.5 5q34 0 129.5 -5t124.5 -5q38 0 125 5t160 5q18 0 18 -25v-10q0 -24 -24 -27q-85 -11 -120.5 -38t-23.5 -74l250 -936l250 924q15 56 -16.5 86.5
t-118.5 40.5q-25 3 -25 26v10q0 25 19 25q53 0 124 -5t87 -5q22 0 80.5 5t97.5 5q18 0 18 -25v-10q0 -23 -16 -26q-67 -8 -107 -37t-57 -88l-356 -1285q-7 -20 -29 -20h-22q-20 0 -27 20l-234 777l-241 -777q-7 -20 -27 -20h-22zM424 1315l235 -957l177 570l-119 397
q-14 46 -54 74t-100 28q-79 0 -115 -31.5t-24 -80.5zM633 1923q22 32 57.5 34t75.5 -26q23 -16 55.5 -48t95 -99.5t105.5 -112.5q22 -22 12 -39l-6 -10q-10 -17 -37 -4q-242 113 -327 170q-39 31 -47.5 66t16.5 69z" />
    <glyph glyph-name="wgrave" unicode="&#x1e81;" horiz-adv-x="1419" 
d="M944 0q-19 0 -26 20l-205 613l-197 -613q-7 -20 -27 -20h-16q-20 0 -27 20l-284 826q-17 50 -51.5 79.5t-73.5 37.5q-17 3 -17 26v10q0 25 19 25q29 0 101.5 -5t117.5 -5q37 0 101.5 5t93.5 5q18 0 18 -25v-10q0 -22 -25 -28q-99 -27 -65 -125l160 -517l131 435l-29 84
q-19 52 -51.5 84.5t-63.5 40.5q-16 3 -16 26v10q0 25 18 25q21 0 91 -5t116 -5q36 0 103 5t104 5q19 0 19 -25v-10q0 -22 -25 -28q-107 -24 -82 -113l158 -531l172 525q14 49 -10.5 79t-69.5 40q-25 6 -25 28v10q0 25 19 25q14 0 68 -5t85 -5q27 0 76 5t62 5q18 0 18 -25
v-10q0 -23 -16 -26q-39 -8 -73.5 -40t-53.5 -85l-279 -818q-7 -20 -26 -20h-17zM481 1456q22 32 57.5 34t75.5 -26q23 -16 55.5 -48t95 -99.5t105.5 -112.5q23 -23 13 -39l-6 -10q-10 -17 -37 -4q-245 114 -328 170q-39 31 -47.5 66t16.5 69z" />
    <glyph glyph-name="Wacute" unicode="&#x1e82;" horiz-adv-x="1732" 
d="M584 0q-22 0 -29 20l-371 1305q-26 90 -157 102q-17 3 -17 27v10q0 25 19 25q54 0 137.5 -5t122.5 -5q46 0 138.5 5t139.5 5q34 0 129.5 -5t124.5 -5q38 0 125 5t160 5q18 0 18 -25v-10q0 -24 -24 -27q-85 -11 -120.5 -38t-23.5 -74l250 -936l250 924q15 56 -16.5 86.5
t-118.5 40.5q-25 3 -25 26v10q0 25 19 25q53 0 124 -5t87 -5q22 0 80.5 5t97.5 5q18 0 18 -25v-10q0 -23 -16 -26q-67 -8 -107 -37t-57 -88l-356 -1285q-7 -20 -29 -20h-22q-20 0 -27 20l-234 777l-241 -777q-7 -20 -27 -20h-22zM424 1315l235 -957l177 570l-119 397
q-14 46 -54 74t-100 28q-79 0 -115 -31.5t-24 -80.5zM750 1632q-10 17 12 39q43 45 105.5 112.5t95 99.5t55.5 48q40 28 75.5 26t57.5 -34q25 -34 16.5 -69t-47.5 -66q-85 -57 -327 -170q-27 -13 -37 4z" />
    <glyph glyph-name="wacute" unicode="&#x1e83;" horiz-adv-x="1419" 
d="M944 0q-19 0 -26 20l-205 613l-197 -613q-7 -20 -27 -20h-16q-20 0 -27 20l-284 826q-17 50 -51.5 79.5t-73.5 37.5q-17 3 -17 26v10q0 25 19 25q29 0 101.5 -5t117.5 -5q37 0 101.5 5t93.5 5q18 0 18 -25v-10q0 -22 -25 -28q-99 -27 -65 -125l160 -517l131 435l-29 84
q-19 52 -51.5 84.5t-63.5 40.5q-16 3 -16 26v10q0 25 18 25q21 0 91 -5t116 -5q36 0 103 5t104 5q19 0 19 -25v-10q0 -22 -25 -28q-107 -24 -82 -113l158 -531l172 525q14 49 -10.5 79t-69.5 40q-25 6 -25 28v10q0 25 19 25q14 0 68 -5t85 -5q27 0 76 5t62 5q18 0 18 -25
v-10q0 -23 -16 -26q-39 -8 -73.5 -40t-53.5 -85l-279 -818q-7 -20 -26 -20h-17zM598 1165q-10 17 12 39q43 45 105.5 112.5t95 99.5t55.5 48q40 28 75.5 26t57.5 -34q53 -68 -30 -135q-83 -56 -328 -170q-27 -13 -37 4z" />
    <glyph glyph-name="Wdieresis" unicode="&#x1e84;" horiz-adv-x="1732" 
d="M584 0q-22 0 -29 20l-371 1305q-26 90 -157 102q-17 3 -17 27v10q0 25 19 25q54 0 137.5 -5t122.5 -5q46 0 138.5 5t139.5 5q34 0 129.5 -5t124.5 -5q38 0 125 5t160 5q18 0 18 -25v-10q0 -24 -24 -27q-85 -11 -120.5 -38t-23.5 -74l250 -936l250 924q15 56 -16.5 86.5
t-118.5 40.5q-25 3 -25 26v10q0 25 19 25q53 0 124 -5t87 -5q22 0 80.5 5t97.5 5q18 0 18 -25v-10q0 -23 -16 -26q-67 -8 -107 -37t-57 -88l-356 -1285q-7 -20 -29 -20h-22q-20 0 -27 20l-234 777l-241 -777q-7 -20 -27 -20h-22zM424 1315l235 -957l177 570l-119 397
q-14 46 -54 74t-100 28q-79 0 -115 -31.5t-24 -80.5zM633 1782q0 56 30 90.5t80 34.5q49 0 79 -34.5t30 -90.5q0 -57 -30 -92t-79 -35q-51 0 -80.5 35t-29.5 92zM920 1782q0 56 30 90.5t80 34.5q49 0 79 -34.5t30 -90.5q0 -57 -30 -92t-79 -35q-51 0 -80.5 35t-29.5 92z" />
    <glyph glyph-name="wdieresis" unicode="&#x1e85;" horiz-adv-x="1419" 
d="M944 0q-19 0 -26 20l-205 613l-197 -613q-7 -20 -27 -20h-16q-20 0 -27 20l-284 826q-17 50 -51.5 79.5t-73.5 37.5q-17 3 -17 26v10q0 25 19 25q29 0 101.5 -5t117.5 -5q37 0 101.5 5t93.5 5q18 0 18 -25v-10q0 -22 -25 -28q-99 -27 -65 -125l160 -517l131 435l-29 84
q-19 52 -51.5 84.5t-63.5 40.5q-16 3 -16 26v10q0 25 18 25q21 0 91 -5t116 -5q36 0 103 5t104 5q19 0 19 -25v-10q0 -22 -25 -28q-107 -24 -82 -113l158 -531l172 525q14 49 -10.5 79t-69.5 40q-25 6 -25 28v10q0 25 19 25q14 0 68 -5t85 -5q27 0 76 5t62 5q18 0 18 -25
v-10q0 -23 -16 -26q-39 -8 -73.5 -40t-53.5 -85l-279 -818q-7 -20 -26 -20h-17zM481 1315q0 56 30 90.5t81 34.5q49 0 78.5 -34.5t29.5 -90.5q0 -57 -29.5 -92t-78.5 -35q-51 0 -81 35t-30 92zM768 1315q0 56 30 90.5t81 34.5q49 0 78.5 -34.5t29.5 -90.5q0 -57 -29.5 -92
t-78.5 -35q-51 0 -81 35t-30 92z" />
    <glyph glyph-name="uni1E9E" unicode="&#x1e9e;" horiz-adv-x="1191" 
d="M39 0q-19 0 -19 25v10q0 22 25 28q50 9 81.5 37t31.5 66v758q-22 0 -48 -3t-36 -3q-17 0 -23 6t-6 18v16q0 26 35 33q64 17 78 45v97q0 90 44 178t109.5 149.5t143.5 99t145 37.5q89 0 164 -33.5t120 -85t64 -114.5t4 -121q-129 -92 -177 -166.5t-48 -161.5
q0 -45 23.5 -86.5t61 -77t82.5 -72t90 -77.5t82.5 -87t61 -107.5t23.5 -131.5q0 -133 -95 -220t-235 -87q-134 0 -229.5 57t-95.5 160q0 44 28.5 69.5t73.5 25.5q47 0 71.5 -26t32.5 -63.5t16.5 -75t36 -63.5t79.5 -26q65 0 107 49t42 127q0 49 -24.5 97t-63.5 89.5
t-86 83.5t-94 86t-86 90t-63.5 102.5t-24.5 116.5q0 83 71 177t187 169q30 117 -39.5 205t-181.5 88q-115 0 -165.5 -74.5t-50.5 -236.5v-1030q0 -39 34 -68t87 -37q17 -3 17 -26v-10q0 -25 -19 -25q-43 0 -115 5t-108 5t-106 -5t-113 -5z" />
    <glyph glyph-name="Ygrave" unicode="&#x1ef2;" horiz-adv-x="1214" 
d="M391 0q-18 0 -18 25v10q0 22 24 28q50 9 81.5 37t31.5 66v299l-326 862q-34 91 -157 103q-17 3 -17 26v10q0 25 19 25q54 0 137.5 -5t122.5 -5q38 0 121.5 5t156.5 5q19 0 19 -25v-10q0 -23 -25 -26q-86 -11 -123 -39t-20 -74l258 -711l250 697q19 54 -14 85.5t-121 41.5
q-25 3 -25 26v10q0 25 18 25q50 0 122 -5t102 -5q22 0 80.5 5t97.5 5q18 0 18 -25v-10q0 -23 -16 -26q-126 -15 -160 -107l-313 -852v-305q0 -39 34 -68t87 -37q16 -3 16 -26v-10q0 -25 -18 -25q-43 0 -115.5 5t-108.5 5t-106 -5t-113 -5zM410 1923q22 32 57.5 34t75.5 -26
q23 -16 55.5 -48t95 -99.5t105.5 -112.5q22 -22 12 -39l-6 -10q-10 -17 -37 -4q-245 114 -328 170q-83 67 -30 135z" />
    <glyph glyph-name="ygrave" unicode="&#x1ef3;" horiz-adv-x="989" 
d="M133 -449q-77 0 -125.5 36t-48.5 89q0 43 24.5 71t65.5 28q26 0 49.5 -13t39 -29t39 -29t50.5 -13q122 0 222 297l4 12l-308 858q-16 44 -48.5 70.5t-69.5 34.5q-17 3 -17 26v10q0 25 19 25q27 0 93.5 -5t119.5 -5q52 0 115.5 5t97.5 5q18 0 18 -25v-10q0 -22 -24 -28
q-47 -10 -71 -42t-7 -83l182 -560l201 560q19 51 -6 83t-72 42q-25 6 -25 28v10q0 25 19 25q14 0 68 -5t85 -5q27 0 76 5t62 5q18 0 18 -25v-10q0 -23 -16 -26q-38 -8 -71 -36t-50 -75l-273 -760q-192 -541 -436 -541zM287 1456q22 32 57.5 34t75.5 -26q23 -16 55.5 -48
t95 -99.5t105.5 -112.5q22 -22 12 -39l-6 -10q-10 -17 -37 -4q-245 114 -328 170q-83 67 -30 135z" />
    <glyph glyph-name="endash" unicode="&#x2013;" horiz-adv-x="978" 
d="M45 727q-11 0 -18 7.5t-7 17.5v32q0 10 7 17.5t18 7.5h889q10 0 17 -7t7 -18v-32q0 -11 -7 -18t-17 -7h-889z" />
    <glyph glyph-name="emdash" unicode="&#x2014;" horiz-adv-x="1593" 
d="M45 727q-11 0 -18 7.5t-7 17.5v32q0 10 7 17.5t18 7.5h1503q10 0 17.5 -7.5t7.5 -17.5v-32q0 -10 -7.5 -17.5t-17.5 -7.5h-1503z" />
    <glyph glyph-name="quoteleft" unicode="&#x2018;" horiz-adv-x="329" 
d="M231 1628q17 14 31 -6l12 -18q12 -18 -20 -50q-42 -41 -67.5 -105.5t-22.5 -121.5q46 -4 72 -38.5t26 -90.5q0 -59 -29.5 -93t-80.5 -34q-52 0 -84.5 40t-32.5 118q0 103 45.5 208.5t150.5 190.5z" />
    <glyph glyph-name="quoteright" unicode="&#x2019;" horiz-adv-x="329" 
d="M98 1067q-16 -13 -30 6l-13 19q-5 14 -0.5 23t21.5 26q42 41 67.5 105.5t22.5 121.5q-46 4 -72 38.5t-26 90.5q0 59 29.5 93t80.5 34q52 0 84.5 -40t32.5 -118q0 -103 -46 -208.5t-151 -190.5z" />
    <glyph glyph-name="quotesinglbase" unicode="&#x201a;" horiz-adv-x="325" 
d="M78 -326q-17 -13 -31 7l-12 18q-6 14 -1.5 23t21.5 26q42 41 67.5 105.5t22.5 121.5q-46 4 -72 38.5t-26 90.5q0 58 30 92.5t81 34.5q52 0 84 -39.5t32 -117.5q0 -103 -45.5 -209t-150.5 -191z" />
    <glyph glyph-name="quotedblleft" unicode="&#x201c;" horiz-adv-x="595" 
d="M231 1628q17 14 31 -6l12 -18q12 -18 -20 -50q-42 -41 -67.5 -105.5t-22.5 -121.5q46 -4 72 -38.5t26 -90.5q0 -59 -29.5 -93t-80.5 -34q-52 0 -84.5 40t-32.5 118q0 103 45.5 208.5t150.5 190.5zM301 1229q0 103 46 208.5t151 190.5q16 13 30 -6l13 -18q11 -18 -21 -50
q-42 -41 -67.5 -105.5t-22.5 -121.5q46 -4 72 -38.5t26 -90.5q0 -59 -29.5 -93t-80.5 -34q-52 0 -84.5 40t-32.5 118z" />
    <glyph glyph-name="quotedblright" unicode="&#x201d;" horiz-adv-x="595" 
d="M365 1067q-17 -14 -31 6l-12 19q-6 14 -1.5 23t21.5 26q42 41 67.5 105.5t22.5 121.5q-46 4 -72 38.5t-26 90.5q0 59 29.5 93t80.5 34q52 0 84.5 -40t32.5 -118q0 -103 -45.5 -208.5t-150.5 -190.5zM55 1092q-5 14 -0.5 23t21.5 26q42 41 67.5 105.5t22.5 121.5
q-46 4 -72 38.5t-26 90.5q0 59 29.5 93t80.5 34q52 0 84.5 -40t32.5 -118q0 -103 -46 -208.5t-151 -190.5q-16 -13 -30 6z" />
    <glyph glyph-name="quotedblbase" unicode="&#x201e;" horiz-adv-x="591" 
d="M344 -326q-17 -13 -31 7l-12 18q-5 14 -0.5 23t21.5 26q42 41 67.5 105.5t22.5 121.5q-46 5 -72.5 39.5t-26.5 89.5q0 58 30 92.5t81 34.5q52 0 84.5 -39.5t32.5 -117.5q0 -103 -46 -209t-151 -191zM35 -301q-6 14 -1.5 23t21.5 26q42 41 67.5 105.5t22.5 121.5
q-46 4 -72 38.5t-26 90.5q0 58 30 92.5t81 34.5q52 0 84 -39.5t32 -117.5q0 -103 -45.5 -209t-150.5 -191q-17 -13 -31 7z" />
    <glyph glyph-name="dagger" unicode="&#x2020;" horiz-adv-x="636" 
d="M319 829q-61 0 -61 74q0 44 21 157.5t22 203.5q-41 -7 -102.5 -25t-83.5 -18q-74 0 -74 61q0 59 74 59q16 0 42.5 -6.5t68 -18t75.5 -18.5q-6 34 -17.5 83t-18.5 83t-7 52q0 73 61 73q60 0 60 -73q0 -17 -6 -48.5t-19 -88.5t-18 -81q34 7 75.5 18.5t68 18t42.5 6.5
q74 0 74 -59q0 -61 -74 -61q-22 0 -83.5 18t-102.5 25q3 -86 23 -201t20 -160q0 -74 -60 -74z" />
    <glyph glyph-name="bullet" unicode="&#x2022;" horiz-adv-x="501" 
d="M252 487q-92 0 -146.5 63.5t-54.5 168.5q0 102 55 165.5t146 63.5q90 0 144.5 -63.5t54.5 -165.5q0 -105 -54.5 -168.5t-144.5 -63.5z" />
    <glyph glyph-name="ellipsis" unicode="&#x2026;" horiz-adv-x="1058" 
d="M530 -20q-51 0 -80.5 34.5t-29.5 91.5q0 56 30 90.5t80 34.5q49 0 79 -34.5t30 -90.5q0 -57 -30 -91.5t-79 -34.5zM51 106q0 56 30 90.5t81 34.5q49 0 78.5 -34.5t29.5 -90.5q0 -57 -29.5 -91.5t-78.5 -34.5q-51 0 -81 34.5t-30 91.5zM788 106q0 56 30 90.5t81 34.5
q49 0 79 -34.5t30 -90.5q0 -57 -30 -91.5t-79 -34.5q-51 0 -81 34.5t-30 91.5z" />
    <glyph glyph-name="guilsinglleft" unicode="&#x2039;" horiz-adv-x="755" 
d="M98 475q-16 11 -16 29v33q0 17 16 28l506 314q21 14 35 -7l8 -12q14 -21 -6 -35l-434 -305l434 -305q19 -16 6 -35l-8 -12q-14 -20 -35 -6z" />
    <glyph glyph-name="guilsinglright" unicode="&#x203a;" horiz-adv-x="755" 
d="M152 162q-21 -14 -35 6l-8 12q-13 19 6 35l434 305l-434 305q-20 14 -6 35l8 12q14 21 35 7l505 -314q17 -11 17 -28v-33q0 -18 -17 -29z" />
    <glyph glyph-name="Euro" unicode="&#x20ac;" horiz-adv-x="1019" 
d="M596 -31q-219 0 -364 153t-181 447h-88q-10 0 -17 7t-7 18v33q0 11 6.5 17.5t17.5 6.5h82q-4 70 -4 109q0 51 2 76h-80q-11 0 -17.5 7t-6.5 17v33q0 11 7 18t17 7h86q33 286 175.5 440.5t350.5 154.5q86 0 191 -26.5t143 -50.5q29 -18 29 -60v-270q0 -10 -7 -17.5
t-18 -7.5h-14q-23 0 -29 21q-95 334 -319 334q-115 0 -193.5 -133.5t-87.5 -384.5h418q10 0 17.5 -7t7.5 -18v-33q0 -10 -7 -17t-18 -7h-420q0 -100 6 -185h414q11 0 18 -7t7 -17v-33q0 -10 -7.5 -17.5t-17.5 -7.5h-409q46 -522 292 -522q118 0 203.5 76.5t136.5 257.5
q6 20 29 20h14q11 0 18 -7t7 -17v-271q0 -41 -29 -59q-39 -25 -147 -51.5t-207 -26.5z" />
    <glyph glyph-name="trademark" unicode="&#x2122;" horiz-adv-x="1050" 
d="M160 895q-8 0 -8 10v4q0 11 10 11q45 10 45 41v464q0 15 -13 25t-36 10h-19q-89 0 -106 -112q0 -11 -8 -11h-7q-8 0 -8 9l8 118q2 16 7.5 21.5t27.5 5.5q38 0 83.5 -1t78.5 -1h70q32 0 75.5 1t81.5 1q22 0 27.5 -5.5t7.5 -21.5l8 -118q0 -9 -8 -9h-6q-8 0 -8 11
q-10 61 -39 86.5t-66 25.5h-16q-24 0 -38.5 -10t-14.5 -25v-464q0 -15 13.5 -26.5t35.5 -14.5q6 0 6 -11v-4q0 -10 -8 -10q-17 0 -45.5 2t-42.5 2q-15 0 -43 -2t-45 -2zM494 905v4q0 11 6 11q19 3 33 14.5t14 26.5l16 464q1 14 -13 26t-34 15q-6 3 -6 11v4q0 10 8 10
q64 -3 129 0l121 -406l129 406q61 -3 125 0q6 0 6 -10v-4q0 -8 -6 -11q-20 -3 -34 -15t-13 -26l12 -464q0 -15 14 -26.5t33 -14.5q6 0 6 -11v-4q0 -10 -8 -10q-14 0 -42 2t-42 2q-15 0 -44 -2t-48 -2q-8 0 -8 10v4q0 11 10 11q47 9 47 41l-10 413l-137 -430q-4 -8 -10 -8
h-13q-6 0 -10 8l-131 428l-14 -411q0 -33 55 -41q10 0 10 -11v-4q0 -10 -8 -10q-12 0 -37 2t-39 2q-10 0 -29.5 -2t-29.5 -2q-8 0 -8 10z" />
    <glyph glyph-name="minus" unicode="&#x2212;" horiz-adv-x="856" 
d="M66 596q-10 0 -17.5 7t-7.5 18v32q0 11 7.5 18t17.5 7h725q10 0 17 -7t7 -18v-32q0 -11 -7 -18t-17 -7h-725z" />
    <glyph glyph-name="approxequal" unicode="&#x2248;" horiz-adv-x="727" 
d="M535 434q-81 0 -186.5 36t-172.5 36q-57 0 -84 -53q-10 -16 -22 -9l-19 13q-14 7 -8 20q13 55 55 88t99 33q73 0 172.5 -37t169.5 -37q65 0 94 56q11 16 24 6l19 -13q13 -7 8 -22q-13 -58 -53.5 -87.5t-95.5 -29.5zM43 723q13 55 55 88t99 33q73 0 172.5 -37t169.5 -37
q66 0 94 55q11 16 24 6l19 -12q13 -7 8 -22q-13 -58 -53.5 -87.5t-95.5 -29.5q-81 0 -186.5 36t-172.5 36q-56 0 -84 -54q-9 -16 -22 -8l-19 12q-15 7 -8 21z" />
    <glyph glyph-name="notequal" unicode="&#x2260;" horiz-adv-x="856" 
d="M66 727q-10 0 -17.5 7.5t-7.5 17.5v32q0 10 7.5 17.5t17.5 7.5h432l100 149q6 9 16 11t17 -4l28 -19q20 -13 7 -33l-70 -104h195q10 0 17 -7t7 -18v-32q0 -11 -7 -18t-17 -7h-250l-125 -184h375q10 0 17 -7t7 -18v-33q0 -11 -6.5 -17.5t-17.5 -6.5h-431l-100 -150
q-15 -19 -35 -6l-26 19q-20 13 -6 34l69 103h-196q-11 0 -18 7t-7 17v33q0 10 7.5 17.5t17.5 7.5h251l125 184h-376z" />
    <glyph glyph-name="lessequal" unicode="&#x2264;" horiz-adv-x="811" 
d="M115 594q-17 8 -17 29v32q0 21 17 29l526 272q9 5 20 3.5t15 -9.5l12 -22q5 -9 2.5 -21t-12.5 -18l-477 -250l477 -250q9 -4 12 -17t-2 -22l-12 -22q-4 -8 -15 -9.5t-20 3.5zM82 150v32q0 10 5 17.5t13 7.5h588q9 0 15 -7t6 -18v-32q0 -11 -6 -18t-15 -7h-588
q-8 0 -13 7.5t-5 17.5z" />
    <glyph glyph-name="greaterequal" unicode="&#x2265;" horiz-adv-x="811" 
d="M170 322q-9 -5 -20 -3.5t-15 9.5l-12 22q-5 9 -2 22t12 17l477 250l-477 250q-10 6 -12.5 18t2.5 21l12 22q4 8 15 9.5t20 -3.5l526 -272q17 -8 17 -29v-32q0 -21 -17 -29zM102 150v32q0 11 6 18t15 7h588q8 0 13 -7.5t5 -17.5v-32q0 -10 -5 -17.5t-13 -7.5h-588
q-9 0 -15 7t-6 18z" />
    <glyph glyph-name="uni004A0301" horiz-adv-x="763" 
d="M240 -31q-112 0 -171 62t-59 135q0 53 31.5 93t79.5 40q44 0 69 -25.5t33.5 -62.5t14.5 -74t22 -62.5t47 -25.5q94 0 94 240v1036q0 40 -38 67.5t-115 37.5q-25 3 -25 26v10q0 25 19 25q69 0 149 -5t111 -5q36 0 108 5t115 5q18 0 18 -25v-10q0 -23 -16 -26
q-53 -8 -87 -37t-34 -68v-934q0 -115 -41.5 -209.5t-126 -153.5t-198.5 -59zM360 1642q-10 16 13 39q45 46 106.5 112.5t94 99.5t55.5 49q40 28 75.5 25.5t57.5 -34.5q25 -34 16.5 -69t-47.5 -66q-83 -56 -328 -170q-26 -13 -36 4z" />
    <glyph glyph-name="uni006A0301" horiz-adv-x="458" 
d="M20 -414q-100 0 -152 51t-52 115q0 47 28.5 87t69.5 40q40 0 62 -21t29.5 -50.5t13.5 -59.5t20 -51t41 -21q29 0 44.5 23.5t23.5 91.5t8 197v749q0 82 -97 107q-14 3 -14 20v17q0 14 16 20q50 16 119 57.5t111 83.5q9 9 31 2q18 -8 18 -24v-928q0 -236 -83 -371
t-237 -135zM98 1165q-10 16 13 39q43 45 105.5 112.5t95 99.5t55.5 48q40 28 75.5 26t57.5 -34q25 -34 16.5 -69t-47.5 -66q-83 -56 -328 -170q-27 -13 -37 4z" />
    <glyph glyph-name="ampersand.001" horiz-adv-x="1241" 
d="M1020 -20q-103 0 -242 159q-134 -170 -338 -170q-188 0 -304 123t-116 314q0 130 68 235t207 199q-127 221 -127 364q0 138 89.5 223.5t227.5 85.5q151 0 231.5 -75.5t80.5 -200.5q0 -101 -63.5 -178.5t-231.5 -173.5q34 -53 127 -183q33 -45 70 -99t80.5 -117.5
t66.5 -96.5q24 63 39 131q16 74 -14 120.5t-115 53.5q-19 3 -19 27v10q0 25 19 25q38 0 103 -3t104 -3q41 0 105 3t106 3q18 0 18 -25v-10q0 -24 -27 -27q-84 -10 -135 -58t-69 -126q-20 -98 -64 -195q68 -90 115 -137t78 -47q35 0 71 33q12 12 27 4l18 -10q15 -9 6 -29
q-67 -149 -192 -149zM217 434q0 -174 72.5 -267t191.5 -93q149 0 248 127q-55 71 -157.5 221.5t-114.5 167.5q-73 102 -123 184q-117 -130 -117 -340zM360 1257q0 -132 107 -313q84 68 115.5 129t31.5 160q0 96 -38 149.5t-93 53.5q-49 0 -86 -48t-37 -131z" />
    <glyph glyph-name="uni030C.alt" 
d="M158 1434q-3 -16 -10 -22.5t-17 -4.5l-10 2q-10 0 -16 6.5t-9 26.5q-8 52 -20.5 121t-19 106t-10.5 74.5t-3 58.5q1 49 24.5 77t61.5 26q42 0 65 -28.5t25 -78.5q-7 -100 -61 -364z" />
    </font>
</defs>
</svg>
