<?xml version="1.0" standalone="no"?>
<!DOCTYPE svg PUBLIC "-//W3C//DTD SVG 1.1//EN" "http://www.w3.org/Graphics/SVG/1.1/DTD/svg11.dtd" >
<svg xmlns="http://www.w3.org/2000/svg" xmlns:xlink="http://www.w3.org/1999/xlink" version="1.1">
<metadata>
Created by FontForge 20201107 at Wed Jun 22 17:46:27 2022
 By 
Jen Wagner LLC 2022
</metadata>
<defs>
<font id="PerfectlyNineties-RegularItalic" horiz-adv-x="0" >
  <font-face 
    font-family="Perfectly Nineties"
    font-weight="400"
    font-style="italic"
    font-stretch="normal"
    units-per-em="1000"
    panose-1="0 0 0 0 0 0 0 0 0 0"
    ascent="800"
    descent="-200"
    x-height="508"
    cap-height="728"
    bbox="-246 -260 959.667 1100"
    underline-thickness="50"
    underline-position="-125"
    slope="-17"
    unicode-range="U+0020-2265"
  />
<missing-glyph horiz-adv-x="680" 
d="M558 -260h-432v1360h432v-1360zM453 -166v45h-139l95 64h44v45h-226v-45h95l-95 -64v-45h226zM453 19v153h-226v-153h226zM453 254v154h-136v-76h46v31h45v-64h-136v109h-45v-154h226zM453 438v136h-45v-90h-181v-46h226zM363 515v95h90v45h-226v-45h90v-50h-90v-45h136z
M453 692v46h-90v95h-136v-141h226zM453 869v45h-90v50h90v45h-225v-45h89v-50h-90v-45h226zM272 128h136v-64h-136v64zM272 787h45v-49h-45v49z" />
    <glyph glyph-name="f_i.liga" unicode="fi" horiz-adv-x="529" 
d="M-245 -153q0 26 20 48t47 22q14 0 20.5 -7t13.5 -23q8 -20 19 -30.5t36 -10.5q20 0 39.5 22t47.5 93.5t65 210.5l76 283q-13 1 -26 -0.5t-19 -1.5q-8 0 -9.5 2.5t0.5 9.5l1 4q3 11 21 15q15 4 28.5 11t17.5 13l12 45q18 66 67 118t112.5 80.5t120.5 28.5q87 0 87 -48
q0 -26 -20 -48t-47 -22q-13 0 -19.5 6t-14.5 20q-10 20 -24.5 30.5t-48.5 10.5q-37 0 -65.5 -32t-50.5 -113l-24 -88l69 1q14 0 18.5 -3.5t1.5 -11.5l-4 -11q-4 -10 -10 -13.5t-19 -3.5l-67 1l-67 -252q-108 -404 -318 -404q-87 0 -87 48zM387 359q14 35 14 56q0 16 -10 16
q-12 0 -32.5 -20t-45.5 -58q-6 -9 -14 -3l-6 4q-7 6 -2 14q47 70 95 105t83 35q37 0 37 -38q0 -26 -16 -68l-101 -268q-14 -35 -14 -56q0 -16 10 -16q12 0 32.5 20.5t45.5 57.5q6 9 14 3l6 -4q7 -6 2 -14q-47 -70 -95 -105t-83 -35q-37 0 -37 38q0 26 16 68z" />
    <glyph glyph-name="f_l.liga" unicode="fl" horiz-adv-x="533" 
d="M-245 -153q0 26 20 48t47 22q14 0 20.5 -7t13.5 -23q8 -20 19 -30.5t36 -10.5q20 0 39.5 22t47.5 93.5t65 210.5l76 283q-13 1 -26 -0.5t-19 -1.5q-8 0 -9.5 2.5t0.5 9.5l1 4q3 11 21 15q15 4 28.5 11t17.5 13l12 45q18 67 60.5 118.5t98 80t111.5 28.5q66 0 82 -28
q30 11 50 23q7 4 12 2l4 -2q6 -2 4 -11l-192 -630q-12 -39 -12 -57q0 -17 9 -17q11 0 31 21t46 59q6 9 14 3l6 -4q3 -1 3 -6q0 -8 -10 -21q-45 -64 -90 -95.5t-79 -31.5q-18 0 -26 8.5t-8 26.5q0 26 15 72l170 555q3 9 3 18q0 29 -26.5 49t-65.5 20q-35 0 -63 -34t-50 -116
l-24 -88l69 1q14 0 18.5 -3.5t1.5 -11.5l-4 -11q-4 -10 -10 -13.5t-19 -3.5l-67 1l-67 -252q-108 -404 -318 -404q-87 0 -87 48z" />
    <glyph glyph-name=".notdef" horiz-adv-x="680" 
d="M558 -260h-432v1360h432v-1360zM453 -166v45h-139l95 64h44v45h-226v-45h95l-95 -64v-45h226zM453 19v153h-226v-153h226zM453 254v154h-136v-76h46v31h45v-64h-136v109h-45v-154h226zM453 438v136h-45v-90h-181v-46h226zM363 515v95h90v45h-226v-45h90v-50h-90v-45h136z
M453 692v46h-90v95h-136v-141h226zM453 869v45h-90v50h90v45h-225v-45h89v-50h-90v-45h226zM272 128h136v-64h-136v64zM272 787h45v-49h-45v49z" />
    <glyph glyph-name=".null" 
 />
    <glyph glyph-name="nonmarkingreturn" horiz-adv-x="333" 
 />
    <glyph glyph-name="space" unicode=" " horiz-adv-x="200" 
 />
    <glyph glyph-name="space" unicode="&#xa0;" horiz-adv-x="200" 
 />
    <glyph glyph-name="exclam" unicode="!" horiz-adv-x="146" 
d="M45 213l104 462q15 63 69 63q20 0 31 -10t11 -27q0 -14 -8 -35l-174 -453q-4 -12 -16 -12h-8q-12 0 -9 12zM-10 100q18 18 40 18q16 -1 25 -12t9 -30q0 -11 -3 -25q-8 -30 -26 -48t-40 -18q-16 1 -25 11.5t-9 29.5q0 14 4 27q7 29 25 47z" />
    <glyph glyph-name="quotedbl" unicode="&#x22;" horiz-adv-x="243" 
d="M125 571l8 69q5 36 9 65t9 43q8 23 23 36.5t32 13.5q34 0 34 -30q0 -16 -13.5 -46.5t-59.5 -121.5l-15 -30q-4 -9 -14 -9h-5q-9 0 -8 10zM225 571l8 69q5 36 9 65t9 43q8 23 23 36.5t32 13.5q34 0 34 -30q0 -16 -13.5 -46.5t-59.5 -121.5l-15 -30q-4 -9 -14 -9h-5
q-9 0 -8 10z" />
    <glyph glyph-name="numbersign" unicode="#" horiz-adv-x="744" 
d="M10 267l5 16q3 12 14 12h189l95 160h-179q-10 0 -7 12l5 16q3 12 14 12h191l123 207q2 4 8 5.5t10 -0.5l15 -4q4 -2 7 -6t0 -8l-115 -194h192l123 207q2 4 8 5.5t10 -0.5l15 -4q4 -2 7 -6t0 -8l-115 -194h177q5 0 7.5 -3.5t0.5 -8.5l-5 -16q-2 -5 -6 -8.5t-9 -3.5h-189
l-95 -160h179q5 0 7.5 -3.5t0.5 -8.5l-5 -16q-2 -5 -6 -8.5t-9 -3.5h-191l-129 -218q-2 -4 -8 -5.5t-11 0.5l-14 4q-5 2 -7.5 6t-0.5 8l122 205h-192l-129 -218q-2 -4 -8 -5.5t-11 0.5l-14 4q-5 2 -7.5 6t-0.5 8l122 205h-177q-10 0 -7 12zM458 295l95 160h-192l-95 -160
h192z" />
    <glyph glyph-name="dollar" unicode="$" horiz-adv-x="447" 
d="M113.5 -70.5q-3.5 3.5 -1.5 8.5l14 47q-52 2 -102 16.5t-60 28.5q-6 8 -6 15q0 5 4 17l48 158q2 5 6 8.5t9 3.5h7q12 0 11 -10q-2 -28 -2 -41q0 -139 96 -158l97 326l-22 24q-47 52 -69.5 86.5t-22.5 75.5q0 54 30 100.5t83 74.5t118 29l15 52q2 5 8 8.5t11 3.5h16
q6 0 9.5 -3.5t1.5 -8.5l-16 -54q41 -4 71.5 -15t42.5 -25q6 -7 6 -17q0 -7 -3 -15l-38 -123q-1 -5 -5.5 -8.5t-9.5 -3.5h-8q-11 0 -11 10q2 61 -13.5 98.5t-44.5 53.5l-82 -274q38 -42 59 -69t36.5 -62.5t15.5 -75.5q0 -53 -27.5 -102.5t-82 -83t-130.5 -39.5l-14 -48
q-2 -5 -8 -8.5t-11 -3.5h-16q-6 0 -9.5 3.5zM285 69.5q38 42.5 38 103.5q0 67 -55 136l-85 -287q64 5 102 47.5zM227.5 515q13.5 -27 38.5 -58l74 247h-5q-35 0 -62.5 -19t-43 -49.5t-15.5 -65.5q0 -28 13.5 -55z" />
    <glyph glyph-name="percent" unicode="%" horiz-adv-x="539" 
d="M74 -13q-3 4 -1 8l417 752q2 4 7.5 5.5t10.5 -0.5l15 -4q4 -2 7 -6t1 -8l-416 -752q-2 -4 -8 -5.5t-11 0.5l-14 4q-5 2 -8 6zM173 694.5q32 36.5 73 36.5q30 0 46 -18.5t16 -55.5q0 -34 -11 -74q-20 -75 -52 -111.5t-73 -36.5q-30 0 -46 18.5t-16 56.5q0 33 11 73
q20 75 52 111.5zM159 508q0 -37 24 -37q33 0 62 109q13 49 13 79q0 36 -21 38q-35 0 -64 -109q-14 -54 -14 -80zM363.5 257q32.5 37 72.5 37q30 0 46 -18.5t16 -56.5q0 -34 -11 -74q-20 -74 -52 -110.5t-72 -36.5q-63 0 -63 75q0 33 11 73q20 74 52.5 111zM350 70
q0 -35 22 -37q34 0 63 109q14 56 14 81q0 36 -22 36q-17 0 -32.5 -25.5t-30.5 -83.5q-14 -54 -14 -80z" />
    <glyph glyph-name="ampersand" unicode="&#x26;" horiz-adv-x="743" 
d="M133 16q-50 31 -78.5 88t-28.5 131q0 91 37 167.5t97 121t124 44.5q46 0 69 -23.5t23 -57.5q0 -14 -2 -22q50 48 78.5 91t28.5 69q0 20 -14 46q-1 2 -6 14t-5 23q0 22 16 34.5t40 12.5q31 0 48.5 -21.5t17.5 -50.5q0 -46 -64 -124.5t-171 -161t-228 -141.5q0 -12 2 -36
q4 -54 28 -95t60 -63.5t77 -22.5q52 0 104.5 32.5t93 93.5t57.5 144q-20 23 -36.5 35t-32.5 12q-43 0 -43 -33q0 -8 4.5 -15t12.5 -16q10 -11 15 -19t5 -18q0 -23 -18 -36.5t-42 -13.5q-28 0 -43 16.5t-15 40.5q0 34 28.5 68t69 56.5t72.5 22.5q31 0 56.5 -20.5t57.5 -57.5
q4 -4 16.5 -18t22 -20.5t16.5 -6.5q16 0 27.5 20.5t21.5 69.5q2 11 13 11h9q13 0 11 -13q-14 -76 -40.5 -118.5t-63.5 -42.5q-27 0 -50.5 17.5t-48.5 48.5q-22 -88 -71 -155t-113.5 -103t-132.5 -36q-62 0 -112 31zM271 380q21 40 21 83q0 73 -39 73q-31 0 -61.5 -32.5
t-51 -89t-24.5 -124.5q84 39 155 90z" />
    <glyph glyph-name="quotesingle" unicode="'" horiz-adv-x="143" 
d="M125 571l8 69q5 36 9 65t9 43q8 23 23 36.5t32 13.5q34 0 34 -30q0 -16 -13.5 -46.5t-59.5 -121.5l-15 -30q-4 -9 -14 -9h-5q-9 0 -8 10z" />
    <glyph glyph-name="parenleft" unicode="(" horiz-adv-x="322" 
d="M463 804q0 -3 -5 -8q-179 -186 -264 -465q-47 -155 -47 -287q0 -99 26 -160q1 -2 1 -6q0 -7 -6 -11l-5 -3q-3 -2 -7 -2t-7 4q-28 37 -43.5 104t-15.5 147q0 116 32 219q41 135 128.5 265.5t186.5 212.5q5 4 9.5 4.5t6.5 -2.5l6 -5q4 -4 4 -7z" />
    <glyph glyph-name="parenright" unicode=")" horiz-adv-x="323" 
d="M-86 -126q0 3 5 8q179 186 264 465q47 155 47 287q0 99 -26 160q-1 2 -1 6q0 7 6 11l5 3q3 2 7 2t7 -4q28 -37 43.5 -104t15.5 -147q0 -116 -32 -219q-41 -135 -128.5 -265.5t-186.5 -212.5q-5 -4 -9.5 -4.5t-6.5 2.5l-6 5q-4 4 -4 7z" />
    <glyph glyph-name="asterisk" unicode="*" horiz-adv-x="347" 
d="M194 522q0 9 11 25q6 9 38 37q24 20 37 33l-22 2q-61 4 -75 8q-28 9 -28 28q0 4 2 12q6 20 26 20q8 0 18 -3q12 -4 59 -33l28 -17q-4 20 -11 50q-10 46 -10 56q0 36 30 36q29 0 29 -36q0 -14 -13 -72q-5 -20 -8 -34l28 17q47 29 59 33q11 3 18 3q12 0 20 -8.5t8 -23.5
q0 -19 -27 -28q-15 -4 -77 -8l-22 -2q24 -22 35 -31q33 -28 41 -39q11 -16 11 -25q0 -12 -13 -22q-10 -7 -17 -7q-15 0 -28 19q-5 8 -22 44q-16 38 -22 48q-5 -9 -26 -53q-12 -29 -19 -39q-13 -19 -27 -19q-7 0 -18 7q-13 10 -13 22z" />
    <glyph glyph-name="plus" unicode="+" horiz-adv-x="424" 
d="M214.5 125.5q-3.5 3.5 -3.5 8.5v159h-157q-12 0 -12 10v16q0 10 12 10h157v159q0 5 3.5 8.5t8.5 3.5h16q5 0 8.5 -3.5t3.5 -8.5v-159h157q12 0 12 -10v-16q0 -10 -12 -10h-157v-159q0 -5 -3.5 -8.5t-8.5 -3.5h-16q-5 0 -8.5 3.5z" />
    <glyph glyph-name="comma" unicode="," horiz-adv-x="151" 
d="M-98 -169q-3 0 -6 7l-3 9l-1 4q0 5 5 10t12 10q25 22 44.5 54.5t26.5 61.5q-29 5 -29 40q0 14 4 27q8 30 25.5 47t39.5 17q20 0 32 -14t12 -40q0 -16 -6 -39q-29 -102 -150 -191q-3 -3 -6 -3z" />
    <glyph glyph-name="hyphen" unicode="-" horiz-adv-x="317" 
d="M44 358q0 3 2 9l4 16q8 22 29 22h254q17 0 17 -13q0 -3 -2 -9l-4 -16q-8 -22 -29 -22h-254q-17 0 -17 13z" />
    <glyph glyph-name="period" unicode="." horiz-adv-x="145" 
d="M-31 -3.5q-9 10.5 -9 29.5q0 14 4 27q7 29 25 47t40 18q16 -1 25 -12t9 -30q0 -11 -3 -25q-8 -30 -26 -48t-40 -18q-16 1 -25 11.5z" />
    <glyph glyph-name="slash" unicode="/" horiz-adv-x="286" 
d="M-73.5 -30q-2.5 4 0.5 9l477 827q2 4 8 5.5t10 -0.5l14 -4q4 -2 6.5 -6t-0.5 -8l-476 -828q-2 -4 -8 -5.5t-11 0.5l-13 4q-5 2 -7.5 6z" />
    <glyph glyph-name="zero" unicode="0" horiz-adv-x="503" 
d="M65.5 37.5q-41.5 52.5 -41.5 147.5q0 80 30 183q33 114 84.5 197.5t116.5 128.5t135 45q77 0 118 -51.5t41 -145.5q0 -76 -29 -178q-33 -116 -85.5 -201.5t-117 -131.5t-133.5 -46q-77 0 -118.5 52.5zM120 154q0 -64 21 -97.5t63 -34.5q55 0 109 84.5t99 241.5
q41 144 41 230q0 60 -19.5 91.5t-56.5 32.5q-60 0 -117 -85.5t-102 -243.5q-38 -135 -38 -219z" />
    <glyph glyph-name="one" unicode="1" horiz-adv-x="287" 
d="M-62 2.5q-1 2.5 1 9.5l1 5q4 11 16 13q77 10 88 51l144 469q8 24 8 41q0 43 -54 36h-5q-4 0 -5.5 2t-1.5 6v6q0 7 3.5 10.5t14.5 7.5q24 8 60.5 24t49.5 22q11 5 24.5 11.5t28.5 12.5q8 3 13 3q12 0 12 -11l-2 -9l-194 -635q-1 -3 -1 -8q0 -15 16.5 -25.5t46.5 -13.5
q8 -2 4 -13l-1 -5q-4 -12 -13 -12q-18 0 -52 2q-30 3 -71 3t-73 -3q-34 -2 -52 -2q-5 0 -6 2.5z" />
    <glyph glyph-name="two" unicode="2" horiz-adv-x="457" 
d="M-43 0q-20 0 -15 16l2 6q5 13 12 20q164 167 246 255.5t121.5 144t56.5 105.5q11 35 11 57q0 37 -20 56.5t-55 19.5q-44 0 -76 -13t-79 -45q-7 -6 -13 -6q-4 0 -7 6l-3 6q-2 3 -2 8t5 10q50 47 99 70t105 23q74 0 113.5 -31.5t39.5 -85.5q0 -24 -10 -57
q-18 -57 -57.5 -111t-126 -136t-259.5 -229l121 2q68 1 107 11t63.5 33t45.5 67q5 12 14 12h8q8 0 6 -9l-54 -176q-6 -19 -15.5 -25.5t-35.5 -6.5q-246 3 -348 3z" />
    <glyph glyph-name="three" unicode="3" horiz-adv-x="462" 
d="M-9 9q-35 24 -35 58q0 31 23 55t51 24q23 0 31 -13t13 -40q4 -23 9.5 -37t20.5 -24t43 -10q52 0 100 48t72 125q19 60 19 101q0 40 -19.5 59t-60.5 19q-34 0 -83 -14l-6 -1q-6 0 -8 9l-1 10v2q0 9 15 15l41 13q84 26 127 67t61 100q8 29 8 47q0 31 -19 47t-52 16
q-35 0 -68 -14t-70 -42q-7 -5 -11 -5t-9 5l-4 6q-2 4 -2 6q0 6 7 13q46 40 97 62.5t101 22.5q61 0 95.5 -26t34.5 -73q0 -20 -8 -47q-14 -46 -58 -90.5t-125 -83.5q57 -2 88.5 -33.5t31.5 -88.5q0 -34 -14 -82q-29 -96 -110 -163t-212 -67q-79 0 -114 24z" />
    <glyph glyph-name="four" unicode="4" horiz-adv-x="456" 
d="M8.5 223.5q-2.5 3.5 -0.5 8.5l2 6q4 10 9 15l452 465q10 10 21 10h25q11 0 11 -6q0 -5 -7 -12l-455 -452l201 5l69 225q4 14 15 18l79 29q4 2 10 2q11 0 6 -12l-79 -260l64 2q5 0 7.5 -3.5t0.5 -8.5l-7 -23q-2 -5 -6 -8.5t-9 -3.5h-64l-44 -143q-1 -3 -1 -8
q0 -15 16.5 -25.5t46.5 -13.5q8 -2 4 -13l-1 -5q-4 -12 -13 -12q-16 0 -52 2q-31 3 -73 3q-27 0 -69 -2q-33 -3 -75 -3q-5 0 -6.5 2.5t1.5 9.5l1 5q3 11 16 13q51 5 76 18t31 33l43 139h-238q-5 0 -7.5 3.5z" />
    <glyph glyph-name="five" unicode="5" horiz-adv-x="467" 
d="M0.5 8q-39.5 23 -39.5 58q0 31 23 55.5t51 24.5q23 0 30.5 -12.5t12.5 -40.5q4 -23 9.5 -37.5t20.5 -24.5t44 -10q34 0 69 22t63.5 61.5t44.5 90.5q21 69 21 114q0 97 -95 97q-36 0 -68.5 -13t-67.5 -40q-7 -6 -16 -6h-10q-13 0 -7 13l149 352q5 15 23 15l290 1
q18 0 18 -14q0 -3 -2 -9l-19 -43q-8 -19 -20.5 -25.5t-39.5 -6.5l-75 1q-120 2 -172 2l-97 -230q41 30 77.5 43.5t74.5 13.5q76 0 116 -40t40 -109q0 -39 -14 -87q-21 -68 -67 -122.5t-110.5 -85.5t-138.5 -31q-79 0 -118.5 23z" />
    <glyph glyph-name="six" unicode="6" horiz-adv-x="508" 
d="M76 35q-46 50 -46 139q0 58 20 124q45 146 161 266t300 200l8 2q8 0 9 -7l2 -6q1 -2 1 -5q0 -7 -12 -14q-112 -57 -191.5 -136.5t-130.5 -193.5q40 29 75 42.5t70 13.5q65 0 105 -42.5t40 -114.5q0 -43 -14 -88q-20 -64 -61 -116.5t-98 -83t-120 -30.5q-72 0 -118 50z
M131 142q0 -62 22 -92.5t53 -30.5q49 0 92.5 44.5t67.5 122.5q21 67 21 119q0 51 -22 76t-60 25q-60 0 -128 -52q-12 -32 -17 -49q-29 -99 -29 -163z" />
    <glyph glyph-name="seven" unicode="7" horiz-adv-x="459" 
d="M81 -0.5q-14 14.5 -14 43.5q0 17 8 46q19 62 64.5 132.5t126.5 166t225 251.5l-172 -3q-52 -1 -84 -11.5t-55 -33t-49 -65.5q-7 -12 -14 -12h-8q-4 0 -5.5 2.5t-0.5 6.5l78 176q9 20 17.5 26t34.5 6q243 -3 346 -3q21 0 16 -16q-181 -195 -272 -318t-119 -220
q-7 -25 -7 -43q0 -3 3 -30q3 -12 3 -25q0 -17 -6 -34q-9 -27 -29.5 -42t-47.5 -15q-25 0 -39 14.5z" />
    <glyph glyph-name="eight" unicode="8" horiz-adv-x="461" 
d="M46.5 26q-42.5 41 -42.5 104q0 30 9 60q18 60 68.5 107t136.5 92q-32 39 -49 71.5t-17 69.5q0 20 8 47q14 45 47.5 82t79.5 58.5t95 21.5q69 0 104 -34.5t35 -85.5q0 -18 -7 -44q-13 -44 -55.5 -83.5t-124.5 -85.5q32 -37 49.5 -60.5t30.5 -53.5t13 -64q0 -27 -9 -57
q-24 -81 -90 -133.5t-159 -52.5q-80 0 -122.5 41zM88 120q0 -48 24 -75t63 -27q47 0 86.5 34t53.5 81q9 30 9 56q0 47 -21.5 85.5t-64.5 89.5q-47 -30 -84.5 -74t-53.5 -98q-12 -40 -12 -72zM255 563q0 -34 15 -65t42 -64q46 30 74 63t41 76q9 30 9 56q0 35 -16 56t-45 21
q-33 0 -66.5 -25.5t-45.5 -67.5q-8 -29 -8 -50z" />
    <glyph glyph-name="nine" unicode="9" horiz-adv-x="510" 
d="M58 -21q-9 0 -10 7l-2 6q-1 2 -1 5q0 8 12 13q110 43 190.5 118.5t131.5 191.5q-40 -29 -75 -42.5t-70 -13.5q-64 0 -104.5 42.5t-40.5 114.5q0 45 16 94q19 61 59.5 112t96 81.5t116.5 30.5q75 0 122 -49.5t47 -139.5q0 -58 -20 -124q-45 -147 -162 -264t-299 -182
q-3 -1 -7 -1zM188 420q0 -52 22 -77t61 -25q60 0 128 52q12 32 17 49q29 99 29 163q0 62 -22 92.5t-53 30.5q-49 0 -93.5 -43.5t-66.5 -117.5q-22 -73 -22 -124z" />
    <glyph glyph-name="colon" unicode=":" horiz-adv-x="145" 
d="M-1 96.5q-9 10.5 -9 29.5q0 14 4 27q7 29 25 47t40 18q16 -1 25 -12t9 -30q0 -11 -3 -25q-8 -30 -26 -48t-40 -18q-16 1 -25 11.5zM76 346.5q-9 10.5 -9 29.5q0 14 4 27q7 29 25 47t40 18q16 -1 25 -12t9 -30q0 -11 -3 -25q-8 -30 -26 -48t-40 -18q-16 1 -25 11.5z" />
    <glyph glyph-name="semicolon" unicode=";" horiz-adv-x="151" 
d="M35 246.5q-9 10.5 -9 29.5q0 14 4 27q7 29 25 47t40 18q16 -1 25 -12t9 -30q0 -11 -3 -25q-8 -30 -26 -48t-40 -18q-16 1 -25 11.5zM-98 -169q-3 0 -6 7l-3 9l-1 4q0 5 5 10t12 10q25 22 44.5 54.5t26.5 61.5q-29 5 -29 40q0 14 4 27q8 30 25.5 47t39.5 17q20 0 32 -14
t12 -40q0 -16 -6 -39q-29 -102 -150 -191q-3 -3 -6 -3z" />
    <glyph glyph-name="less" unicode="&#x3c;" horiz-adv-x="374" 
d="M42 304v16q0 10 8 14l257 133q4 2 8 2q7 0 9 -5l6 -11q2 -4 2 -7q0 -8 -7 -12l-233 -122l233 -122q4 -2 5.5 -8t-0.5 -11l-6 -11q-2 -5 -9 -5q-4 0 -8 2l-257 133q-8 4 -8 14z" />
    <glyph glyph-name="equal" unicode="=" horiz-adv-x="464" 
d="M64.5 358.5q-3.5 3.5 -3.5 8.5v16q0 5 3.5 8.5t8.5 3.5h354q5 0 8.5 -3.5t3.5 -8.5v-16q0 -5 -3.5 -8.5t-8.5 -3.5h-354q-5 0 -8.5 3.5zM61 253q0 5 3.5 8.5t8.5 3.5h354q5 0 8.5 -3.5t3.5 -8.5v-16q0 -5 -3.5 -8.5t-8.5 -3.5h-354q-5 0 -8.5 3.5t-3.5 8.5v16z" />
    <glyph glyph-name="greater" unicode="&#x3e;" horiz-adv-x="372" 
d="M95 155q-6 0 -9 5l-6 11q-1 2 -1 6q0 10 6 13l233 122l-233 122q-5 3 -6 8.5t1 10.5l6 11q3 5 9 5q4 0 8 -2l257 -133q8 -4 8 -14v-16q0 -10 -8 -14l-257 -133q-4 -2 -8 -2z" />
    <glyph glyph-name="question" unicode="?" horiz-adv-x="325" 
d="M105 201.5q-5 9.5 -5 28.5q0 50 28 94t82 104q38 44 61 74t39 66.5t16 75.5q0 31 -10.5 47.5t-35.5 16.5q-21 0 -33.5 -11.5t-27.5 -34.5q-13 -20 -23.5 -30t-26.5 -10q-18 0 -27.5 10t-9.5 27q0 33 37 57t88 24q75 0 115 -32t40 -83q0 -47 -20.5 -85.5t-50 -67
t-78.5 -68.5q-46 -37 -73 -63t-44 -59t-15 -73q0 -9 -13 -14q-8 -3 -13 6.5zM44.5 100q17.5 18 39.5 18q16 -1 25 -12t9 -30q0 -11 -3 -25q-8 -30 -26 -48t-40 -18q-16 1 -25 11.5t-9 29.5q0 14 4 27q8 29 25.5 47z" />
    <glyph glyph-name="at" unicode="@" horiz-adv-x="757" 
d="M200 17q-72 40 -114.5 111.5t-42.5 162.5q0 129 68 238t174 172t214 63q83 0 149.5 -35t104 -95t37.5 -134q0 -79 -41 -151.5t-105 -117.5t-127 -45q-25 0 -45 18t-24 53q-32 -33 -68 -51.5t-67 -18.5q-41 0 -69.5 32t-28.5 89q0 59 36 113t96 87.5t128 33.5q50 0 94 -11
q14 -3 14 -17q0 -5 -1 -8l-38 -152q-13 -49 -13 -77q0 -23 9 -32.5t27 -9.5q34 0 65 36.5t50 97t17 127.5q-4 115 -59 171.5t-160 56.5q-107 0 -186 -51t-121.5 -143t-42.5 -214q0 -94 29.5 -161.5t83.5 -103t125 -35.5q66 0 128.5 21.5t109.5 59.5q6 4 8 4q5 0 9 -6l2 -3
q4 -4 4 -9q0 -4 -4 -8q-54 -49 -123.5 -73.5t-144.5 -24.5q-85 0 -157 40zM318.5 255.5q13.5 -18.5 35.5 -18.5q21 0 46.5 15.5t48.5 43.5l52 212q-15 5 -30 5q-40 0 -78.5 -29t-63 -76.5t-24.5 -99.5q0 -34 13.5 -52.5z" />
    <glyph glyph-name="A" unicode="A" horiz-adv-x="614" 
d="M-61 12l2 5q5 12 12 13q73 9 103 59l373 629q7 10 16 10h11q11 0 11 -10v-637q0 -44 59 -50q4 -1 4.5 -3.5t-0.5 -9.5l-1 -5q-2 -12 -13 -12q-38 0 -68 3q-36 2 -54 2q-21 0 -57 -2q-28 -3 -61 -3q-5 0 -6.5 2.5t1.5 9.5l2 5q3 7 6 9.5t9 3.5q33 6 56.5 20t24.5 35l4 182
h-171l-104 -176q-10 -16 -10 -29t13 -21t40 -12q13 -2 8 -13l-2 -5q-3 -7 -5.5 -9.5t-6.5 -2.5q-8 0 -65 3q-30 2 -40 2q-9 0 -35 -2q-23 -3 -50 -3q-11 0 -6 12zM374 301l5 269l-158 -269h153z" />
    <glyph glyph-name="B" unicode="B" horiz-adv-x="509" 
d="M-63.5 2.5q-0.5 2.5 0.5 9.5l1 5q2 11 16 14q25 5 44 18.5t25 31.5l173 566q2 8 2 12q0 14 -11 24t-29 14q-5 2 -6.5 4.5t-0.5 9.5l1 5q2 12 13 12l28 -1q30 -2 54 -2q36 0 82 2l55 1q80 0 124 -36t44 -97q0 -24 -10 -59q-16 -52 -58.5 -93.5t-102.5 -60.5q53 -17 79 -51
t26 -80q0 -32 -10 -63q-26 -85 -109 -136.5t-216 -51.5q-21 0 -33 1l-61 1l-77 -1q-15 -1 -38 -1q-5 0 -5.5 2.5zM123 73q0 -19 10 -29t27 -10h24q62 0 112.5 38.5t70.5 103.5q14 47 14 79q0 106 -137 110l-36 1l-81 -267q-4 -13 -4 -26zM274 396q64 0 102.5 32.5
t59.5 101.5q13 40 13 73q0 44 -21 67.5t-57 23.5h-11q-22 0 -41 -14t-26 -36l-75 -245q36 -3 56 -3z" />
    <glyph glyph-name="C" unicode="C" horiz-adv-x="511" 
d="M85 41q-49 56 -49 169q0 124 47.5 246.5t135 202t199.5 79.5q41 0 82.5 -11t60.5 -26q7 -6 7 -15q0 -6 -3 -14l-40 -132q-1 -5 -5.5 -8.5t-9.5 -3.5h-7q-11 0 -11 10q3 90 -19.5 129.5t-69.5 39.5q-68 0 -129 -76.5t-98 -189.5t-37 -213t32 -143t92 -43q42 0 81.5 20.5
t81.5 61.5q5 5 11 5t10 -4l2 -2q3 -3 3 -6q0 -5 -8 -15q-99 -117 -224 -117q-86 0 -135 56z" />
    <glyph glyph-name="D" unicode="D" horiz-adv-x="557" 
d="M-64 12l2 5q3 7 6.5 9.5t9.5 4.5q24 4 42.5 15t23.5 28l177 579q1 3 1 8q0 13 -11.5 23t-28.5 13q-7 2 -9 5t1 9l2 5q3 8 5.5 10t6.5 2q25 0 41 -1l74 -1q26 0 38 1l41 1q121 0 176.5 -63t55.5 -174q0 -91 -41.5 -205.5t-136 -200t-244.5 -85.5l-68 1l-33 1l-89 -1
q-15 -1 -36 -1q-11 0 -6 12zM116 60q0 -29 42 -29h22q82 0 149 65.5t108.5 169t51.5 214.5q2 19 2 53q0 85 -30 124.5t-92 39.5h-10q-24 0 -41 -13.5t-25 -36.5l-173 -566q-4 -16 -4 -21z" />
    <glyph glyph-name="E" unicode="E" horiz-adv-x="498" 
d="M-63.5 2.5q-0.5 2.5 0.5 9.5l1 5q2 11 16 14q24 4 42.5 15t23.5 28l177 579q1 3 1 8q0 13 -11 22.5t-29 13.5q-13 4 -8 14l2 5q3 8 5.5 10t6.5 2q28 0 49 -1q74 -2 157 -2l108 1q54 2 93 2q19 0 27 -3.5t8 -11.5q0 -6 -3 -17l-42 -136q-1 -4 -4.5 -6.5t-6.5 -2.5h-8
q-8 0 -7 12q2 12 2 34q0 54 -33.5 75t-113.5 21h-31q-25 0 -42 -12t-24 -34l-78 -257h111q34 0 62.5 22t45.5 64q3 9 15 9h5q12 0 9 -9l-14 -41q-10 -27 -20 -60l-13 -46q-4 -16 -16 -57q-2 -5 -4.5 -7t-9.5 -2h-5q-6 0 -8 3t-1 10q3 14 3 24q0 29 -16 43.5t-45 14.5h-109
l-84 -275q-2 -8 -2 -12q0 -17 13 -26.5t35 -9.5h36q61 0 101 12t68.5 39.5t52.5 78.5q5 12 14 12h8q4 0 5.5 -2.5t0.5 -6.5l-42 -136q-6 -19 -15.5 -25.5t-35.5 -6.5l-88 1q-78 2 -123 2q-82 0 -158 -2q-21 -1 -49 -1q-5 0 -5.5 2.5z" />
    <glyph glyph-name="F" unicode="F" horiz-adv-x="471" 
d="M-64 12l2 5q3 7 6.5 9.5t9.5 4.5q24 4 42.5 15t23.5 28l177 579q1 3 1 8q0 13 -11.5 22.5t-29.5 13.5q-6 2 -8 5t1 9l2 5q3 8 5.5 10t6.5 2q28 0 49 -1q74 -2 157 -2l108 1q54 2 93 2q19 0 26.5 -3.5t7.5 -11.5q0 -6 -3 -17l-41 -136q-4 -9 -12 -9h-7q-4 0 -6 3t-1 9
q2 12 2 33q0 55 -33.5 76t-113.5 21h-31q-21 0 -40.5 -13.5t-25.5 -32.5l-78 -257h111q34 0 62.5 22t45.5 64q3 9 15 9h5q6 0 8 -2t1 -7l-14 -41q-10 -27 -20 -60l-13 -46q-4 -16 -16 -57q-2 -5 -4.5 -7t-9.5 -2h-5q-6 0 -8 3t-1 10q3 14 3 24q0 29 -16 43.5t-45 14.5h-109
l-84 -277q-2 -8 -2 -12q0 -15 11.5 -25.5t31.5 -13.5q9 -2 4 -13l-2 -5q-3 -7 -5 -9.5t-7 -2.5q-29 0 -56 3q-32 2 -48 2q-17 0 -51 -2q-26 -3 -56 -3q-10 0 -5 12z" />
    <glyph glyph-name="G" unicode="G" horiz-adv-x="569" 
d="M85 41q-49 56 -49 169q0 124 47.5 246.5t135 202t199.5 79.5q41 0 82.5 -11t60.5 -26q7 -6 7 -15q0 -6 -3 -14l-40 -132q-1 -5 -5.5 -8.5t-9.5 -3.5h-7q-11 0 -11 10q3 90 -19.5 129.5t-69.5 39.5q-68 0 -129 -76.5t-98 -189.5t-37 -213q0 -106 28.5 -157t76.5 -51
q35 0 70 26.5t47 69.5l56 198q2 8 2 11q0 15 -11 25t-29 14q-5 2 -6.5 4.5t-0.5 9.5l1 5q2 12 13 12q29 0 54 -3q32 -2 48 -2t50 2q27 3 57 3q5 0 5.5 -2.5t-0.5 -9.5l-1 -5q-2 -11 -12 -13q-27 -4 -47 -18t-26 -33q-26 -81 -38.5 -126.5t-12.5 -74.5q0 -19 7 -25
q4 -4 7.5 -6.5t5.5 -5t1 -5.5l-2 -6q-3 -12 -16 -12q-37 -2 -63 -10.5t-59 -24.5q-33 -17 -59.5 -25t-64.5 -8q-86 0 -135 56z" />
    <glyph glyph-name="H" unicode="H" horiz-adv-x="581" 
d="M-64.5 2.5q-1.5 2.5 1.5 9.5l2 5q3 7 6 10t10 4q25 5 44 18.5t24 31.5l173 566q2 8 2 12q0 14 -11 24t-29 14q-5 2 -6.5 4.5t-0.5 9.5l1 5q2 12 13 12q29 0 54 -3q32 -2 48 -2t50 2q27 3 57 3q5 0 5.5 -2.5t-0.5 -9.5l-1 -5q-2 -11 -12 -13q-25 -4 -45.5 -16t-25.5 -29
l-81 -265h238l80 264q1 3 1 9q0 13 -11 22.5t-29 13.5q-13 4 -8 14l2 5q3 7 5.5 9.5t6.5 2.5q30 0 55 -3q32 -2 48 -2t50 2q27 3 57 3q5 0 6.5 -2.5t-1.5 -9.5l-2 -5q-2 -6 -4.5 -9t-6.5 -4q-27 -4 -47 -18t-26 -33l-174 -570q-1 -3 -1 -9q0 -14 12 -24.5t31 -13.5
q4 -1 4.5 -3.5t-0.5 -9.5l-1 -5q-2 -12 -13 -12q-29 0 -55 3q-32 2 -49 2t-49 -2q-25 -3 -56 -3q-5 0 -5.5 2.5t0.5 9.5l1 5q2 11 16 14q25 5 44 18.5t25 31.5l83 274h-237l-85 -279q-1 -3 -1 -9q0 -14 12 -24t32 -13q9 -2 4 -13l-2 -5q-3 -7 -5.5 -9.5t-6.5 -2.5
q-30 0 -56 3q-32 2 -49 2q-16 0 -48 -2q-27 -3 -57 -3q-5 0 -6.5 2.5z" />
    <glyph glyph-name="I" unicode="I" horiz-adv-x="246" 
d="M-63.5 2.5q-0.5 2.5 0.5 9.5l1 5q2 11 16 14q25 5 44 18.5t25 31.5l173 566q2 8 2 12q0 14 -11 24t-29 14q-5 2 -6.5 4.5t-0.5 9.5l1 5q2 12 13 12q29 0 54 -3q32 -2 48 -2t50 2q27 3 57 3q5 0 5.5 -2.5t-0.5 -9.5l-1 -5q-2 -11 -12 -13q-26 -4 -46 -16t-25 -29
l-176 -577q-1 -3 -1 -9q0 -14 12 -24t32 -13q6 -1 3 -13l-1 -5q-2 -12 -13 -12q-29 0 -55 3q-32 2 -49 2t-49 -2q-26 -3 -56 -3q-5 0 -5.5 2.5z" />
    <glyph glyph-name="J" unicode="J" horiz-adv-x="362" 
d="M-29.5 5.5q-22.5 20.5 -22.5 50.5q0 9 4 25q9 29 29 47t43 18q24 0 33 -11.5t9 -31.5q0 -8 -2 -28q-2 -16 -2 -24q0 -26 20 -26q39 0 69 98l159 524q2 8 2 12q0 30 -59 39q-5 1 -6.5 3.5t-0.5 9.5l1 5q2 12 13 12q14 0 77 -3q30 -2 44 -2q17 0 51 2q27 3 57 3q11 0 6 -12
l-2 -5q-5 -12 -12 -13q-25 -4 -45.5 -16t-25.5 -29l-139 -453q-29 -94 -91 -154.5t-137 -60.5q-50 0 -72.5 20.5z" />
    <glyph glyph-name="K" unicode="K" horiz-adv-x="565" 
d="M-63.5 2.5q-0.5 2.5 0.5 9.5l1 5q2 11 16 14q25 5 44 18.5t25 31.5l173 566q2 8 2 11q0 15 -11 25t-29 14q-13 4 -8 14l2 5q3 8 5.5 10t6.5 2q30 0 55 -3q32 -2 48 -2q15 0 49 2q27 3 58 3q5 0 6.5 -2.5t-1.5 -9.5l-2 -5q-2 -6 -4.5 -9t-6.5 -4q-26 -4 -46 -16.5
t-26 -30.5l-94 -308l107 108l1 1l181 184q23 25 23 38q0 18 -41 24q-5 1 -6.5 3.5t-0.5 9.5l1 5q2 12 13 12q9 0 66 -3q32 -2 41 -2q11 0 37 2q20 3 39 3q5 0 6.5 -2.5t-1.5 -9.5l-2 -5q-2 -6 -4.5 -9t-6.5 -4q-26 -4 -58.5 -19.5t-52.5 -34.5l-225 -224l90 -327
q6 -23 29.5 -40t48.5 -21q4 -1 4.5 -3.5t-0.5 -9.5l-1 -5q-2 -12 -13 -12q-31 0 -64 3q-44 2 -64 2q-17 0 -49 -2q-24 -3 -50 -3q-5 0 -5.5 2.5t0.5 9.5l1 5q2 11 16 14q21 5 34.5 16.5t13.5 26.5q0 7 -1 10l-66 258l-58 -58l-64 -209q-1 -3 -1 -9q0 -14 12 -24.5t31 -13.5
q4 -1 4.5 -3.5t-0.5 -9.5l-1 -5q-2 -12 -13 -12q-29 0 -56 3q-32 2 -48 2t-50 -2q-26 -3 -55 -3q-5 0 -5.5 2.5z" />
    <glyph glyph-name="L" unicode="L" horiz-adv-x="485" 
d="M-64 12l2 5q3 7 6.5 9.5t9.5 4.5q24 5 43 16.5t24 27.5l176 576q2 6 2 9q0 13 -11.5 23t-30.5 14q-6 2 -8 5t1 9l2 5q3 8 5.5 10t6.5 2q30 0 54 -3q32 -2 48 -2t50 2q29 3 58 3q10 0 5 -12l-2 -5q-2 -6 -5 -9t-7 -4q-26 -4 -46 -18t-26 -33l-173 -566q-2 -8 -2 -12
q0 -15 11.5 -24.5t29.5 -9.5h31q61 0 101 12t68.5 39.5t52.5 78.5q5 12 14 12h8q4 0 5.5 -2.5t0.5 -6.5l-42 -136q-6 -19 -15.5 -25.5t-35.5 -6.5q-38 0 -92 2l-107 1q-82 0 -158 -2q-21 -1 -49 -1q-10 0 -5 12z" />
    <glyph glyph-name="M" unicode="M" horiz-adv-x="657" 
d="M-68 12l2 5q2 6 5 9t7 4q23 4 44 18t27 33l193 566q2 8 2 11q0 15 -12.5 26t-30.5 14q-9 2 -4 13l2 5q3 7 5.5 9.5t6.5 2.5q25 -1 74 -1t73 1l-9 -512l314 512q24 -1 73 -1q48 0 72 1q5 0 5.5 -2.5t-0.5 -9.5l-1 -5q-2 -11 -12 -13q-24 -4 -45.5 -18t-26.5 -33l-159 -566
q-1 -3 -1 -10q0 -15 11.5 -26.5t29.5 -14.5q9 -2 4 -13l-2 -5q-3 -7 -5 -9.5t-7 -2.5q-25 0 -49 3q-32 2 -50 2q-16 0 -48 -2q-28 -3 -63 -3q-10 0 -5 12l2 5q3 7 6 9.5t10 3.5q28 5 46 18.5t23 32.5l141 501l-320 -522q-7 -10 -15 -10h-14q-9 0 -9 10l3 527l-172 -506
q-2 -8 -2 -12q0 -30 54 -39q5 -1 6.5 -3.5t0.5 -9.5l-1 -5q-2 -12 -13 -12q-21 0 -42 3q-28 2 -42 2q-13 0 -39 -2q-18 -3 -38 -3q-10 0 -5 12z" />
    <glyph glyph-name="N" unicode="N" horiz-adv-x="536" 
d="M-68 12l2 5q5 12 12 13q23 4 44 18t27 33l177 566q2 8 2 11q0 15 -12.5 26t-30.5 14q-9 2 -4 13l2 5q3 8 5.5 10t6.5 2q21 -1 62 -1q42 0 62 1l122 -544l145 464q2 6 2 10q0 15 -14 25.5t-42 14.5q-13 2 -8 13l2 5q3 7 5.5 9.5t6.5 2.5q14 0 40 -2q20 -3 40 -3t41 3
q26 2 40 2q11 0 6 -12l-2 -5q-5 -12 -12 -13q-23 -4 -43 -18t-26 -32l-203 -636q-2 -5 -6 -8.5t-9 -3.5h-12q-11 0 -12 8l-132 604l-164 -531q-2 -8 -2 -11q0 -31 55 -40q13 -2 8 -13l-2 -5q-3 -7 -5.5 -9.5t-6.5 -2.5q-22 0 -43 3q-28 2 -43 2q-12 0 -38 -2q-18 -3 -37 -3
q-11 0 -6 12z" />
    <glyph glyph-name="O" unicode="O" horiz-adv-x="542" 
d="M74.5 42q-44.5 57 -44.5 159q0 76 25 169q31 114 83.5 197t121 127.5t146.5 44.5q83 0 129 -57t46 -159q0 -74 -23 -159q-50 -187 -144.5 -283t-212.5 -96q-82 0 -126.5 57zM129 175q0 -77 24.5 -117.5t67.5 -40.5q64 0 125.5 85.5t103.5 244.5q32 125 32 210
q0 74 -22.5 112t-62.5 38q-67 0 -129 -79t-108 -253q-31 -118 -31 -200z" />
    <glyph glyph-name="P" unicode="P" horiz-adv-x="486" 
d="M-63.5 2q-0.5 2 0.5 10l1 5q2 11 16 14q25 5 44 18.5t25 31.5l173 566q2 8 2 12q0 14 -11 24t-29 14q-7 2 -9 5t1 9l2 5q3 8 5.5 10t6.5 2q21 0 36 -1l96 -1l76 2q94 0 142.5 -38.5t48.5 -107.5q0 -32 -13 -76q-26 -86 -100.5 -139t-174.5 -53q-44 0 -78 13l-75 -246
q-2 -8 -2 -12q0 -15 11.5 -25.5t31.5 -13.5q9 -2 4 -13l-2 -5q-3 -7 -5 -9.5t-7 -2.5q-29 0 -56 3q-32 2 -48 2q-17 0 -51 -2q-27 -3 -56 -3q-5 0 -5.5 2zM275 347q53 0 98 37t67 110q18 57 18 98q0 49 -24 75.5t-68 26.5h-6q-21 0 -40 -13.5t-25 -33.5l-87 -285
q29 -15 67 -15z" />
    <glyph glyph-name="Q" unicode="Q" horiz-adv-x="557" 
d="M287 -132.5q-28 10.5 -69 30.5q-48 23 -78.5 34t-63.5 11q-27 0 -50 -13t-60 -39q-5 -4 -9 -4q-5 0 -7 5l-4 6l-2 5q0 5 8 13q32 32 76.5 56.5t88.5 33.5q-42 24 -64 74t-22 121q0 109 45 235.5t131 214.5t200 88q83 0 129 -57t46 -159q0 -101 -40 -220t-117 -208.5
t-180 -106.5q23 -9 40 -18q45 -19 71.5 -28t56.5 -9q16 0 33 8t31 19q10 8 16 1l4 -6q2 -4 2 -6q0 -3 -5 -10q-29 -33 -71.5 -57.5t-79.5 -24.5q-28 0 -56 10.5zM154.5 57.5q24.5 -40.5 67.5 -40.5q74 0 133.5 96.5t93.5 227t34 216.5q0 74 -22.5 112t-62.5 38
q-79 0 -140 -95.5t-94.5 -223.5t-33.5 -213q0 -77 24.5 -117.5z" />
    <glyph glyph-name="R" unicode="R" horiz-adv-x="569" 
d="M-63.5 2.5q-0.5 2.5 0.5 9.5l1 5q2 11 16 14q25 5 44 18.5t25 31.5l173 566q2 8 2 12q0 14 -11 24t-29 14q-5 2 -6.5 4.5t-0.5 9.5l1 5q2 12 12 12q22 0 38 -1l94 -1l86 2q88 0 135 -40.5t47 -103.5q0 -24 -8 -53q-44 -146 -215 -180q31 -17 44.5 -47.5t17.5 -91.5
q5 -73 17 -111.5t28 -52t39 -16.5q5 -1 6.5 -3.5t-0.5 -9.5l-1 -5q-1 -7 -4.5 -9.5t-8.5 -2.5l-65 -1q-11 -1 -30 -1q-31 0 -48 15.5t-26 53.5t-13 110q-5 87 -22.5 125.5t-56.5 41.5l-14 2l-82 -267q-2 -8 -2 -12q0 -15 12 -25.5t32 -13.5q6 -1 3 -13l-1 -5q-2 -12 -13 -12
q-29 0 -55 3q-32 2 -49 2q-16 0 -50 -2q-27 -3 -57 -3q-5 0 -5.5 2.5zM288 374q59 0 98.5 38.5t62.5 117.5q10 33 10 63q0 46 -23 73.5t-63 27.5h-13q-21 0 -40 -13.5t-25 -33.5l-81 -266q32 -7 74 -7z" />
    <glyph glyph-name="S" unicode="S" horiz-adv-x="447" 
d="M30 0q-55 15 -66 30q-6 8 -6 15q0 5 4 17l48 158q2 5 6 8.5t9 3.5h7q12 0 11 -10q-2 -28 -2 -41q0 -73 29.5 -116.5t95.5 -43.5q47 0 83 20t55 55t19 77q0 53 -27 96t-81 102q-48 51 -71.5 86.5t-23.5 77.5q0 55 31 101.5t85 74.5t120 28q54 0 96.5 -12.5t57.5 -29.5
q6 -7 6 -17q0 -7 -3 -15l-38 -123q-1 -5 -5.5 -8.5t-9.5 -3.5h-8q-11 0 -11 10q3 83 -27 123.5t-79 40.5q-35 0 -62.5 -19t-43 -49.5t-15.5 -65.5q0 -38 21.5 -71t67.5 -84q36 -39 57.5 -67t36.5 -62.5t15 -74.5q0 -57 -31.5 -109t-93 -84.5t-147.5 -32.5q-55 0 -110 15z
" />
    <glyph glyph-name="T" unicode="T" horiz-adv-x="575" 
d="M99.5 2.5q-0.5 2.5 0.5 9.5l1 5q2 11 16 14q25 5 44 18.5t25 31.5l173 566q2 8 2 12q0 14 -12.5 22.5t-35.5 8.5h-21q-44 0 -84 -30.5t-75 -106.5q-6 -12 -15 -12h-15q-4 0 -5.5 2.5t-0.5 6.5l54 146q7 20 16.5 26t34.5 6q39 0 85 -2l105 -1h82l104 1q48 2 87 2
q20 0 27.5 -3.5t7.5 -12.5q0 -5 -3 -16l-35 -146q-1 -4 -4.5 -6.5t-6.5 -2.5h-14q-8 0 -7 12q3 24 3 43q0 94 -80 94h-22q-27 0 -47.5 -10t-25.5 -27l-176 -577q-1 -3 -1 -9q0 -14 12 -24t32 -13q6 -1 3 -13l-1 -5q-2 -12 -12 -12q-30 0 -56 3q-32 2 -49 2t-49 -2
q-25 -3 -56 -3q-5 0 -5.5 2.5z" />
    <glyph glyph-name="U" unicode="U" horiz-adv-x="595" 
d="M100 23.5q-47 38.5 -47 118.5q0 49 19 112l121 399q1 3 1 8q0 13 -11 22.5t-29 13.5q-13 4 -8 14l2 5q3 7 5.5 9.5t6.5 2.5q29 0 56 -3q32 -2 48 -2t50 2q27 3 57 3q5 0 6.5 -2.5t-1.5 -9.5l-2 -5q-2 -6 -4.5 -9t-6.5 -4q-27 -4 -47.5 -18t-26.5 -33l-114 -376
q-24 -76 -24 -129q0 -59 28 -82t75 -23q78 0 137 51.5t92 161.5l115 377q5 18 5 28q0 36 -44 43q-4 1 -5.5 3.5t0.5 9.5l1 5q1 7 4.5 9.5t8.5 2.5q18 0 44 -2l31 -1l35 1q28 2 49 2q5 0 6.5 -2.5t-1.5 -9.5l-2 -5q-3 -7 -6.5 -10t-10.5 -4q-59 -10 -78 -70l-113 -368
q-44 -143 -122 -208.5t-174 -65.5q-79 0 -126 38.5z" />
    <glyph glyph-name="V" unicode="V" horiz-adv-x="608" 
d="M214 10l-5 637q0 44 -59 50q-9 2 -4 13l2 5q3 8 5.5 10t6.5 2q37 0 67 -3q38 -2 55 -2q18 0 54 2q32 3 72 3q5 0 5.5 -2.5t-0.5 -9.5l-1 -5q-3 -11 -16 -13q-39 -6 -64.5 -19.5t-25.5 -35.5l-4 -487l292 481q9 15 9 26q0 28 -59 36q-13 2 -8 13l2 5q3 8 5.5 10t6.5 2
q11 0 65 -3q28 -2 39 -2q10 0 36 2q23 3 50 3q5 0 5.5 -2.5t-0.5 -9.5l-1 -5q-2 -11 -12 -13q-64 -8 -91 -52l-390 -636q-7 -10 -16 -10h-11q-10 0 -10 10z" />
    <glyph glyph-name="W" unicode="W" horiz-adv-x="822" 
d="M190 10l20 637q1 44 -60 50q-9 2 -4 13l2 5q3 8 5.5 10t6.5 2q38 0 68 -3q36 -2 54 -2q33 0 67 3q44 2 66 2q28 0 62 -3l57 -2q17 0 53 2q69 3 83 3q11 0 6 -12l-2 -5q-3 -7 -6.5 -9.5t-9.5 -3.5q-42 -5 -62.5 -18.5t-21.5 -36.5l-22 -459l257 453q9 17 9 28q0 27 -55 34
q-5 1 -6.5 3.5t-0.5 9.5l1 5q2 12 13 12q12 0 66 -3q26 -2 32 -2q9 0 35 2q45 3 51 3q5 0 5.5 -2.5t-0.5 -9.5l-1 -5q-2 -11 -12 -13q-33 -4 -56 -18t-40 -43l-361 -627q-7 -10 -17 -10h-10q-10 0 -10 10l6 381l-231 -381q-7 -10 -15 -10h-11q-11 0 -11 10zM459 455l3 192
q0 23 -15 36.5t-43 13.5q-37 0 -59 -15.5t-24 -39.5l-31 -468z" />
    <glyph glyph-name="X" unicode="X" horiz-adv-x="586" 
d="M245.5 2.5q-0.5 2.5 0.5 9.5l1 5q3 11 16 13q41 4 58 16t17 30q0 7 -1 11l-44 230l-184 -225q-16 -19 -16 -32q0 -24 54 -30q13 -2 8 -13l-2 -5q-3 -7 -5 -9.5t-7 -2.5q-29 0 -56 3q-34 2 -52 2q-17 0 -47 -2q-24 -3 -49 -3q-5 0 -6.5 2.5t1.5 9.5l2 5q2 6 4.5 9t6.5 4
q75 7 115 56l225 271l-57 293q-4 20 -20.5 33t-44.5 16q-6 1 -3 13l1 5q2 12 13 12q17 0 49 -2q27 -3 63 -3q23 0 61 2q29 3 67 3q5 0 6.5 -2.5t-1.5 -9.5l-2 -5q-3 -7 -6 -9.5t-9 -3.5q-73 -9 -73 -51q0 -7 1 -11l39 -210l173 210q16 19 16 33q0 23 -44 29q-13 2 -8 13l2 5
q3 8 5.5 10t6.5 2q13 0 45 -2q24 -3 53 -3q26 0 50 3q26 2 36 2q5 0 5.5 -2.5t-0.5 -9.5l-1 -5q-2 -11 -12 -13q-66 -8 -105 -56l-214 -257l56 -297q5 -24 23.5 -39.5t49.5 -19.5q9 -2 4 -13l-2 -5q-3 -7 -5 -9.5t-7 -2.5q-19 0 -51 2q-27 3 -62 3q-19 0 -53 -2
q-31 -3 -79 -3q-5 0 -5.5 2.5z" />
    <glyph glyph-name="Y" unicode="Y" horiz-adv-x="577" 
d="M104.5 2.5q-0.5 2.5 0.5 9.5l1 5q2 11 16 14q25 5 44 18.5t25 31.5l45 146l-26 421q-3 44 -59 50q-4 1 -4.5 3.5t0.5 9.5l1 5q2 12 13 12q37 0 68 -3q36 -2 53 -2q18 0 52 2q66 3 82 3q5 0 6.5 -2.5t-1.5 -9.5l-2 -5q-3 -7 -6 -9.5t-9 -3.5q-86 -11 -85 -55l17 -347
l221 340q11 17 11 28q0 26 -56 34q-5 1 -6.5 3.5t-0.5 9.5l1 5q2 12 13 12q34 0 61 -3q30 -2 43 -2q9 0 35 2q45 3 51 3q5 0 6.5 -2.5t-1.5 -9.5l-2 -5q-2 -6 -4.5 -9t-6.5 -4q-32 -4 -54.5 -16.5t-37.5 -35.5l-276 -417l-46 -152q-1 -3 -1 -9q0 -14 12 -24.5t32 -13.5
q6 -1 3 -13l-1 -5q-2 -12 -13 -12q-29 0 -55 3q-32 2 -49 2t-49 -2q-25 -3 -56 -3q-5 0 -5.5 2.5z" />
    <glyph glyph-name="Z" unicode="Z" horiz-adv-x="538" 
d="M-32 13l3 8q4 12 7 16l487 657h-94q-62 0 -102 -11.5t-68 -39t-52 -77.5q-6 -12 -15 -12h-8q-4 0 -5.5 2.5t-0.5 6.5l42 136q6 19 15.5 25.5t35.5 6.5q246 -3 361 -3q23 0 18 -13l-3 -8q-4 -12 -7 -16l-487 -657h142q62 0 102 11.5t68 39t52 77.5q6 12 15 12h8
q3 0 5 -2.5t1 -6.5l-42 -136q-6 -19 -15.5 -25.5t-35.5 -6.5l-408 3q-24 0 -19 13z" />
    <glyph glyph-name="bracketleft" unicode="[" horiz-adv-x="286" 
d="M348 814l79 1q6 0 8.5 -3.5t0.5 -8.5l-3 -10q-1 -5 -6 -8.5t-10 -3.5h-94l-270 -883h94q5 0 7.5 -3.5t0.5 -8.5l-3 -10q-3 -12 -15 -12l-79 1l-80 -1l290 951z" />
    <glyph glyph-name="backslash" unicode="\" horiz-adv-x="723" 
d="M646 -41q-11 0 -14 6l-476 828q-1 2 -1 5q0 7 7 9l14 4q1 1 5 1q10 0 13 -6l477 -827q1 -2 1 -5q0 -8 -8 -10l-13 -4q-2 -1 -5 -1z" />
    <glyph glyph-name="bracketright" unicode="]" horiz-adv-x="286" 
d="M-25 -135l-79 -1q-6 0 -8.5 3.5t-0.5 8.5l3 10q1 5 6 8.5t10 3.5h94l270 883h-94q-5 0 -7.5 3.5t-0.5 8.5l3 10q3 12 15 12l80 -1l79 1l-290 -951z" />
    <glyph glyph-name="asciicircum" unicode="^" horiz-adv-x="315" 
d="M91 481l113 247q4 8 14 8h16q10 0 14 -8l113 -247q2 -4 2 -8q0 -6 -5 -9l-6 -4q-2 -2 -7 -2q-7 0 -12 9l-107 201l-107 -201q-8 -14 -19 -7l-6 4q-9 6 -3 17z" />
    <glyph glyph-name="underscore" unicode="_" horiz-adv-x="477" 
d="M-76.5 -41.5q-2.5 3.5 -0.5 8.5l4 16q5 12 16 12h434q5 0 7.5 -3.5t0.5 -8.5l-4 -16q-5 -12 -16 -12h-434q-5 0 -7.5 3.5z" />
    <glyph glyph-name="grave" unicode="`" horiz-adv-x="273" 
d="M406 786q-4 0 -11 4q-110 72 -146 105q-18 20 -18 40q0 16 13 28q10 13 26 13q19 0 38 -18q16 -15 60 -79l46 -65q6 -8 6.5 -12t-2.5 -8l-4 -5q-3 -3 -8 -3z" />
    <glyph glyph-name="a" unicode="a" horiz-adv-x="476" 
d="M20.5 16.5q-21.5 31.5 -19.5 90.5q4 90 45.5 184t109.5 155.5t148 61.5q70 0 118 -35q20 -14 20 -32q0 -7 -7 -30l-97 -277q-13 -39 -13 -58q0 -16 9 -16q11 0 31.5 21t46.5 59q6 9 14 3l6 -4q3 -1 3 -6q0 -8 -10 -21q-45 -64 -90 -95.5t-79 -31.5q-35 0 -35 36
q0 23 16 71l16 46q-45 -73 -89.5 -113t-79.5 -40q-42 0 -63.5 31.5zM99 52.5q6 -13.5 22 -13.5q22 -1 64 52t88.5 145.5t80.5 204.5q-8 19 -20 29t-33 10q-53 0 -101 -70t-77.5 -164t-29.5 -155q0 -25 6 -38.5z" />
    <glyph glyph-name="b" unicode="b" horiz-adv-x="450" 
d="M32 23q-14 9 -20 17.5t-6 20.5q0 10 5 28l173 564q3 9 3 16q0 26 -32 36q-6 1 -4 10l2 8q2 8 11 10q71 14 121 42q6 4 12 2l4 -2q7 -3 4 -11l-140 -459q52 99 105.5 154.5t95.5 55.5t63.5 -31.5t19.5 -90.5q-4 -90 -45.5 -184t-109.5 -155.5t-148 -61.5q-62 0 -114 31z
M116 30q12 -10 33 -10q53 0 101 70t77.5 164t29.5 155q0 25 -6 38.5t-22 13.5q-22 1 -64 -52t-88.5 -145.5t-80.5 -204.5q8 -19 20 -29z" />
    <glyph glyph-name="c" unicode="c" horiz-adv-x="380" 
d="M44 26.5q-32 41.5 -32 112.5q0 80 40 167t103 144.5t127 57.5q57 0 92.5 -24.5t35.5 -67.5q0 -27 -18 -43t-43 -16q-19 0 -27 10t-9 21.5t-1 39.5q0 25 -7 38.5t-29 13.5q-37 0 -76.5 -56.5t-66 -138.5t-26.5 -151q0 -95 61 -95q32 0 69 26.5t71 73.5q6 9 15 3l5 -3
q10 -6 4 -15q-44 -70 -97 -104.5t-100 -34.5q-59 0 -91 41.5z" />
    <glyph glyph-name="d" unicode="d" horiz-adv-x="486" 
d="M240 -6.5q-8 8.5 -8 26.5q0 26 15 72l24 77q-49 -87 -98.5 -135.5t-88.5 -48.5q-42 0 -63.5 31.5t-19.5 90.5q4 90 45.5 184t109.5 155.5t148 61.5q35 0 67 -10l48 155q3 9 3 16q0 26 -33 36q-7 1 -4 10l3 8q3 9 10 10q73 15 122 42q7 4 12 2l4 -2q6 -2 4 -11l-192 -630
q-12 -39 -12 -57q0 -17 9 -17q11 0 31 21t46 59q6 9 14 3l6 -4q3 -1 3 -6q0 -8 -10 -21q-45 -64 -90 -95.5t-79 -31.5q-18 0 -26 8.5zM99 52.5q6 -13.5 22 -13.5q22 -1 62.5 49.5t86 139t79.5 196.5l5 17q-8 19 -20 29t-33 10q-53 0 -101 -70t-77.5 -164t-29.5 -155
q0 -25 6 -38.5z" />
    <glyph glyph-name="e" unicode="e" horiz-adv-x="383" 
d="M42 24.5q-31 39.5 -31 108.5q0 82 39 170t104.5 146.5t140.5 58.5q60 0 83 -23.5t21 -62.5q-2 -44 -64.5 -96t-216.5 -94q-12 -51 -12 -98q0 -95 59 -95q30 0 71 27t75 73q6 9 15 3l5 -3q10 -6 4 -15q-45 -65 -102.5 -102t-100.5 -37q-59 0 -90 39.5zM267.5 337.5
q43.5 46.5 43.5 99.5q0 21 -9 32t-27 11q-44 0 -85 -66t-65 -155q99 32 142.5 78.5z" />
    <glyph glyph-name="f" unicode="f" horiz-adv-x="266" 
d="M-246 -154q0 27 19.5 49t47.5 22q15 0 21.5 -8.5t11.5 -23.5q7 -19 16 -29t30 -10q20 0 39.5 22t47.5 93.5t65 210.5l76 283q-13 1 -26 -0.5t-19 -1.5q-8 0 -9.5 2.5t0.5 9.5l1 4q3 11 21 15q15 4 28.5 11t17.5 13l12 45q18 67 60 118.5t95 80t105 28.5q87 0 87 -47
q0 -27 -19.5 -49t-47.5 -22q-15 0 -21.5 8.5t-11.5 23.5q-7 19 -16 29t-30 10q-28 0 -55.5 -34.5t-48.5 -114.5l-24 -88l69 1q14 0 18.5 -3.5t1.5 -11.5l-4 -11q-4 -10 -10 -13.5t-19 -3.5l-67 1l-67 -252q-59 -219 -139.5 -311.5t-168.5 -92.5q-87 0 -87 47z" />
    <glyph glyph-name="g" unicode="g" horiz-adv-x="456" 
d="M-25.5 -199q-33.5 28 -33.5 72q0 78 106 147q-7 2 -11.5 10t-11.5 29l-14 40q-2 5 -2 14q0 11 8 21t25 21q15 9 39.5 21.5t45.5 20.5q-27 16 -42 43t-15 61q0 52 28 102t77.5 81.5t110.5 31.5q22 0 38 -5t37 -14q12 -5 24 -9t23 -4q16 0 35 5.5t28 7.5q6 2 13 2q6 0 8 -3
t2 -9v-11q0 -23 -23 -26q-36 -4 -65 -4q15 -25 15 -57q0 -56 -30.5 -105t-81 -78t-108.5 -29h-4v0q-31 0 -55 -7t-37 -17.5t-13 -19.5q0 -19 43 -19q24 0 48 3q30 2 40 2q66 0 108.5 -19t42.5 -76q0 -69 -43.5 -126.5t-113.5 -91t-146 -33.5q-62 0 -95.5 28zM59 -154.5
q26 -26.5 72 -26.5q40 0 81.5 22t68 57t26.5 71q0 34 -39 49.5t-82 15.5q-22 0 -80 -8q-41 -18 -57 -50t-16 -67q0 -37 26 -63.5zM173.5 224q16.5 -19 36.5 -19q28 0 56.5 26t46.5 72t18 102q0 38 -15 60.5t-38 22.5q-32 0 -61 -32.5t-46 -82.5t-15 -100q1 -30 17.5 -49z
" />
    <glyph glyph-name="h" unicode="h" horiz-adv-x="486" 
d="M-6 6.5q-5 6.5 -2 16.5l192 630q3 9 3 16q0 26 -33 36q-7 1 -4 10l3 8q3 9 10 10q73 15 122 42q7 4 12 2l4 -2q6 -2 4 -11l-171 -562q84 170 151 238t118 68q47 0 47 -49q0 -25 -11 -57l-91 -268q-13 -38 -13 -58q0 -16 9 -16q11 0 31.5 21t46.5 59q6 9 14 3l6 -4
q3 -1 3 -6q0 -8 -10 -21q-45 -64 -90 -95.5t-79 -31.5q-36 0 -36 37q0 26 15 69l91 268q9 29 9 46q0 24 -17 24q-20 0 -57 -46.5t-87 -139.5t-106 -226q-5 -17 -22 -17h-47q-10 0 -15 6.5z" />
    <glyph glyph-name="i" unicode="i" horiz-adv-x="284" 
d="M25 23q0 26 16 68l101 268q14 35 14 56q0 16 -10 16q-12 0 -32.5 -20t-45.5 -58q-6 -9 -14 -3l-6 4q-7 6 -2 14q47 70 95 105t83 35q37 0 37 -38q0 -26 -16 -68l-101 -268q-14 -35 -14 -56q0 -16 10 -16q12 0 32.5 20.5t45.5 57.5q6 9 14 3l6 -4q7 -6 2 -14
q-47 -70 -95 -105t-83 -35q-37 0 -37 38zM244 704.5q18 18.5 40 18.5q18 0 27.5 -10.5t9.5 -30.5q0 -15 -4 -28q-8 -31 -26 -49.5t-39 -18.5q-18 0 -28 11t-10 31q0 15 4 28q8 30 26 48.5z" />
    <glyph glyph-name="j" unicode="j" horiz-adv-x="271" 
d="M-147.5 -185q-18.5 17 -18.5 43q0 10 3 21q7 23 27 42.5t39 19.5t26 -10t7 -28q0 -8 -2 -24l-1 -21q0 -13 3.5 -19t14.5 -6q13 0 24 13.5t23.5 47t34.5 100.5l119 365q13 39 13 58q0 14 -8 14q-10 0 -30.5 -20t-47.5 -57q-6 -9 -14 -3l-6 4q-8 6 -1 14q50 72 95.5 105.5
t82.5 33.5q36 0 36 -37q0 -24 -15 -69l-121 -357q-39 -118 -96.5 -182.5t-129.5 -64.5q-39 0 -57.5 17zM250 704.5q18 18.5 40 18.5q18 0 27.5 -10.5t9.5 -30.5q0 -15 -4 -28q-8 -31 -26 -49.5t-39 -18.5q-18 0 -28 11t-10 31q0 15 4 28q8 30 26 48.5z" />
    <glyph glyph-name="k" unicode="k" horiz-adv-x="490" 
d="M-11.5 3q-2.5 3 -1.5 8l197 642q3 9 3 16q0 26 -33 36q-7 1 -4 10l3 8q4 9 11 10q72 15 121 42q7 4 12 2l4 -2q6 -2 4 -11l-177 -578q63 100 126.5 173t114.5 111t79 38q30 0 44.5 -13.5t14.5 -37.5q0 -10 -3 -24q-7 -24 -22 -37.5t-37 -13.5q-15 0 -22 5t-14 16
q-6 9 -11.5 13.5t-16.5 4.5q-17 0 -50.5 -26.5t-76.5 -76.5l55 -206q8 -29 16 -42.5t19 -13.5q13 0 32 19.5t50 64.5q6 9 14 3l6 -4q3 -1 3 -6q0 -8 -10 -21q-47 -70 -78 -98.5t-61 -28.5q-27 0 -44 22.5t-29 78.5l-34 153q-52 -76 -94 -149l-25 -82q-3 -8 -12 -8h-66
q-5 0 -7.5 3z" />
    <glyph glyph-name="l" unicode="l" horiz-adv-x="251" 
d="M5 -6.5q-8 8.5 -8 26.5q0 26 15 72l172 561q3 9 3 16q0 26 -33 36q-7 1 -4 10l3 8q3 9 10 10q73 15 122 42q7 4 12 2l4 -2q6 -2 4 -11l-192 -630q-12 -39 -12 -57q0 -17 9 -17q11 0 31 21t46 59q6 9 14 3l6 -4q3 -1 3 -6q0 -8 -10 -21q-45 -64 -90 -95.5t-79 -31.5
q-18 0 -26 8.5z" />
    <glyph glyph-name="m" unicode="m" horiz-adv-x="808" 
d="M42 6.5q-5 6.5 -2 16.5l102 336q12 39 12 56t-9 17q-11 0 -32 -22t-45 -57q-6 -9 -14 -3l-6 4q-7 6 -2 14q47 70 95 105t83 35q18 0 26 -8.5t8 -25.5q0 -25 -15 -72l-64 -209q67 130 128.5 200t104 92.5t68.5 22.5q48 0 48 -50q0 -23 -12 -56l-52 -144q84 146 152.5 198
t108.5 52q47 0 47 -49q0 -25 -11 -57l-91 -268q-13 -38 -13 -58q0 -16 9 -16q11 0 31.5 21t46.5 59q6 9 14 3l6 -4q3 -1 3 -6q0 -8 -10 -21q-45 -64 -90 -95.5t-79 -31.5q-36 0 -36 37q0 26 15 69l91 268q9 29 9 46q0 25 -17 25q-18 0 -61.5 -46.5t-100 -140t-112.5 -227.5
q-6 -16 -23 -16h-46q-8 0 -13 4t-5 11l2 8l122 336q10 26 10 45q0 13 -5 19.5t-13 6.5q-17 0 -62.5 -46.5t-104 -140t-113.5 -226.5q-8 -17 -22 -17h-46q-10 0 -15 6.5z" />
    <glyph glyph-name="n" unicode="n" horiz-adv-x="533" 
d="M277 22q0 26 15 69l91 268q9 29 9 46q0 26 -14 26q-18 0 -56.5 -47.5t-90 -141.5t-106.5 -225q-8 -17 -22 -17h-46q-10 0 -15 6.5t-2 16.5l102 336q12 39 12 56t-9 17q-11 0 -32 -22t-45 -57q-6 -9 -14 -3l-6 4q-7 6 -2 14q47 70 95 105t83 35q18 0 26 -8.5t8 -25.5
q0 -25 -15 -72l-61 -198q83 169 150 236.5t118 67.5q47 0 47 -49q0 -25 -11 -57l-91 -268q-13 -38 -13 -58q0 -16 9 -16q11 0 31.5 21t46.5 59q6 9 14 3l6 -4q3 -1 3 -6q0 -8 -10 -21q-45 -64 -90 -95.5t-79 -31.5q-36 0 -36 37z" />
    <glyph glyph-name="o" unicode="o" horiz-adv-x="438" 
d="M52 28q-38 43 -38 119q0 70 34 155.5t97.5 145.5t147.5 60q58 0 93.5 -42.5t35.5 -117.5q0 -70 -33 -156t-95 -146.5t-143 -60.5q-61 0 -99 43zM120.5 40.5q14.5 -27.5 38.5 -27.5q36 0 75.5 48t66.5 130t29 178q1 59 -12 84.5t-34 26.5q-38 0 -80 -52t-70 -135.5
t-28 -170.5q0 -54 14.5 -81.5z" />
    <glyph glyph-name="p" unicode="p" horiz-adv-x="491" 
d="M-89.5 -215.5q-1.5 2.5 1.5 9.5l2 5q3 7 6 10t10 4q19 5 35.5 18.5t22.5 31.5l152 496q12 39 12 57q0 17 -9 17q-11 0 -31 -21t-46 -59q-6 -9 -14 -3l-6 4q-3 2 -3 6q0 8 10 21q45 64 90 95.5t79 31.5q18 0 26 -8.5t8 -26.5q0 -25 -15 -72l-24 -77q49 87 98.5 135.5
t88.5 48.5q42 0 63.5 -31.5t19.5 -90.5q-4 -90 -45.5 -184t-109.5 -155.5t-148 -61.5q-35 0 -67 10l-41 -132q-2 -8 -2 -12q0 -14 10.5 -25t25.5 -14q9 -2 4 -13l-2 -5q-3 -7 -5.5 -9.5t-7.5 -2.5q-23 0 -47 3q-28 2 -43 2q-14 0 -44 -2q-24 -3 -48 -3q-5 0 -6.5 2.5z
M154 23q12 -10 33 -10q53 0 101 70t77.5 164t29.5 155q0 25 -6 38.5t-22 13.5q-22 1 -63 -49.5t-86.5 -140t-79.5 -198.5l-4 -14q8 -19 20 -29z" />
    <glyph glyph-name="q" unicode="q" horiz-adv-x="447" 
d="M156 -228l129 423q-52 -99 -105.5 -154.5t-95.5 -55.5t-63.5 31.5t-19.5 90.5q4 90 45.5 184t109.5 155.5t148 61.5q62 0 114 -31q14 -9 20 -17.5t6 -20.5q0 -10 -5 -28l-162 -528q-3 -9 -3 -16q0 -26 32 -36q6 -1 4 -10l-2 -8q-2 -8 -11 -10q-71 -14 -121 -42
q-6 -4 -12 -2l-4 2q-6 3 -4 11zM99 52.5q6 -13.5 22 -13.5q22 -1 64 52t88.5 145.5t80.5 204.5q-8 19 -20 29t-33 10q-53 0 -101 -70t-77.5 -164t-29.5 -155q0 -25 6 -38.5z" />
    <glyph glyph-name="r" unicode="r" horiz-adv-x="423" 
d="M42 6.5q-5 6.5 -2 16.5l102 336q12 39 12 56t-9 17q-11 0 -32 -22t-45 -57q-6 -9 -14 -3l-6 4q-7 6 -2 14q47 70 95 105t83 35q18 0 26 -8t8 -25q0 -25 -15 -73l-58 -190q59 127 98.5 190.5t69 84.5t65.5 21q30 0 44.5 -13.5t14.5 -37.5q0 -10 -3 -24q-7 -24 -22 -37.5
t-37 -13.5q-15 0 -22 5.5t-13 15.5q-6 9 -11 13.5t-16 4.5q-17 0 -41.5 -31.5t-69.5 -120t-117 -252.5q-6 -17 -22 -17h-46q-10 0 -15 6.5z" />
    <glyph glyph-name="s" unicode="s" horiz-adv-x="364" 
d="M24 8.5q-35 23.5 -35 63.5q0 30 18 47.5t44 17.5q25 0 31.5 -14.5t6.5 -43.5q0 -33 8 -49.5t40 -16.5q42 0 69.5 30.5t27.5 69.5q0 37 -18.5 65.5t-56.5 68.5q-36 38 -53.5 65t-17.5 61q0 33 17.5 64t51.5 51t81 20q60 0 95.5 -23t35.5 -65q0 -27 -17 -42.5t-42 -15.5
q-23 0 -28.5 13.5t-5.5 40.5q0 31 -8 47.5t-39 16.5q-24 0 -41 -22t-17 -53q0 -24 14.5 -45t44.5 -52q40 -41 61 -74t21 -79q0 -49 -25 -87.5t-69 -60.5t-101 -22q-58 0 -93 23.5z" />
    <glyph glyph-name="t" unicode="t" horiz-adv-x="303" 
d="M28.5 -1.5q-13.5 13.5 -13.5 41.5q0 21 9 51l110 357q-14 0 -23.5 -1t-16.5 -1q-8 0 -10 3t0 9l1 4q1 5 6.5 8.5t14.5 7.5q58 25 138 124q4 5 13 2l4 -2q6 -3 3 -11l-30 -100q38 1 74 4h6q11 0 14 -3t1 -10l-5 -16q-5 -17 -29 -17l-74 1l-1 -4l-94 -312q-9 -28 -9 -50
q0 -25 17 -25q18 0 48 25t56 56q8 9 15 3l6 -4q3 -1 3 -6q0 -9 -10 -20q-51 -64 -102 -96t-85 -32q-23 0 -36.5 13.5z" />
    <glyph glyph-name="u" unicode="u" horiz-adv-x="530" 
d="M282 -6.5q-8 8.5 -8 25.5q0 26 15 72l62 200q-153 -306 -261 -306q-24 0 -37.5 16.5t-13.5 47.5q0 37 19 88l82 222q14 38 14 58q0 16 -10 16q-11 0 -31.5 -21t-46.5 -59q-6 -9 -14 -3l-6 4q-3 2 -3 6q0 8 10 21q45 64 90 95.5t79 31.5q37 0 37 -38q0 -26 -16 -68
l-93 -253q-13 -36 -13 -55q0 -22 18 -22q32 0 96 97t159 314q6 17 22 17h46q10 0 15 -6.5t2 -16.5l-105 -343q-13 -42 -13 -61q0 -16 9 -16q11 0 32 23.5t46 59.5q6 9 14 3l6 -4q7 -6 2 -14q-47 -70 -95 -105t-83 -35q-18 0 -26 8.5z" />
    <glyph glyph-name="v" unicode="v" horiz-adv-x="452" 
d="M69 -1.5q-16 13.5 -16 44.5t19 94l68 222q12 39 12 58q0 16 -9 16q-10 0 -30 -21t-47 -59q-6 -9 -14 -3l-6 4q-3 2 -3 6q0 8 10 21q45 64 90 95.5t79 31.5q35 0 35 -37q0 -24 -14 -69l-70 -229q-22 -70 -22 -97q0 -16 7 -23t20 -7q40 0 88.5 48.5t82.5 119.5t34 134
q0 22 -7 35t-22 30q-12 12 -18 22.5t-6 24.5q0 17 18 32.5t40 15.5q33 0 52.5 -21t19.5 -58q0 -77 -53.5 -183.5t-133.5 -183.5t-153 -77q-35 0 -51 13.5z" />
    <glyph glyph-name="w" unicode="w" horiz-adv-x="676" 
d="M306.5 5q-18.5 20 -18.5 62q0 34 13 80q-101 -162 -199 -162q-62 0 -62 64q0 35 19 88l81 222q14 38 14 58q0 16 -9 16q-11 0 -32 -21t-47 -59q-6 -9 -14 -3l-6 4q-3 2 -3 6q0 8 10 21q45 64 90 95.5t79 31.5q37 0 37 -38q0 -23 -16 -68l-83 -229q-24 -65 -24 -96
q0 -17 6.5 -24t19.5 -7q35 0 82.5 65.5t105.5 193.5l54 178q5 17 22 17h49q8 0 13 -4.5t5 -11.5q0 -3 -2 -9q-62 -185 -87 -271.5t-25 -121.5q0 -22 9 -29t27 -7q34 0 79.5 47.5t78.5 118t33 136.5q0 22 -7 35t-22 30q-12 12 -18 22.5t-6 24.5q0 17 18 32.5t40 15.5
q33 0 52.5 -21t19.5 -58q0 -78 -51 -184.5t-128 -183t-149 -76.5q-30 0 -48.5 20z" />
    <glyph glyph-name="x" unicode="x" horiz-adv-x="534" 
d="M273.5 7.5q-17.5 22.5 -25.5 78.5l-15 107q-44 -87 -79 -132.5t-62.5 -60.5t-59.5 -15q-25 0 -40 14.5t-15 38.5q0 12 2 18q7 23 21.5 36t34.5 13q14 0 20.5 -5.5t14.5 -16.5q6 -10 11 -14.5t15 -4.5q22 0 49.5 36.5t79.5 136.5l-21 144q-7 57 -30 57q-27 0 -87 -85
q-6 -9 -14 -3l-6 4q-3 2 -3 6q0 8 10 21q46 68 80 97.5t65 29.5q27 0 42 -22t23 -79l11 -82q41 77 73.5 116.5t59 53t56.5 13.5q25 0 40 -14.5t15 -38.5q0 -12 -2 -18q-7 -23 -21.5 -36t-34.5 -13q-14 0 -20.5 5.5t-14.5 16.5q-6 10 -11 14.5t-15 4.5q-20 0 -45.5 -31.5
t-70.5 -115.5l25 -170q8 -57 30 -57q14 0 34.5 20.5t51.5 64.5q6 9 14 3l6 -4q3 -1 3 -6q0 -8 -10 -21q-47 -70 -78 -98.5t-61 -28.5q-28 0 -45.5 22.5z" />
    <glyph glyph-name="y" unicode="y" horiz-adv-x="467" 
d="M-65 -204.5q-15 14.5 -15 38.5q0 12 2 18q7 24 21 36.5t34 12.5q12 0 19 -5t15 -15q10 -11 17.5 -16t22.5 -5q30 0 75.5 37t95.5 99q-18 189 -33 285.5t-27.5 126.5t-27.5 30q-12 0 -26.5 -17t-50.5 -68q-6 -9 -14 -3l-6 4q-3 2 -3 6q0 8 10 21q47 70 77.5 98.5
t60.5 28.5q27 0 45 -29t34 -119.5t30 -269.5q49 75 80 144.5t31 113.5q0 22 -7 35t-22 30q-12 12 -18 22.5t-6 24.5q0 17 18 32.5t40 15.5q33 0 52.5 -21t19.5 -58q0 -76 -92 -235.5t-211 -286t-201 -126.5q-25 0 -40 14.5z" />
    <glyph glyph-name="z" unicode="z" horiz-adv-x="392" 
d="M163 -3q-72 14 -108 14q-37 0 -56 -13q-5 -3 -7 -3q-4 0 -6.5 3.5t-3.5 4.5l-4 6q-3 5 -3 8q0 5 4 9l313 384q-19 -1 -38.5 2t-24.5 4q-31 7 -57 7q-35 0 -52.5 -11t-35.5 -44q-7 -12 -16 -12h-7q-4 0 -5.5 3t0.5 9l26 64q12 28 21 43.5t25.5 26t43.5 10.5q18 0 63 -9
q66 -11 90 -11q28 0 41 10q5 3 8 3t6 -3.5t4 -4.5l5 -7q3 -4 3 -8q0 -5 -4 -9l-311 -382q34 2 97 -8q44 -6 57 -6q27 0 41 4t28 19.5t29 51.5q5 12 17 12h6q5 0 6 -2.5t-1 -7.5l-39 -92q-16 -37 -33 -56t-48 -19q-16 0 -74 10z" />
    <glyph glyph-name="braceleft" unicode="{" horiz-adv-x="306" 
d="M76 -123.5q-22 18.5 -22 49.5q0 12 5 29q5 14 20 58q3 7 9 23.5t11 34.5q28 93 28 151q0 93 -68 106q-10 1 -7 12l3 10q3 10 14 12q59 10 106.5 67t79.5 160q4 11 14 53q4 22 13 52q16 52 56.5 85.5t91.5 38.5q11 0 8 -12l-3 -11q-3 -10 -15 -12q-26 -5 -42.5 -23
t-26.5 -50q-4 -13 -14 -55q-8 -38 -16 -64q-29 -96 -82.5 -158t-124.5 -87q75 -31 75 -133q0 -55 -22 -127q-9 -29 -22 -60q-13 -33 -23 -66q-6 -18 -6 -32q0 -32 30 -41q10 -3 7 -13l-2 -7q-3 -12 -16 -12q-37 3 -59 21.5z" />
    <glyph glyph-name="bar" unicode="|" horiz-adv-x="65" 
d="M-86.5 -80.5q-3.5 3.5 -1.5 8.5l254 834q2 5 8 8.5t11 3.5h16q6 0 9.5 -3.5t1.5 -8.5l-254 -834q-2 -5 -8 -8.5t-11 -3.5h-16q-6 0 -9.5 3.5z" />
    <glyph glyph-name="braceright" unicode="}" horiz-adv-x="306" 
d="M282 792.5q22 -18.5 22 -49.5q0 -12 -5 -29q-5 -18 -11 -34.5t-9 -23.5q-10 -26 -20 -58q-28 -93 -28 -151q0 -93 68 -106q10 -1 7 -12l-3 -10q-3 -10 -14 -12q-59 -10 -106.5 -67t-79.5 -160q-9 -30 -13 -52q-2 -6 -5.5 -21.5t-8.5 -31.5q-16 -52 -56.5 -85.5
t-91.5 -38.5q-11 0 -8 12l3 11q3 10 15 12q26 5 42.5 23t26.5 50q4 13 14 55q8 38 16 64q29 96 82.5 158t124.5 87q-75 31 -75 133q0 55 22 127q9 29 22 60q13 33 23 66q6 18 6 32q0 32 -30 41q-10 3 -7 13l2 7q3 12 16 12q37 -3 59 -21.5z" />
    <glyph glyph-name="asciitilde" unicode="~" horiz-adv-x="342" 
d="M226 276.5q-20 4.5 -46 13.5q-23 8 -41.5 12.5t-40.5 4.5q-27 0 -41 -26q-5 -8 -11 -4l-9 6q-7 4 -4 10q7 27 27 43t48 16q24 0 41.5 -4.5t43.5 -13.5q24 -9 41.5 -13.5t40.5 -4.5q17 0 28 6.5t18 20.5q5 8 12 3l9 -6q7 -3 4 -11q-6 -28 -26 -42.5t-47 -14.5t-47 4.5z
" />
    <glyph glyph-name="exclamdown" unicode="&#xa1;" horiz-adv-x="145" 
d="M167 505l-104 -462q-15 -63 -69 -63q-20 0 -31 10t-11 27q0 14 8 35l174 453q5 12 16 12h8q12 0 9 -12zM177 715q18 18 40 18q16 -1 25 -11.5t9 -29.5q0 -14 -4 -27q-7 -29 -25 -47t-40 -18q-16 1 -25 12t-9 30q0 12 3 25q8 30 26 48z" />
    <glyph glyph-name="cent" unicode="&#xa2;" horiz-adv-x="380" 
d="M118 82l9 25q-39 14 -59.5 52.5t-20.5 94.5q0 77 37 161t96.5 142t121.5 65l15 44q1 4 6.5 5.5t9.5 -0.5l15 -6q5 -3 8 -7t1 -8l-10 -29q44 -6 71 -30t27 -60q0 -27 -18 -43t-43 -16q-19 0 -27 9.5t-9 21t-1 39.5q0 16 -2 27t-9 18l-146 -432q5 -1 13 -1q32 0 69 26.5
t71 73.5q6 9 15 3l5 -3q10 -6 4 -15q-44 -69 -96.5 -103.5t-98.5 -35.5l-12 -35q-1 -4 -6 -5.5t-11 0.5l-15 5q-13 6 -10 17zM153 184l138 407q-34 -15 -68.5 -71t-57.5 -129.5t-23 -136.5q0 -48 11 -70z" />
    <glyph glyph-name="sterling" unicode="&#xa3;" horiz-adv-x="626" 
d="M-20.5 5q-27.5 20 -27.5 53q0 15 4 28q14 45 55 68t103 23q29 0 59 -10q24 84 33 174h-73q-5 0 -7.5 3.5t-0.5 8.5l5 16q2 5 6 8.5t9 3.5h65q5 62 9.5 94t16.5 72q29 96 96 144t150 48q42 0 88 -13t61 -25q8 -6 8 -15q0 -5 -3 -14l-41 -132q-2 -5 -6 -8.5t-9 -3.5h-7
q-10 0 -10 10q5 163 -102 163q-44 0 -80 -31t-54 -88q-15 -49 -18.5 -89.5t-4.5 -111.5h195q5 0 7.5 -3.5t1.5 -8.5l-5 -16q-5 -12 -16 -12h-184q-4 -83 -24 -150q-11 -37 -28 -67q37 -25 66.5 -37.5t65.5 -12.5q47 0 85 19.5t80 72.5q8 11 18 7l8 -3q5 -1 5 -7q0 -5 -2 -8
l-102 -168h-20q-103 0 -160.5 19t-89.5 50q-30 -33 -66 -52t-75 -19q-57 0 -84.5 20zM43 54q0 -31 32 -31q25 0 45.5 22.5t38.5 75.5q-15 17 -36 17q-24 0 -46 -18t-31 -46q-3 -10 -3 -20z" />
    <glyph glyph-name="yen" unicode="&#xa5;" horiz-adv-x="577" 
d="M97.5 218.5q-2.5 3.5 -1.5 8.5l5 16q1 5 6 8.5t10 3.5h117l-24 393q-3 44 -59 50q-4 1 -4.5 3.5t0.5 9.5l1 5q2 12 13 12q37 0 68 -3q36 -2 53 -2q18 0 52 2q66 3 82 3q5 0 6.5 -2.5t-1.5 -9.5l-2 -5q-3 -7 -6 -9.5t-9 -3.5q-86 -11 -85 -55l17 -347l221 340q11 17 11 28
q0 26 -56 34q-5 1 -6.5 3.5t-0.5 9.5l1 5q2 12 13 12q34 0 61 -3q30 -2 43 -2q9 0 35 2q45 3 51 3q5 0 6.5 -2.5t-1.5 -9.5l-2 -5q-2 -6 -4.5 -9t-6.5 -4q-32 -4 -54.5 -16.5t-37.5 -35.5l-259 -391h121q5 0 7.5 -3.5t0.5 -8.5l-5 -16q-2 -5 -6 -8.5t-9 -3.5h-130l-15 -50
h129q5 0 7.5 -3.5t1.5 -8.5l-5 -16q-1 -5 -6 -8.5t-10 -3.5h-129l-15 -48q-1 -3 -1 -9q0 -14 12 -24.5t32 -13.5q6 -1 3 -13l-1 -5q-2 -12 -13 -12q-29 0 -55 3q-32 2 -49 2t-49 -2q-25 -3 -56 -3q-5 0 -5.5 2.5t0.5 9.5l1 5q2 11 16 14q25 5 44 18.5t25 31.5l14 44h-128
q-5 0 -7.5 3.5t-0.5 8.5l5 16q2 5 6 8.5t9 3.5h128l15 50h-127q-5 0 -7.5 3.5z" />
    <glyph glyph-name="section" unicode="&#xa7;" horiz-adv-x="358" 
d="M4.5 8.5q-36.5 23.5 -36.5 63.5q0 30 18 47.5t44 17.5q25 0 31.5 -14t7.5 -42q1 -33 11 -50.5t46 -17.5q42 0 69.5 30.5t27.5 69.5q0 37 -19.5 65.5t-59.5 68.5q-38 36 -57 63.5t-19 61.5q0 47 32 85.5t92 47.5q-23 24 -35.5 47.5t-12.5 49.5q0 34 17.5 65t53.5 51t88 20
q65 0 102 -23t37 -65q0 -27 -17 -42.5t-42 -15.5t-31.5 13.5t-6.5 41.5q0 31 -9 47t-42 16q-31 0 -49.5 -21.5t-18.5 -53.5q0 -24 15.5 -45t48.5 -52q43 -42 65 -74.5t22 -78.5q0 -51 -26.5 -90.5t-72.5 -59.5q23 -38 23 -80q0 -49 -25 -87.5t-69 -60.5t-101 -22
q-65 0 -101.5 23.5zM165.5 360q15.5 -21 48.5 -53q25 -24 44 -45q19 14 30 36t11 45q0 38 -20 66.5t-62 70.5q-31 -1 -49 -22t-18 -53q0 -24 15.5 -45z" />
    <glyph glyph-name="dieresis" unicode="&#xa8;" horiz-adv-x="277" 
d="M219 826.5q-9 10.5 -9 29.5q0 14 4 27q7 29 25 47t40 18q16 -1 25 -12t9 -30q0 -11 -3 -25q-8 -30 -26 -48t-40 -18q-16 1 -25 11.5zM359 826.5q-9 10.5 -9 29.5q0 14 4 27q7 29 25 47t40 18q16 -1 25 -12t9 -30q0 -11 -3 -25q-8 -30 -26 -48t-40 -18q-16 1 -25 11.5z
" />
    <glyph glyph-name="copyright" unicode="&#xa9;" horiz-adv-x="722" 
d="M159 -5.5q-58 36.5 -89 102t-31 149.5q0 62 18 129q29 111 98 202.5t160 144.5t184 53q77 0 134.5 -37t89 -102.5t31.5 -149.5q0 -65 -17 -127q-30 -111 -98.5 -203t-159.5 -145t-184 -53q-78 0 -136 36.5zM77 256q0 -76 27.5 -135t79.5 -92t121 -33q82 0 163.5 48.5
t143 132t88.5 183.5q16 60 16 118q0 76 -28 134.5t-79.5 91.5t-119.5 33q-83 0 -164.5 -48t-143 -131t-88.5 -184q-16 -60 -16 -118zM224 421q40 87 103 144.5t127 57.5q57 0 92.5 -24.5t35.5 -67.5q0 -27 -18 -43t-43 -16q-19 0 -27 10t-9 21.5t-1 39.5q0 25 -7 38.5
t-29 13.5q-37 0 -76.5 -56.5t-66 -138.5t-26.5 -151q0 -95 61 -95q32 0 69 26.5t71 73.5q6 9 15 3l5 -3q10 -6 4 -15q-44 -70 -97 -104.5t-100 -34.5q-59 0 -91 41.5t-32 112.5q0 80 40 167z" />
    <glyph glyph-name="guillemotleft" unicode="&#xab;" horiz-adv-x="576" 
d="M38 246l4 16q3 8 13 14l294 153q3 2 8 2q6 0 8 -5l2 -6l1 -4q0 -7 -9 -13l-258 -149l166 -149q3 -3 3 -7q0 -5 -5 -10l-6 -6q-4 -4 -9 -5t-9 2l-200 153q-6 5 -3 14zM248 246l4 16q3 8 13 14l294 153q3 2 8 2q6 0 8 -5l2 -6l1 -4q0 -7 -9 -13l-258 -149l166 -149
q3 -3 3 -7q0 -5 -5 -10l-6 -6q-4 -4 -9 -5t-9 2l-200 153q-6 5 -3 14z" />
    <glyph glyph-name="registered" unicode="&#xae;" horiz-adv-x="336" 
d="M145 439q-30 35 -30 91q0 28 7 55q13 48 43.5 88t70 63t79.5 23q49 0 79 -35.5t30 -90.5q0 -27 -7 -54q-13 -48 -43 -88t-69.5 -63.5t-79.5 -23.5q-50 0 -80 35zM140 537q0 -47 25 -76.5t67 -29.5q51 0 97.5 42.5t63.5 105.5q6 26 6 48q0 46 -25 75.5t-66 29.5
q-52 0 -98.5 -42.5t-63.5 -104.5q-6 -25 -6 -48zM179 495q1 2 4 4q15 3 18 13l45 146v3q0 7 -10 10q-3 0 -2 3v2q2 3 3 3l34 -1l23 1q22 0 34 -10.5t12 -26.5q0 -4 -2 -14q-12 -38 -56 -46q9 -4 12 -12t5 -24q2 -27 7.5 -36t14.5 -11q3 0 1 -3v-1q-1 -3 -3 -3
q-10 0 -15.5 -0.5t-9.5 -0.5q-11 0 -16 9.5t-6 36.5q-2 23 -6.5 32.5t-14.5 10.5l-4 1l-21 -69v-3q0 -8 11 -10q2 -2 1 -4v-1q-1 -3 -4 -3l-26 1l-28 -1q-2 0 -1 3v1zM269 587q30 0 42 41q2 6 2 15q0 12 -6 19.5t-16 7.5h-3q-5 0 -10.5 -3.5t-6.5 -8.5l-21 -69q12 -2 19 -2z
" />
    <glyph glyph-name="macron" unicode="&#xaf;" horiz-adv-x="309" 
d="M187.5 794.5q-0.5 3.5 1.5 8.5l7 16q5 12 13 12h251q3 0 4 -3.5t-1 -8.5l-7 -16q-2 -5 -6 -8.5t-8 -3.5h-250q-4 0 -4.5 3.5z" />
    <glyph glyph-name="degree" unicode="&#xb0;" horiz-adv-x="215" 
d="M145 528q-17 19 -17 53q0 20 6 44q14 53 45.5 84t71.5 31q31 0 48 -19.5t17 -53.5q0 -19 -6 -43q-14 -53 -45.5 -84t-70.5 -31q-32 0 -49 19zM179 583q0 -37 24 -39q16 0 30.5 21t24.5 56q7 25 7 46q0 37 -23 39q-16 0 -31 -20.5t-25 -56.5q-7 -31 -7 -46z" />
    <glyph glyph-name="plusminus" unicode="&#xb1;" horiz-adv-x="495" 
d="M45.5 63.5q-3.5 3.5 -3.5 8.5v16q0 5 3.5 8.5t8.5 3.5h354q5 0 8.5 -3.5t3.5 -8.5v-16q0 -5 -3.5 -8.5t-8.5 -3.5h-354q-5 0 -8.5 3.5zM42 319q0 10 12 10h157v129q0 5 3.5 8.5t8.5 3.5h16q5 0 8.5 -3.5t3.5 -8.5v-129h157q12 0 12 -10v-16q0 -10 -12 -10h-157v-129
q0 -5 -3.5 -8.5t-8.5 -3.5h-16q-5 0 -8.5 3.5t-3.5 8.5v129h-157q-12 0 -12 10v16z" />
    <glyph glyph-name="acute" unicode="&#xb4;" horiz-adv-x="192" 
d="M189 801q0 5 7 13l46 65q44 64 60 79q19 17 36 17q16 0 28 -12q13 -13 13 -29q0 -19 -18 -39q-26 -26 -146 -105q-5 -4 -11 -4q-5 0 -8 3l-4 5q-3 3 -3 7z" />
    <glyph glyph-name="periodcentered" unicode="&#xb7;" horiz-adv-x="145" 
d="M61 296.5q-9 10.5 -9 29.5q0 14 4 27q7 29 25 47t40 18q16 -1 25 -12t9 -30q0 -11 -3 -25q-8 -30 -26 -48t-40 -18q-16 1 -25 11.5z" />
    <glyph glyph-name="cedilla" unicode="&#xb8;" horiz-adv-x="226" 
d="M-82 -216.5q-21 10.5 -29 26.5q-2 4 -2 5q0 5 9 12l5 4q4 4 7 4t8 -5q7 -7 20 -12t28 -5q27 0 45.5 19.5t18.5 44.5q0 38 -62 41l49 95l35 -4l-33 -63q36 -5 54.5 -21.5t18.5 -40.5q0 -13 -4 -25q-12 -40 -42.5 -63t-72.5 -23q-32 0 -53 10.5z" />
    <glyph glyph-name="guillemotright" unicode="&#xbb;" horiz-adv-x="575" 
d="M540 262l-4 -16q-3 -8 -13 -14l-294 -153q-3 -2 -8 -2t-8 5l-2 6l-1 4q0 7 9 13l258 149l-166 149q-3 3 -3 7q0 5 5 10l6 6q4 4 9 5t9 -2l200 -153q6 -5 3 -14zM0 92q0 7 9 13l258 149l-166 149q-3 3 -3 7q0 5 5 10l6 6q4 4 9 5t9 -2l200 -153q6 -5 3 -14l-4 -16
q-3 -8 -13 -14l-294 -153q-3 -2 -8 -2t-8 5l-2 6z" />
    <glyph glyph-name="questiondown" unicode="&#xbf;" horiz-adv-x="329" 
d="M292 521.5q5 -9.5 5 -28.5q0 -50 -28 -94t-82 -104q-38 -44 -61 -74t-39 -66.5t-16 -75.5q0 -31 10.5 -47.5t35.5 -16.5q21 0 33.5 11.5t27.5 34.5q13 20 23.5 30t26.5 10q18 0 27.5 -10t9.5 -27q0 -33 -37 -57t-88 -24q-75 0 -115 32t-40 83q0 47 20.5 85.5t50 67
t78.5 68.5q46 37 73 63t44 59t15 73q0 9 13 14q8 3 13 -6.5zM308 720q18 18 40 18q16 -1 25 -11.5t9 -29.5q0 -14 -4 -27q-7 -29 -25 -47t-40 -18q-16 1 -25 12t-9 30q0 12 3 25q8 30 26 48z" />
    <glyph glyph-name="Agrave" unicode="&#xc0;" horiz-adv-x="614" 
d="M-61 12l2 5q5 12 12 13q73 9 103 59l373 629q7 10 16 10h11q11 0 11 -10v-637q0 -44 59 -50q4 -1 4.5 -3.5t-0.5 -9.5l-1 -5q-2 -12 -13 -12q-38 0 -68 3q-36 2 -54 2q-21 0 -57 -2q-28 -3 -61 -3q-5 0 -6.5 2.5t1.5 9.5l2 5q3 7 6 9.5t9 3.5q33 6 56.5 20t24.5 35l4 182
h-171l-104 -176q-10 -16 -10 -29t13 -21t40 -12q13 -2 8 -13l-2 -5q-3 -7 -5.5 -9.5t-6.5 -2.5q-8 0 -65 3q-30 2 -40 2q-9 0 -35 -2q-23 -3 -50 -3q-11 0 -6 12zM374 301l5 269l-158 -269h153zM505 774q-4 0 -11 4q-110 72 -146 105q-18 20 -18 40q0 16 13 28q10 13 26 13
q19 0 38 -18q16 -15 60 -79l46 -65q6 -8 6.5 -12t-2.5 -8l-4 -5q-3 -3 -8 -3z" />
    <glyph glyph-name="Aacute" unicode="&#xc1;" horiz-adv-x="614" 
d="M-61 12l2 5q5 12 12 13q73 9 103 59l373 629q7 10 16 10h11q11 0 11 -10v-637q0 -44 59 -50q4 -1 4.5 -3.5t-0.5 -9.5l-1 -5q-2 -12 -13 -12q-38 0 -68 3q-36 2 -54 2q-21 0 -57 -2q-28 -3 -61 -3q-5 0 -6.5 2.5t1.5 9.5l2 5q3 7 6 9.5t9 3.5q33 6 56.5 20t24.5 35l4 182
h-171l-104 -176q-10 -16 -10 -29t13 -21t40 -12q13 -2 8 -13l-2 -5q-3 -7 -5.5 -9.5t-6.5 -2.5q-8 0 -65 3q-30 2 -40 2q-9 0 -35 -2q-23 -3 -50 -3q-11 0 -6 12zM374 301l5 269l-158 -269h153zM398 789q0 5 7 13l46 65q44 64 60 79q19 17 36 17q16 0 28 -12q13 -13 13 -29
q0 -19 -18 -39q-26 -26 -146 -105q-5 -4 -11 -4q-5 0 -8 3l-4 5q-3 3 -3 7z" />
    <glyph glyph-name="Acircumflex" unicode="&#xc2;" horiz-adv-x="614" 
d="M-61 12l2 5q5 12 12 13q73 9 103 59l373 629q7 10 16 10h11q11 0 11 -10v-637q0 -44 59 -50q4 -1 4.5 -3.5t-0.5 -9.5l-1 -5q-2 -12 -13 -12q-38 0 -68 3q-36 2 -54 2q-21 0 -57 -2q-28 -3 -61 -3q-5 0 -6.5 2.5t1.5 9.5l2 5q3 7 6 9.5t9 3.5q33 6 56.5 20t24.5 35l4 182
h-171l-104 -176q-10 -16 -10 -29t13 -21t40 -12q13 -2 8 -13l-2 -5q-3 -7 -5.5 -9.5t-6.5 -2.5q-8 0 -65 3q-30 2 -40 2q-9 0 -35 -2q-23 -3 -50 -3q-11 0 -6 12zM374 301l5 269l-158 -269h153zM355 784q0 7 7 14l134 138q7 8 17 8h16q8 0 11 -8l50 -138q1 -1 1 -4
q0 -8 -12 -17l-4 -3q-8 -4 -11 -4q-6 0 -10 7l-52 108l-118 -108q-7 -6 -13 -6q-5 0 -8 3l-4 3q-4 3 -4 7z" />
    <glyph glyph-name="Atilde" unicode="&#xc3;" horiz-adv-x="614" 
d="M-61 12l2 5q5 12 12 13q73 9 103 59l373 629q7 10 16 10h11q11 0 11 -10v-637q0 -44 59 -50q4 -1 4.5 -3.5t-0.5 -9.5l-1 -5q-2 -12 -13 -12q-38 0 -68 3q-36 2 -54 2q-21 0 -57 -2q-28 -3 -61 -3q-5 0 -6.5 2.5t1.5 9.5l2 5q3 7 6 9.5t9 3.5q33 6 56.5 20t24.5 35l4 182
h-171l-104 -176q-10 -16 -10 -29t13 -21t40 -12q13 -2 8 -13l-2 -5q-3 -7 -5.5 -9.5t-6.5 -2.5q-8 0 -65 3q-30 2 -40 2q-9 0 -35 -2q-23 -3 -50 -3q-11 0 -6 12zM374 301l5 269l-158 -269h153zM496 785q-12 5 -29 14q-16 8 -25.5 12t-21.5 4q-27 0 -48 -26q-8 -8 -13 -4
l-7 6q-5 4 -2 10q16 27 41 43t53 16q14 0 24.5 -4.5t24.5 -13.5t24 -13.5t23 -4.5q33 0 54 27q8 8 13 3l8 -6q5 -3 1 -11q-16 -28 -40 -42.5t-51 -14.5q-17 0 -29 5z" />
    <glyph glyph-name="Adieresis" unicode="&#xc4;" horiz-adv-x="614" 
d="M-61 12l2 5q5 12 12 13q73 9 103 59l373 629q7 10 16 10h11q11 0 11 -10v-637q0 -44 59 -50q4 -1 4.5 -3.5t-0.5 -9.5l-1 -5q-2 -12 -13 -12q-38 0 -68 3q-36 2 -54 2q-21 0 -57 -2q-28 -3 -61 -3q-5 0 -6.5 2.5t1.5 9.5l2 5q3 7 6 9.5t9 3.5q33 6 56.5 20t24.5 35l4 182
h-171l-104 -176q-10 -16 -10 -29t13 -21t40 -12q13 -2 8 -13l-2 -5q-3 -7 -5.5 -9.5t-6.5 -2.5q-8 0 -65 3q-30 2 -40 2q-9 0 -35 -2q-23 -3 -50 -3q-11 0 -6 12zM374 301l5 269l-158 -269h153zM377 814.5q-9 10.5 -9 29.5q0 14 4 27q7 29 25 47t40 18q16 -1 25 -12t9 -30
q0 -11 -3 -25q-8 -30 -26 -48t-40 -18q-16 1 -25 11.5zM517 814.5q-9 10.5 -9 29.5q0 14 4 27q7 29 25 47t40 18q16 -1 25 -12t9 -30q0 -11 -3 -25q-8 -30 -26 -48t-40 -18q-16 1 -25 11.5z" />
    <glyph glyph-name="Aring" unicode="&#xc5;" horiz-adv-x="614" 
d="M-61 12l2 5q5 12 12 13q73 9 103 59l373 629l4 5q-35 17 -35 67q0 19 6 43q14 53 45.5 84t71.5 31q31 0 48 -19.5t17 -53.5q0 -19 -6 -43q-13 -52 -44 -82.5t-69 -32.5v-636q0 -44 59 -50q4 -1 4.5 -3.5t-0.5 -9.5l-1 -5q-2 -12 -13 -12q-38 0 -68 3q-36 2 -54 2
q-21 0 -57 -2q-28 -3 -61 -3q-5 0 -6.5 2.5t1.5 9.5l2 5q3 7 6 9.5t9 3.5q33 6 56.5 20t24.5 35l4 182h-171l-104 -176q-10 -16 -10 -29t13 -21t40 -12q13 -2 8 -13l-2 -5q-3 -7 -5.5 -9.5t-6.5 -2.5q-8 0 -65 3q-30 2 -40 2q-9 0 -35 -2q-23 -3 -50 -3q-11 0 -6 12z
M374 301l5 269l-158 -269h153zM449 791q0 -37 24 -39q16 0 30.5 21t24.5 56q7 25 7 46q0 37 -23 39q-16 0 -31 -20.5t-25 -56.5q-7 -31 -7 -46z" />
    <glyph glyph-name="AE" unicode="&#xc6;" horiz-adv-x="829" 
d="M-61 12l2 5q5 12 12 13q65 8 103 59l460 623q7 10 13 13t18 3h1q8 0 42.5 -1.5t110.5 -1.5l108 1q54 2 93 2q19 0 27 -3.5t8 -11.5q0 -6 -3 -17l-42 -136q-1 -4 -4.5 -6.5t-6.5 -2.5h-8q-8 0 -7 12q2 12 2 34q0 54 -33.5 75t-113.5 21h-31q-25 0 -42 -12t-24 -34
l-78 -257h111q34 0 62.5 22t45.5 64q3 9 15 9h5q12 0 9 -9l-14 -41q-10 -27 -20 -60l-13 -46q-4 -16 -16 -57q-2 -5 -4.5 -7t-9.5 -2h-5q-6 0 -8 3t-1 10q3 14 3 24q0 29 -16 43.5t-45 14.5h-109l-84 -275q-2 -8 -2 -12q0 -17 13 -26.5t35 -9.5h36q61 0 101 12t68.5 39.5
t52.5 78.5q5 12 14 12h8q4 0 5.5 -2.5t0.5 -6.5l-42 -136q-6 -19 -15.5 -25.5t-35.5 -6.5l-88 1q-78 2 -123 2q-82 0 -158 -2q-21 -1 -49 -1q-5 0 -5.5 2.5t0.5 9.5l1 5q2 11 16 14q24 4 42.5 15t23.5 28l59 194h-177l-129 -176q-12 -16 -12 -29q0 -25 55 -33q13 -2 8 -13
l-2 -5q-3 -7 -5.5 -9.5t-6.5 -2.5q-8 0 -68 3q-32 2 -43 2q-9 0 -35 -2q-23 -3 -50 -3q-11 0 -6 12zM420 301l108 352l9 31l-280 -383h163z" />
    <glyph glyph-name="Ccedilla" unicode="&#xc7;" horiz-adv-x="511" 
d="M115 -226.5q-21 10.5 -29 26.5q-2 4 -2 5q0 5 9 12l5 4q4 4 7 4t8 -5q7 -7 20 -12t28 -5q27 0 45.5 19.5t18.5 44.5q0 38 -62 41l40 78q-79 5 -123 60.5t-44 163.5q0 124 47.5 246.5t135 202t199.5 79.5q41 0 82.5 -11t60.5 -26q7 -6 7 -15q0 -6 -3 -14l-40 -132
q-1 -5 -5.5 -8.5t-9.5 -3.5h-7q-11 0 -11 10q3 90 -19.5 129.5t-69.5 39.5q-68 0 -129 -76.5t-98 -189.5t-37 -213t32 -143t92 -43q42 0 81.5 20.5t81.5 61.5q5 5 11 5t10 -4l2 -2q3 -3 3 -6q0 -5 -8 -15q-93 -108 -204 -116l-26 -50q36 -5 54.5 -21.5t18.5 -40.5
q0 -13 -4 -25q-12 -40 -42.5 -63t-72.5 -23q-32 0 -53 10.5z" />
    <glyph glyph-name="Egrave" unicode="&#xc8;" horiz-adv-x="498" 
d="M-63.5 2.5q-0.5 2.5 0.5 9.5l1 5q2 11 16 14q24 4 42.5 15t23.5 28l177 579q1 3 1 8q0 13 -11 22.5t-29 13.5q-13 4 -8 14l2 5q3 8 5.5 10t6.5 2q28 0 49 -1q74 -2 157 -2l108 1q54 2 93 2q19 0 27 -3.5t8 -11.5q0 -6 -3 -17l-42 -136q-1 -4 -4.5 -6.5t-6.5 -2.5h-8
q-8 0 -7 12q2 12 2 34q0 54 -33.5 75t-113.5 21h-31q-25 0 -42 -12t-24 -34l-78 -257h111q34 0 62.5 22t45.5 64q3 9 15 9h5q12 0 9 -9l-14 -41q-10 -27 -20 -60l-13 -46q-4 -16 -16 -57q-2 -5 -4.5 -7t-9.5 -2h-5q-6 0 -8 3t-1 10q3 14 3 24q0 29 -16 43.5t-45 14.5h-109
l-84 -275q-2 -8 -2 -12q0 -17 13 -26.5t35 -9.5h36q61 0 101 12t68.5 39.5t52.5 78.5q5 12 14 12h8q4 0 5.5 -2.5t0.5 -6.5l-42 -136q-6 -19 -15.5 -25.5t-35.5 -6.5l-88 1q-78 2 -123 2q-82 0 -158 -2q-21 -1 -49 -1q-5 0 -5.5 2.5zM453 774q-4 0 -11 4q-110 72 -146 105
q-18 20 -18 40q0 16 13 28q10 13 26 13q19 0 38 -18q16 -15 60 -79l46 -65q6 -8 6.5 -12t-2.5 -8l-4 -5q-3 -3 -8 -3z" />
    <glyph glyph-name="Eacute" unicode="&#xc9;" horiz-adv-x="498" 
d="M-63.5 2.5q-0.5 2.5 0.5 9.5l1 5q2 11 16 14q24 4 42.5 15t23.5 28l177 579q1 3 1 8q0 13 -11 22.5t-29 13.5q-13 4 -8 14l2 5q3 8 5.5 10t6.5 2q28 0 49 -1q74 -2 157 -2l108 1q54 2 93 2q19 0 27 -3.5t8 -11.5q0 -6 -3 -17l-42 -136q-1 -4 -4.5 -6.5t-6.5 -2.5h-8
q-8 0 -7 12q2 12 2 34q0 54 -33.5 75t-113.5 21h-31q-25 0 -42 -12t-24 -34l-78 -257h111q34 0 62.5 22t45.5 64q3 9 15 9h5q12 0 9 -9l-14 -41q-10 -27 -20 -60l-13 -46q-4 -16 -16 -57q-2 -5 -4.5 -7t-9.5 -2h-5q-6 0 -8 3t-1 10q3 14 3 24q0 29 -16 43.5t-45 14.5h-109
l-84 -275q-2 -8 -2 -12q0 -17 13 -26.5t35 -9.5h36q61 0 101 12t68.5 39.5t52.5 78.5q5 12 14 12h8q4 0 5.5 -2.5t0.5 -6.5l-42 -136q-6 -19 -15.5 -25.5t-35.5 -6.5l-88 1q-78 2 -123 2q-82 0 -158 -2q-21 -1 -49 -1q-5 0 -5.5 2.5zM346 789q0 5 7 13l46 65q44 64 60 79
q19 17 36 17q16 0 28 -12q13 -13 13 -29q0 -19 -18 -39q-26 -26 -146 -105q-5 -4 -11 -4q-5 0 -8 3l-4 5q-3 3 -3 7z" />
    <glyph glyph-name="Ecircumflex" unicode="&#xca;" horiz-adv-x="498" 
d="M-63.5 2.5q-0.5 2.5 0.5 9.5l1 5q2 11 16 14q24 4 42.5 15t23.5 28l177 579q1 3 1 8q0 13 -11 22.5t-29 13.5q-13 4 -8 14l2 5q3 8 5.5 10t6.5 2q28 0 49 -1q74 -2 157 -2l108 1q54 2 93 2q19 0 27 -3.5t8 -11.5q0 -6 -3 -17l-42 -136q-1 -4 -4.5 -6.5t-6.5 -2.5h-8
q-8 0 -7 12q2 12 2 34q0 54 -33.5 75t-113.5 21h-31q-25 0 -42 -12t-24 -34l-78 -257h111q34 0 62.5 22t45.5 64q3 9 15 9h5q12 0 9 -9l-14 -41q-10 -27 -20 -60l-13 -46q-4 -16 -16 -57q-2 -5 -4.5 -7t-9.5 -2h-5q-6 0 -8 3t-1 10q3 14 3 24q0 29 -16 43.5t-45 14.5h-109
l-84 -275q-2 -8 -2 -12q0 -17 13 -26.5t35 -9.5h36q61 0 101 12t68.5 39.5t52.5 78.5q5 12 14 12h8q4 0 5.5 -2.5t0.5 -6.5l-42 -136q-6 -19 -15.5 -25.5t-35.5 -6.5l-88 1q-78 2 -123 2q-82 0 -158 -2q-21 -1 -49 -1q-5 0 -5.5 2.5zM303 784q0 7 7 14l134 138q7 8 17 8h16
q8 0 11 -8l50 -138q1 -1 1 -4q0 -8 -12 -17l-4 -3q-8 -4 -11 -4q-6 0 -10 7l-52 108l-118 -108q-7 -6 -13 -6q-5 0 -8 3l-4 3q-4 3 -4 7z" />
    <glyph glyph-name="Edieresis" unicode="&#xcb;" horiz-adv-x="498" 
d="M-63.5 2.5q-0.5 2.5 0.5 9.5l1 5q2 11 16 14q24 4 42.5 15t23.5 28l177 579q1 3 1 8q0 13 -11 22.5t-29 13.5q-13 4 -8 14l2 5q3 8 5.5 10t6.5 2q28 0 49 -1q74 -2 157 -2l108 1q54 2 93 2q19 0 27 -3.5t8 -11.5q0 -6 -3 -17l-42 -136q-1 -4 -4.5 -6.5t-6.5 -2.5h-8
q-8 0 -7 12q2 12 2 34q0 54 -33.5 75t-113.5 21h-31q-25 0 -42 -12t-24 -34l-78 -257h111q34 0 62.5 22t45.5 64q3 9 15 9h5q12 0 9 -9l-14 -41q-10 -27 -20 -60l-13 -46q-4 -16 -16 -57q-2 -5 -4.5 -7t-9.5 -2h-5q-6 0 -8 3t-1 10q3 14 3 24q0 29 -16 43.5t-45 14.5h-109
l-84 -275q-2 -8 -2 -12q0 -17 13 -26.5t35 -9.5h36q61 0 101 12t68.5 39.5t52.5 78.5q5 12 14 12h8q4 0 5.5 -2.5t0.5 -6.5l-42 -136q-6 -19 -15.5 -25.5t-35.5 -6.5l-88 1q-78 2 -123 2q-82 0 -158 -2q-21 -1 -49 -1q-5 0 -5.5 2.5zM325 814.5q-9 10.5 -9 29.5q0 14 4 27
q7 29 25 47t40 18q16 -1 25 -12t9 -30q0 -11 -3 -25q-8 -30 -26 -48t-40 -18q-16 1 -25 11.5zM465 814.5q-9 10.5 -9 29.5q0 14 4 27q7 29 25 47t40 18q16 -1 25 -12t9 -30q0 -11 -3 -25q-8 -30 -26 -48t-40 -18q-16 1 -25 11.5z" />
    <glyph glyph-name="Igrave" unicode="&#xcc;" horiz-adv-x="246" 
d="M-63.5 2.5q-0.5 2.5 0.5 9.5l1 5q2 11 16 14q25 5 44 18.5t25 31.5l173 566q2 8 2 12q0 14 -11 24t-29 14q-5 2 -6.5 4.5t-0.5 9.5l1 5q2 12 13 12q29 0 54 -3q32 -2 48 -2t50 2q27 3 57 3q5 0 5.5 -2.5t-0.5 -9.5l-1 -5q-2 -11 -12 -13q-26 -4 -46 -16t-25 -29
l-176 -577q-1 -3 -1 -9q0 -14 12 -24t32 -13q6 -1 3 -13l-1 -5q-2 -12 -13 -12q-29 0 -55 3q-32 2 -49 2t-49 -2q-26 -3 -56 -3q-5 0 -5.5 2.5zM319 774q-4 0 -11 4q-110 72 -146 105q-18 20 -18 40q0 16 13 28q10 13 26 13q19 0 38 -18q16 -15 60 -79l46 -65q6 -8 6.5 -12
t-2.5 -8l-4 -5q-3 -3 -8 -3z" />
    <glyph glyph-name="Iacute" unicode="&#xcd;" horiz-adv-x="246" 
d="M-63.5 2.5q-0.5 2.5 0.5 9.5l1 5q2 11 16 14q25 5 44 18.5t25 31.5l173 566q2 8 2 12q0 14 -11 24t-29 14q-5 2 -6.5 4.5t-0.5 9.5l1 5q2 12 13 12q29 0 54 -3q32 -2 48 -2t50 2q27 3 57 3q5 0 5.5 -2.5t-0.5 -9.5l-1 -5q-2 -11 -12 -13q-26 -4 -46 -16t-25 -29
l-176 -577q-1 -3 -1 -9q0 -14 12 -24t32 -13q6 -1 3 -13l-1 -5q-2 -12 -13 -12q-29 0 -55 3q-32 2 -49 2t-49 -2q-26 -3 -56 -3q-5 0 -5.5 2.5zM212 789q0 5 7 13l46 65q44 64 60 79q19 17 36 17q16 0 28 -12q13 -13 13 -29q0 -19 -18 -39q-26 -26 -146 -105q-5 -4 -11 -4
q-5 0 -8 3l-4 5q-3 3 -3 7z" />
    <glyph glyph-name="Icircumflex" unicode="&#xce;" horiz-adv-x="246" 
d="M-63.5 2.5q-0.5 2.5 0.5 9.5l1 5q2 11 16 14q25 5 44 18.5t25 31.5l173 566q2 8 2 12q0 14 -11 24t-29 14q-5 2 -6.5 4.5t-0.5 9.5l1 5q2 12 13 12q29 0 54 -3q32 -2 48 -2t50 2q27 3 57 3q5 0 5.5 -2.5t-0.5 -9.5l-1 -5q-2 -11 -12 -13q-26 -4 -46 -16t-25 -29
l-176 -577q-1 -3 -1 -9q0 -14 12 -24t32 -13q6 -1 3 -13l-1 -5q-2 -12 -13 -12q-29 0 -55 3q-32 2 -49 2t-49 -2q-26 -3 -56 -3q-5 0 -5.5 2.5zM169 784q0 7 7 14l134 138q7 8 17 8h16q8 0 11 -8l50 -138q1 -1 1 -4q0 -8 -12 -17l-4 -3q-8 -4 -11 -4q-6 0 -10 7l-52 108
l-118 -108q-7 -6 -13 -6q-5 0 -8 3l-4 3q-4 3 -4 7z" />
    <glyph glyph-name="Idieresis" unicode="&#xcf;" horiz-adv-x="246" 
d="M-63.5 2.5q-0.5 2.5 0.5 9.5l1 5q2 11 16 14q25 5 44 18.5t25 31.5l173 566q2 8 2 12q0 14 -11 24t-29 14q-5 2 -6.5 4.5t-0.5 9.5l1 5q2 12 13 12q29 0 54 -3q32 -2 48 -2t50 2q27 3 57 3q5 0 5.5 -2.5t-0.5 -9.5l-1 -5q-2 -11 -12 -13q-26 -4 -46 -16t-25 -29
l-176 -577q-1 -3 -1 -9q0 -14 12 -24t32 -13q6 -1 3 -13l-1 -5q-2 -12 -13 -12q-29 0 -55 3q-32 2 -49 2t-49 -2q-26 -3 -56 -3q-5 0 -5.5 2.5zM191 814.5q-9 10.5 -9 29.5q0 14 4 27q7 29 25 47t40 18q16 -1 25 -12t9 -30q0 -11 -3 -25q-8 -30 -26 -48t-40 -18
q-16 1 -25 11.5zM331 814.5q-9 10.5 -9 29.5q0 14 4 27q7 29 25 47t40 18q16 -1 25 -12t9 -30q0 -11 -3 -25q-8 -30 -26 -48t-40 -18q-16 1 -25 11.5z" />
    <glyph glyph-name="Eth" unicode="&#xd0;" horiz-adv-x="557" 
d="M-64 12l2 5q3 7 6.5 9.5t9.5 4.5q24 4 42.5 15t23.5 28l82 267h-55q-4 0 -7 3.5t-3 8.5v16q0 5 3 8.5t7 3.5h67l83 272q1 3 1 8q0 13 -11.5 23t-28.5 13q-7 2 -9 5t1 9l2 5q3 8 5.5 10t6.5 2q25 0 41 -1l74 -1q26 0 38 1l41 1q121 0 176.5 -63t55.5 -174
q0 -91 -41.5 -205.5t-136 -200t-244.5 -85.5l-68 1l-33 1l-89 -1q-15 -1 -36 -1q-11 0 -6 12zM116 60q0 -29 42 -29h22q82 0 149 65.5t108.5 169t51.5 214.5q2 19 2 53q0 85 -30 124.5t-92 39.5h-10q-24 0 -41 -13.5t-25 -36.5l-81 -266h107q9 0 9 -12v-16q0 -12 -9 -12
h-120l-79 -260q-4 -16 -4 -21z" />
    <glyph glyph-name="Ntilde" unicode="&#xd1;" horiz-adv-x="536" 
d="M-68 12l2 5q5 12 12 13q23 4 44 18t27 33l177 566q2 8 2 11q0 15 -12.5 26t-30.5 14q-9 2 -4 13l2 5q3 8 5.5 10t6.5 2q21 -1 62 -1q42 0 62 1l122 -544l145 464q2 6 2 10q0 15 -14 25.5t-42 14.5q-13 2 -8 13l2 5q3 7 5.5 9.5t6.5 2.5q14 0 40 -2q20 -3 40 -3t41 3
q26 2 40 2q11 0 6 -12l-2 -5q-5 -12 -12 -13q-23 -4 -43 -18t-26 -32l-203 -636q-2 -5 -6 -8.5t-9 -3.5h-12q-11 0 -12 8l-132 604l-164 -531q-2 -8 -2 -11q0 -31 55 -40q13 -2 8 -13l-2 -5q-3 -7 -5.5 -9.5t-6.5 -2.5q-22 0 -43 3q-28 2 -43 2q-12 0 -38 -2q-18 -3 -37 -3
q-11 0 -6 12zM439 785q-12 5 -29 14q-16 8 -25.5 12t-21.5 4q-27 0 -48 -26q-8 -8 -13 -4l-7 6q-5 4 -2 10q16 27 41 43t53 16q14 0 24.5 -4.5t24.5 -13.5t24 -13.5t23 -4.5q33 0 54 27q8 8 13 3l8 -6q5 -3 1 -11q-16 -28 -40 -42.5t-51 -14.5q-17 0 -29 5z" />
    <glyph glyph-name="Ograve" unicode="&#xd2;" horiz-adv-x="542" 
d="M74.5 42q-44.5 57 -44.5 159q0 76 25 169q31 114 83.5 197t121 127.5t146.5 44.5q83 0 129 -57t46 -159q0 -74 -23 -159q-50 -187 -144.5 -283t-212.5 -96q-82 0 -126.5 57zM129 175q0 -77 24.5 -117.5t67.5 -40.5q64 0 125.5 85.5t103.5 244.5q32 125 32 210
q0 74 -22.5 112t-62.5 38q-67 0 -129 -79t-108 -253q-31 -118 -31 -200zM457 785q-4 0 -11 4q-110 72 -146 105q-18 20 -18 40q0 16 13 28q10 13 26 13q19 0 38 -18q16 -15 60 -79l46 -65q6 -8 6.5 -12t-2.5 -8l-4 -5q-3 -3 -8 -3z" />
    <glyph glyph-name="Oacute" unicode="&#xd3;" horiz-adv-x="542" 
d="M74.5 42q-44.5 57 -44.5 159q0 76 25 169q31 114 83.5 197t121 127.5t146.5 44.5q83 0 129 -57t46 -159q0 -74 -23 -159q-50 -187 -144.5 -283t-212.5 -96q-82 0 -126.5 57zM129 175q0 -77 24.5 -117.5t67.5 -40.5q64 0 125.5 85.5t103.5 244.5q32 125 32 210
q0 74 -22.5 112t-62.5 38q-67 0 -129 -79t-108 -253q-31 -118 -31 -200zM350 800q0 5 7 13l46 65q44 64 60 79q19 17 36 17q16 0 28 -12q13 -13 13 -29q0 -19 -18 -39q-26 -26 -146 -105q-5 -4 -11 -4q-5 0 -8 3l-4 5q-3 3 -3 7z" />
    <glyph glyph-name="Ocircumflex" unicode="&#xd4;" horiz-adv-x="542" 
d="M74.5 42q-44.5 57 -44.5 159q0 76 25 169q31 114 83.5 197t121 127.5t146.5 44.5q83 0 129 -57t46 -159q0 -74 -23 -159q-50 -187 -144.5 -283t-212.5 -96q-82 0 -126.5 57zM129 175q0 -77 24.5 -117.5t67.5 -40.5q64 0 125.5 85.5t103.5 244.5q32 125 32 210
q0 74 -22.5 112t-62.5 38q-67 0 -129 -79t-108 -253q-31 -118 -31 -200zM307 795q0 7 7 14l134 138q7 8 17 8h16q8 0 11 -8l50 -138q1 -1 1 -4q0 -8 -12 -17l-4 -3q-8 -4 -11 -4q-6 0 -10 7l-52 108l-118 -108q-7 -6 -13 -6q-5 0 -8 3l-4 3q-4 3 -4 7z" />
    <glyph glyph-name="Otilde" unicode="&#xd5;" horiz-adv-x="542" 
d="M74.5 42q-44.5 57 -44.5 159q0 76 25 169q31 114 83.5 197t121 127.5t146.5 44.5q83 0 129 -57t46 -159q0 -74 -23 -159q-50 -187 -144.5 -283t-212.5 -96q-82 0 -126.5 57zM129 175q0 -77 24.5 -117.5t67.5 -40.5q64 0 125.5 85.5t103.5 244.5q32 125 32 210
q0 74 -22.5 112t-62.5 38q-67 0 -129 -79t-108 -253q-31 -118 -31 -200zM448 796q-12 5 -29 14q-16 8 -25.5 12t-21.5 4q-27 0 -48 -26q-8 -8 -13 -4l-7 6q-5 4 -2 10q16 27 41 43t53 16q14 0 24.5 -4.5t24.5 -13.5t24 -13.5t23 -4.5q33 0 54 27q8 8 13 3l8 -6q5 -3 1 -11
q-16 -28 -40 -42.5t-51 -14.5q-17 0 -29 5z" />
    <glyph glyph-name="Odieresis" unicode="&#xd6;" horiz-adv-x="542" 
d="M74.5 42q-44.5 57 -44.5 159q0 76 25 169q31 114 83.5 197t121 127.5t146.5 44.5q83 0 129 -57t46 -159q0 -74 -23 -159q-50 -187 -144.5 -283t-212.5 -96q-82 0 -126.5 57zM129 175q0 -77 24.5 -117.5t67.5 -40.5q64 0 125.5 85.5t103.5 244.5q32 125 32 210
q0 74 -22.5 112t-62.5 38q-67 0 -129 -79t-108 -253q-31 -118 -31 -200zM329 825.5q-9 10.5 -9 29.5q0 14 4 27q7 29 25 47t40 18q16 -1 25 -12t9 -30q0 -11 -3 -25q-8 -30 -26 -48t-40 -18q-16 1 -25 11.5zM469 825.5q-9 10.5 -9 29.5q0 14 4 27q7 29 25 47t40 18
q16 -1 25 -12t9 -30q0 -11 -3 -25q-8 -30 -26 -48t-40 -18q-16 1 -25 11.5z" />
    <glyph glyph-name="multiply" unicode="&#xd7;" horiz-adv-x="436" 
d="M80 178q0 4 4 8l125 125l-125 125q-4 6 -4 9q0 4 4 8l11 11q4 4 9 4t8 -4l125 -125l125 125q4 4 9 4t8 -4l11 -11q4 -3 4 -8t-4 -9l-125 -125l125 -125q4 -3 4 -8t-4 -9l-11 -11q-4 -4 -8 -4q-3 0 -9 4l-125 125l-125 -125q-4 -4 -8 -4q-3 0 -9 4l-11 11q-4 6 -4 9z" />
    <glyph glyph-name="Oslash" unicode="&#xd8;" horiz-adv-x="542" 
d="M61 62l-35 -34q-4 -4 -13 -4q-4 0 -10 2l-14 8q-5 2 -6.5 7t2.5 9l57 57q-12 41 -12 94q0 76 25 169q31 114 83.5 197t121 127.5t146.5 44.5q60 0 101 -30t60 -86l39 39q6 4 13 4q6 0 10 -3l14 -7q5 -3 6.5 -8t-2.5 -8l-69 -68q3 -22 3 -48q0 -68 -23 -160
q-50 -187 -144.5 -283t-212.5 -96q-95 0 -140 77zM482 540q3 82 -20 124.5t-65 42.5q-67 0 -129 -79t-108 -253q-27 -100 -30 -182zM161 46.5q23 -29.5 60 -29.5q64 0 125.5 85.5t103.5 244.5q17 66 25 124l-343 -339q6 -56 29 -85.5z" />
    <glyph glyph-name="Ugrave" unicode="&#xd9;" horiz-adv-x="595" 
d="M100 23.5q-47 38.5 -47 118.5q0 49 19 112l121 399q1 3 1 8q0 13 -11 22.5t-29 13.5q-13 4 -8 14l2 5q3 7 5.5 9.5t6.5 2.5q29 0 56 -3q32 -2 48 -2t50 2q27 3 57 3q5 0 6.5 -2.5t-1.5 -9.5l-2 -5q-2 -6 -4.5 -9t-6.5 -4q-27 -4 -47.5 -18t-26.5 -33l-114 -376
q-24 -76 -24 -129q0 -59 28 -82t75 -23q78 0 137 51.5t92 161.5l115 377q5 18 5 28q0 36 -44 43q-4 1 -5.5 3.5t0.5 9.5l1 5q1 7 4.5 9.5t8.5 2.5q18 0 44 -2l31 -1l35 1q28 2 49 2q5 0 6.5 -2.5t-1.5 -9.5l-2 -5q-3 -7 -6.5 -10t-10.5 -4q-59 -10 -78 -70l-113 -368
q-44 -143 -122 -208.5t-174 -65.5q-79 0 -126 38.5zM511 774q-4 0 -11 4q-110 72 -146 105q-18 20 -18 40q0 16 13 28q10 13 26 13q19 0 38 -18q16 -15 60 -79l46 -65q6 -8 6.5 -12t-2.5 -8l-4 -5q-3 -3 -8 -3z" />
    <glyph glyph-name="Uacute" unicode="&#xda;" horiz-adv-x="595" 
d="M100 23.5q-47 38.5 -47 118.5q0 49 19 112l121 399q1 3 1 8q0 13 -11 22.5t-29 13.5q-13 4 -8 14l2 5q3 7 5.5 9.5t6.5 2.5q29 0 56 -3q32 -2 48 -2t50 2q27 3 57 3q5 0 6.5 -2.5t-1.5 -9.5l-2 -5q-2 -6 -4.5 -9t-6.5 -4q-27 -4 -47.5 -18t-26.5 -33l-114 -376
q-24 -76 -24 -129q0 -59 28 -82t75 -23q78 0 137 51.5t92 161.5l115 377q5 18 5 28q0 36 -44 43q-4 1 -5.5 3.5t0.5 9.5l1 5q1 7 4.5 9.5t8.5 2.5q18 0 44 -2l31 -1l35 1q28 2 49 2q5 0 6.5 -2.5t-1.5 -9.5l-2 -5q-3 -7 -6.5 -10t-10.5 -4q-59 -10 -78 -70l-113 -368
q-44 -143 -122 -208.5t-174 -65.5q-79 0 -126 38.5zM404 789q0 5 7 13l46 65q44 64 60 79q19 17 36 17q16 0 28 -12q13 -13 13 -29q0 -19 -18 -39q-26 -26 -146 -105q-5 -4 -11 -4q-5 0 -8 3l-4 5q-3 3 -3 7z" />
    <glyph glyph-name="Ucircumflex" unicode="&#xdb;" horiz-adv-x="595" 
d="M100 23.5q-47 38.5 -47 118.5q0 49 19 112l121 399q1 3 1 8q0 13 -11 22.5t-29 13.5q-13 4 -8 14l2 5q3 7 5.5 9.5t6.5 2.5q29 0 56 -3q32 -2 48 -2t50 2q27 3 57 3q5 0 6.5 -2.5t-1.5 -9.5l-2 -5q-2 -6 -4.5 -9t-6.5 -4q-27 -4 -47.5 -18t-26.5 -33l-114 -376
q-24 -76 -24 -129q0 -59 28 -82t75 -23q78 0 137 51.5t92 161.5l115 377q5 18 5 28q0 36 -44 43q-4 1 -5.5 3.5t0.5 9.5l1 5q1 7 4.5 9.5t8.5 2.5q18 0 44 -2l31 -1l35 1q28 2 49 2q5 0 6.5 -2.5t-1.5 -9.5l-2 -5q-3 -7 -6.5 -10t-10.5 -4q-59 -10 -78 -70l-113 -368
q-44 -143 -122 -208.5t-174 -65.5q-79 0 -126 38.5zM361 784q0 7 7 14l134 138q7 8 17 8h16q8 0 11 -8l50 -138q1 -1 1 -4q0 -8 -12 -17l-4 -3q-8 -4 -11 -4q-6 0 -10 7l-52 108l-118 -108q-7 -6 -13 -6q-5 0 -8 3l-4 3q-4 3 -4 7z" />
    <glyph glyph-name="Udieresis" unicode="&#xdc;" horiz-adv-x="595" 
d="M100 23.5q-47 38.5 -47 118.5q0 49 19 112l121 399q1 3 1 8q0 13 -11 22.5t-29 13.5q-13 4 -8 14l2 5q3 7 5.5 9.5t6.5 2.5q29 0 56 -3q32 -2 48 -2t50 2q27 3 57 3q5 0 6.5 -2.5t-1.5 -9.5l-2 -5q-2 -6 -4.5 -9t-6.5 -4q-27 -4 -47.5 -18t-26.5 -33l-114 -376
q-24 -76 -24 -129q0 -59 28 -82t75 -23q78 0 137 51.5t92 161.5l115 377q5 18 5 28q0 36 -44 43q-4 1 -5.5 3.5t0.5 9.5l1 5q1 7 4.5 9.5t8.5 2.5q18 0 44 -2l31 -1l35 1q28 2 49 2q5 0 6.5 -2.5t-1.5 -9.5l-2 -5q-3 -7 -6.5 -10t-10.5 -4q-59 -10 -78 -70l-113 -368
q-44 -143 -122 -208.5t-174 -65.5q-79 0 -126 38.5zM383 814.5q-9 10.5 -9 29.5q0 14 4 27q7 29 25 47t40 18q16 -1 25 -12t9 -30q0 -11 -3 -25q-8 -30 -26 -48t-40 -18q-16 1 -25 11.5zM523 814.5q-9 10.5 -9 29.5q0 14 4 27q7 29 25 47t40 18q16 -1 25 -12t9 -30
q0 -11 -3 -25q-8 -30 -26 -48t-40 -18q-16 1 -25 11.5z" />
    <glyph glyph-name="Yacute" unicode="&#xdd;" horiz-adv-x="577" 
d="M104.5 2.5q-0.5 2.5 0.5 9.5l1 5q2 11 16 14q25 5 44 18.5t25 31.5l45 146l-26 421q-3 44 -59 50q-4 1 -4.5 3.5t0.5 9.5l1 5q2 12 13 12q37 0 68 -3q36 -2 53 -2q18 0 52 2q66 3 82 3q5 0 6.5 -2.5t-1.5 -9.5l-2 -5q-3 -7 -6 -9.5t-9 -3.5q-86 -11 -85 -55l17 -347
l221 340q11 17 11 28q0 26 -56 34q-5 1 -6.5 3.5t-0.5 9.5l1 5q2 12 13 12q34 0 61 -3q30 -2 43 -2q9 0 35 2q45 3 51 3q5 0 6.5 -2.5t-1.5 -9.5l-2 -5q-2 -6 -4.5 -9t-6.5 -4q-32 -4 -54.5 -16.5t-37.5 -35.5l-276 -417l-46 -152q-1 -3 -1 -9q0 -14 12 -24.5t32 -13.5
q6 -1 3 -13l-1 -5q-2 -12 -13 -12q-29 0 -55 3q-32 2 -49 2t-49 -2q-25 -3 -56 -3q-5 0 -5.5 2.5zM409 789q0 5 7 13l46 65q44 64 60 79q19 17 36 17q16 0 28 -12q13 -13 13 -29q0 -19 -18 -39q-26 -26 -146 -105q-5 -4 -11 -4q-5 0 -8 3l-4 5q-3 3 -3 7z" />
    <glyph glyph-name="Thorn" unicode="&#xde;" horiz-adv-x="484" 
d="M147 167l-28 -91q-1 -3 -1 -9q0 -14 12 -24t32 -13q6 -1 3 -13l-1 -5q-2 -12 -13 -12q-29 0 -55 3q-32 2 -49 2t-49 -2q-26 -3 -56 -3q-5 0 -5.5 2.5t0.5 9.5l1 5q2 11 16 14q25 5 44 18.5t25 31.5l173 566q2 8 2 12q0 14 -11 24t-29 14q-5 2 -6.5 4.5t-0.5 9.5l1 5
q2 12 13 12q29 0 54 -3q32 -2 48 -2t50 2q27 3 57 3q5 0 5.5 -2.5t-0.5 -9.5l-1 -5q-2 -11 -12 -13q-26 -4 -46 -16t-25 -29l-26 -86l52 1q94 0 142.5 -38.5t48.5 -107.5q0 -32 -13 -76q-26 -86 -100.5 -139t-174.5 -53q-43 0 -77 13zM224 187q53 0 98 37t67 110
q18 57 18 98q0 49 -24 75.5t-68 26.5h-6q-19 0 -37 -12t-26 -29l-89 -291q29 -15 67 -15z" />
    <glyph glyph-name="germandbls" unicode="&#xdf;" horiz-adv-x="547" 
d="M-245 -153q0 26 20 48t47 22q14 0 20.5 -7t13.5 -23q8 -20 19 -30.5t36 -10.5q20 0 39.5 22t47.5 93.5t65 210.5l76 283q-13 1 -26 -0.5t-19 -1.5q-8 0 -9.5 2.5t0.5 9.5l1 4q3 11 21 15q15 4 28.5 11t17.5 13l12 45q16 62 57.5 114t94.5 82.5t102 30.5q53 0 81.5 -26.5
t28.5 -72.5q0 -26 -9.5 -55.5t-22.5 -51.5q-130 -76 -130 -152q0 -24 13.5 -47t40.5 -57q36 -47 55 -82t19 -81q0 -49 -25 -87.5t-69 -60.5t-101 -22q-65 0 -101.5 23.5t-36.5 63.5q0 30 18 47.5t44 17.5q25 0 31.5 -14t7.5 -42q1 -33 11 -50.5t46 -17.5q42 0 69.5 30.5
t27.5 69.5q0 38 -18 70t-53 75q-32 40 -47 65.5t-15 55.5q0 42 28.5 84.5t116.5 109.5q25 57 25 95q0 33 -17.5 50t-49.5 17q-29 0 -50 -12t-40 -45t-35 -94l-102 -381q-108 -404 -318 -404q-87 0 -87 48z" />
    <glyph glyph-name="agrave" unicode="&#xe0;" horiz-adv-x="476" 
d="M20.5 16.5q-21.5 31.5 -19.5 90.5q4 90 45.5 184t109.5 155.5t148 61.5q70 0 118 -35q20 -14 20 -32q0 -7 -7 -30l-97 -277q-13 -39 -13 -58q0 -16 9 -16q11 0 31.5 21t46.5 59q6 9 14 3l6 -4q3 -1 3 -6q0 -8 -10 -21q-45 -64 -90 -95.5t-79 -31.5q-35 0 -35 36
q0 23 16 71l16 46q-45 -73 -89.5 -113t-79.5 -40q-42 0 -63.5 31.5zM99 52.5q6 -13.5 22 -13.5q22 -1 64 52t88.5 145.5t80.5 204.5q-8 19 -20 29t-33 10q-53 0 -101 -70t-77.5 -164t-29.5 -155q0 -25 6 -38.5zM360 555q-4 0 -11 4q-110 72 -146 105q-18 20 -18 40
q0 16 13 28q10 13 26 13q19 0 38 -18q16 -15 60 -79l46 -65q6 -8 6.5 -12t-2.5 -8l-4 -5q-3 -3 -8 -3z" />
    <glyph glyph-name="aacute" unicode="&#xe1;" horiz-adv-x="476" 
d="M20.5 16.5q-21.5 31.5 -19.5 90.5q4 90 45.5 184t109.5 155.5t148 61.5q70 0 118 -35q20 -14 20 -32q0 -7 -7 -30l-97 -277q-13 -39 -13 -58q0 -16 9 -16q11 0 31.5 21t46.5 59q6 9 14 3l6 -4q3 -1 3 -6q0 -8 -10 -21q-45 -64 -90 -95.5t-79 -31.5q-35 0 -35 36
q0 23 16 71l16 46q-45 -73 -89.5 -113t-79.5 -40q-42 0 -63.5 31.5zM99 52.5q6 -13.5 22 -13.5q22 -1 64 52t88.5 145.5t80.5 204.5q-8 19 -20 29t-33 10q-53 0 -101 -70t-77.5 -164t-29.5 -155q0 -25 6 -38.5zM253 570q0 5 7 13l46 65q44 64 60 79q19 17 36 17q16 0 28 -12
q13 -13 13 -29q0 -19 -18 -39q-26 -26 -146 -105q-5 -4 -11 -4q-5 0 -8 3l-4 5q-3 3 -3 7z" />
    <glyph glyph-name="acircumflex" unicode="&#xe2;" horiz-adv-x="476" 
d="M20.5 16.5q-21.5 31.5 -19.5 90.5q4 90 45.5 184t109.5 155.5t148 61.5q70 0 118 -35q20 -14 20 -32q0 -7 -7 -30l-97 -277q-13 -39 -13 -58q0 -16 9 -16q11 0 31.5 21t46.5 59q6 9 14 3l6 -4q3 -1 3 -6q0 -8 -10 -21q-45 -64 -90 -95.5t-79 -31.5q-35 0 -35 36
q0 23 16 71l16 46q-45 -73 -89.5 -113t-79.5 -40q-42 0 -63.5 31.5zM99 52.5q6 -13.5 22 -13.5q22 -1 64 52t88.5 145.5t80.5 204.5q-8 19 -20 29t-33 10q-53 0 -101 -70t-77.5 -164t-29.5 -155q0 -25 6 -38.5zM210 565q0 7 7 14l134 138q7 8 17 8h16q8 0 11 -8l50 -138
q1 -1 1 -4q0 -8 -12 -17l-4 -3q-8 -4 -11 -4q-6 0 -10 7l-52 108l-118 -108q-7 -6 -13 -6q-5 0 -8 3l-4 3q-4 3 -4 7z" />
    <glyph glyph-name="atilde" unicode="&#xe3;" horiz-adv-x="476" 
d="M20.5 16.5q-21.5 31.5 -19.5 90.5q4 90 45.5 184t109.5 155.5t148 61.5q70 0 118 -35q20 -14 20 -32q0 -7 -7 -30l-97 -277q-13 -39 -13 -58q0 -16 9 -16q11 0 31.5 21t46.5 59q6 9 14 3l6 -4q3 -1 3 -6q0 -8 -10 -21q-45 -64 -90 -95.5t-79 -31.5q-35 0 -35 36
q0 23 16 71l16 46q-45 -73 -89.5 -113t-79.5 -40q-42 0 -63.5 31.5zM99 52.5q6 -13.5 22 -13.5q22 -1 64 52t88.5 145.5t80.5 204.5q-8 19 -20 29t-33 10q-53 0 -101 -70t-77.5 -164t-29.5 -155q0 -25 6 -38.5zM351 566q-12 5 -29 14q-16 8 -25.5 12t-21.5 4q-27 0 -48 -26
q-8 -8 -13 -4l-7 6q-5 4 -2 10q16 27 41 43t53 16q14 0 24.5 -4.5t24.5 -13.5t24 -13.5t23 -4.5q33 0 54 27q8 8 13 3l8 -6q5 -3 1 -11q-16 -28 -40 -42.5t-51 -14.5q-17 0 -29 5z" />
    <glyph glyph-name="adieresis" unicode="&#xe4;" horiz-adv-x="476" 
d="M20.5 16.5q-21.5 31.5 -19.5 90.5q4 90 45.5 184t109.5 155.5t148 61.5q70 0 118 -35q20 -14 20 -32q0 -7 -7 -30l-97 -277q-13 -39 -13 -58q0 -16 9 -16q11 0 31.5 21t46.5 59q6 9 14 3l6 -4q3 -1 3 -6q0 -8 -10 -21q-45 -64 -90 -95.5t-79 -31.5q-35 0 -35 36
q0 23 16 71l16 46q-45 -73 -89.5 -113t-79.5 -40q-42 0 -63.5 31.5zM99 52.5q6 -13.5 22 -13.5q22 -1 64 52t88.5 145.5t80.5 204.5q-8 19 -20 29t-33 10q-53 0 -101 -70t-77.5 -164t-29.5 -155q0 -25 6 -38.5zM232 595.5q-9 10.5 -9 29.5q0 14 4 27q7 29 25 47t40 18
q16 -1 25 -12t9 -30q0 -11 -3 -25q-8 -30 -26 -48t-40 -18q-16 1 -25 11.5zM372 595.5q-9 10.5 -9 29.5q0 14 4 27q7 29 25 47t40 18q16 -1 25 -12t9 -30q0 -11 -3 -25q-8 -30 -26 -48t-40 -18q-16 1 -25 11.5z" />
    <glyph glyph-name="aring" unicode="&#xe5;" horiz-adv-x="476" 
d="M20.5 16.5q-21.5 31.5 -19.5 90.5q4 86 42 176t101.5 152.5t138.5 71.5q-30 17 -30 64q0 19 6 43q14 53 45.5 84t71.5 31q31 0 48 -19.5t17 -53.5q0 -19 -6 -43q-11 -42 -33.5 -70t-51.5 -39q40 -8 72 -31q20 -14 20 -32q0 -7 -7 -30l-97 -277q-13 -39 -13 -58
q0 -16 9 -16q11 0 31.5 21t46.5 59q6 9 14 3l6 -4q3 -1 3 -6q0 -8 -10 -21q-45 -64 -90 -95.5t-79 -31.5q-35 0 -35 36q0 23 16 71l16 46q-45 -73 -89.5 -113t-79.5 -40q-42 0 -63.5 31.5zM99 52.5q6 -13.5 22 -13.5q22 -1 64 52t88.5 145.5t80.5 204.5q-8 19 -20 29t-33 10
q-53 0 -101 -70t-77.5 -164t-29.5 -155q0 -25 6 -38.5zM304 572q0 -37 24 -39q16 0 30.5 21t24.5 56q7 25 7 46q0 37 -23 39q-16 0 -31 -20.5t-25 -56.5q-7 -31 -7 -46z" />
    <glyph glyph-name="ae" unicode="&#xe6;" horiz-adv-x="655" 
d="M18.5 16.5q-21.5 31.5 -19.5 90.5q4 88 49.5 182.5t117 156.5t148.5 62q44 0 76 -10.5t59 -30.5q57 41 118 41q60 0 83 -23.5t21 -62.5q-2 -44 -64.5 -96t-216.5 -94q-12 -51 -12 -98q0 -95 59 -95q30 0 71 27t75 73q6 9 15 3l5 -3q10 -6 4 -15q-45 -65 -102.5 -102
t-100.5 -37q-61 0 -92 42t-29 116q0 9 2 29q-52 -88 -107.5 -137.5t-95.5 -49.5q-42 0 -63.5 31.5zM97 52.5q6 -13.5 22 -13.5q32 -1 78 51t93 144t82 207q-8 19 -22 29t-39 10q-49 0 -100.5 -70.5t-85.5 -165t-34 -153.5q0 -25 6 -38.5zM539.5 337.5q43.5 46.5 43.5 99.5
q0 21 -9 32t-27 11q-44 0 -85 -66t-65 -155q99 32 142.5 78.5z" />
    <glyph glyph-name="ccedilla" unicode="&#xe7;" horiz-adv-x="380" 
d="M28 -221.5q-21 10.5 -29 26.5q-2 4 -2 5q0 5 9 12l5 4q4 4 7 4t8 -5q7 -7 20 -12t28 -5q27 0 45.5 19.5t18.5 44.5q0 38 -62 41l38 73q-50 7 -76 48t-26 105q0 80 40 167t103 144.5t127 57.5q57 0 92.5 -24.5t35.5 -67.5q0 -27 -18 -43t-43 -16q-19 0 -27 10t-9 21.5
t-1 39.5q0 25 -7 38.5t-29 13.5q-37 0 -76.5 -56.5t-66 -138.5t-26.5 -151q0 -95 61 -95q32 0 69 26.5t71 73.5q6 9 15 3l5 -3q10 -6 4 -15q-41 -64 -89 -98t-92 -40l-24 -45q36 -5 54.5 -21.5t18.5 -40.5q0 -13 -4 -25q-12 -40 -42.5 -63t-72.5 -23q-32 0 -53 10.5z" />
    <glyph glyph-name="egrave" unicode="&#xe8;" horiz-adv-x="383" 
d="M42 24.5q-31 39.5 -31 108.5q0 82 39 170t104.5 146.5t140.5 58.5q60 0 83 -23.5t21 -62.5q-2 -44 -64.5 -96t-216.5 -94q-12 -51 -12 -98q0 -95 59 -95q30 0 71 27t75 73q6 9 15 3l5 -3q10 -6 4 -15q-45 -65 -102.5 -102t-100.5 -37q-59 0 -90 39.5zM267.5 337.5
q43.5 46.5 43.5 99.5q0 21 -9 32t-27 11q-44 0 -85 -66t-65 -155q99 32 142.5 78.5zM352 554q-4 0 -11 4q-110 72 -146 105q-18 20 -18 40q0 16 13 28q10 13 26 13q19 0 38 -18q16 -15 60 -79l46 -65q6 -8 6.5 -12t-2.5 -8l-4 -5q-3 -3 -8 -3z" />
    <glyph glyph-name="eacute" unicode="&#xe9;" horiz-adv-x="383" 
d="M42 24.5q-31 39.5 -31 108.5q0 82 39 170t104.5 146.5t140.5 58.5q60 0 83 -23.5t21 -62.5q-2 -44 -64.5 -96t-216.5 -94q-12 -51 -12 -98q0 -95 59 -95q30 0 71 27t75 73q6 9 15 3l5 -3q10 -6 4 -15q-45 -65 -102.5 -102t-100.5 -37q-59 0 -90 39.5zM267.5 337.5
q43.5 46.5 43.5 99.5q0 21 -9 32t-27 11q-44 0 -85 -66t-65 -155q99 32 142.5 78.5zM245 569q0 5 7 13l46 65q44 64 60 79q19 17 36 17q16 0 28 -12q13 -13 13 -29q0 -19 -18 -39q-26 -26 -146 -105q-5 -4 -11 -4q-5 0 -8 3l-4 5q-3 3 -3 7z" />
    <glyph glyph-name="ecircumflex" unicode="&#xea;" horiz-adv-x="383" 
d="M42 24.5q-31 39.5 -31 108.5q0 82 39 170t104.5 146.5t140.5 58.5q60 0 83 -23.5t21 -62.5q-2 -44 -64.5 -96t-216.5 -94q-12 -51 -12 -98q0 -95 59 -95q30 0 71 27t75 73q6 9 15 3l5 -3q10 -6 4 -15q-45 -65 -102.5 -102t-100.5 -37q-59 0 -90 39.5zM267.5 337.5
q43.5 46.5 43.5 99.5q0 21 -9 32t-27 11q-44 0 -85 -66t-65 -155q99 32 142.5 78.5zM202 564q0 7 7 14l134 138q7 8 17 8h16q8 0 11 -8l50 -138q1 -1 1 -4q0 -8 -12 -17l-4 -3q-8 -4 -11 -4q-6 0 -10 7l-52 108l-118 -108q-7 -6 -13 -6q-5 0 -8 3l-4 3q-4 3 -4 7z" />
    <glyph glyph-name="edieresis" unicode="&#xeb;" horiz-adv-x="383" 
d="M42 24.5q-31 39.5 -31 108.5q0 82 39 170t104.5 146.5t140.5 58.5q60 0 83 -23.5t21 -62.5q-2 -44 -64.5 -96t-216.5 -94q-12 -51 -12 -98q0 -95 59 -95q30 0 71 27t75 73q6 9 15 3l5 -3q10 -6 4 -15q-45 -65 -102.5 -102t-100.5 -37q-59 0 -90 39.5zM267.5 337.5
q43.5 46.5 43.5 99.5q0 21 -9 32t-27 11q-44 0 -85 -66t-65 -155q99 32 142.5 78.5zM224 594.5q-9 10.5 -9 29.5q0 14 4 27q7 29 25 47t40 18q16 -1 25 -12t9 -30q0 -11 -3 -25q-8 -30 -26 -48t-40 -18q-16 1 -25 11.5zM364 594.5q-9 10.5 -9 29.5q0 14 4 27q7 29 25 47
t40 18q16 -1 25 -12t9 -30q0 -11 -3 -25q-8 -30 -26 -48t-40 -18q-16 1 -25 11.5z" />
    <glyph glyph-name="igrave" unicode="&#xec;" horiz-adv-x="284" 
d="M25 23q0 26 16 68l101 268q14 35 14 56q0 16 -10 16q-12 0 -32.5 -20t-45.5 -58q-6 -9 -14 -3l-6 4q-7 6 -2 14q47 70 95 105t83 35q37 0 37 -38q0 -26 -16 -68l-101 -268q-14 -35 -14 -56q0 -16 10 -16q12 0 32.5 20.5t45.5 57.5q6 9 14 3l6 -4q7 -6 2 -14
q-47 -70 -95 -105t-83 -35q-37 0 -37 38zM275 554q-4 0 -11 4q-110 72 -146 105q-18 20 -18 40q0 16 13 28q10 13 26 13q19 0 38 -18q16 -15 60 -79l46 -65q6 -8 6.5 -12t-2.5 -8l-4 -5q-3 -3 -8 -3z" />
    <glyph glyph-name="iacute" unicode="&#xed;" horiz-adv-x="284" 
d="M25 23q0 26 16 68l101 268q14 35 14 56q0 16 -10 16q-12 0 -32.5 -20t-45.5 -58q-6 -9 -14 -3l-6 4q-7 6 -2 14q47 70 95 105t83 35q37 0 37 -38q0 -26 -16 -68l-101 -268q-14 -35 -14 -56q0 -16 10 -16q12 0 32.5 20.5t45.5 57.5q6 9 14 3l6 -4q7 -6 2 -14
q-47 -70 -95 -105t-83 -35q-37 0 -37 38zM168 569q0 5 7 13l46 65q44 64 60 79q19 17 36 17q16 0 28 -12q13 -13 13 -29q0 -19 -18 -39q-26 -26 -146 -105q-5 -4 -11 -4q-5 0 -8 3l-4 5q-3 3 -3 7z" />
    <glyph glyph-name="icircumflex" unicode="&#xee;" horiz-adv-x="284" 
d="M25 23q0 26 16 68l101 268q14 35 14 56q0 16 -10 16q-12 0 -32.5 -20t-45.5 -58q-6 -9 -14 -3l-6 4q-7 6 -2 14q47 70 95 105t83 35q37 0 37 -38q0 -26 -16 -68l-101 -268q-14 -35 -14 -56q0 -16 10 -16q12 0 32.5 20.5t45.5 57.5q6 9 14 3l6 -4q7 -6 2 -14
q-47 -70 -95 -105t-83 -35q-37 0 -37 38zM125 564q0 7 7 14l134 138q7 8 17 8h16q8 0 11 -8l50 -138q1 -1 1 -4q0 -8 -12 -17l-4 -3q-8 -4 -11 -4q-6 0 -10 7l-52 108l-118 -108q-7 -6 -13 -6q-5 0 -8 3l-4 3q-4 3 -4 7z" />
    <glyph glyph-name="idieresis" unicode="&#xef;" horiz-adv-x="284" 
d="M25 23q0 26 16 68l101 268q14 35 14 56q0 16 -10 16q-12 0 -32.5 -20t-45.5 -58q-6 -9 -14 -3l-6 4q-7 6 -2 14q47 70 95 105t83 35q37 0 37 -38q0 -26 -16 -68l-101 -268q-14 -35 -14 -56q0 -16 10 -16q12 0 32.5 20.5t45.5 57.5q6 9 14 3l6 -4q7 -6 2 -14
q-47 -70 -95 -105t-83 -35q-37 0 -37 38zM147 594.5q-9 10.5 -9 29.5q0 14 4 27q7 29 25 47t40 18q16 -1 25 -12t9 -30q0 -11 -3 -25q-8 -30 -26 -48t-40 -18q-16 1 -25 11.5zM287 594.5q-9 10.5 -9 29.5q0 14 4 27q7 29 25 47t40 18q16 -1 25 -12t9 -30q0 -11 -3 -25
q-8 -30 -26 -48t-40 -18q-16 1 -25 11.5z" />
    <glyph glyph-name="eth" unicode="&#xf0;" horiz-adv-x="460" 
d="M53.5 27.5q-39.5 42.5 -39.5 119.5q0 70 34.5 155.5t100 145.5t154.5 60q24 0 46 -7q-3 58 -34 115l-98 -66q-4 -2 -6 -2q-3 0 -8 5l-8 12q-2 4 -2 6q0 5 5 8l99 67q-42 60 -95 89q-8 5 -8 11q0 4 4 8l5 5q3 3 6 3q4 0 12 -5q69 -32 118 -83l100 68q4 2 5 2q6 0 9 -5
l7 -12q2 -2 2 -6q0 -5 -4 -8l-96 -65q80 -99 80 -250q0 -95 -33 -191t-97 -159t-151 -63q-68 0 -107.5 42.5zM124 41q17 -28 45 -28q40 0 82 47t70 128t28 176q0 114 -55 116q-43 0 -86.5 -52t-72 -134.5t-28.5 -170.5q0 -54 17 -82z" />
    <glyph glyph-name="ntilde" unicode="&#xf1;" horiz-adv-x="533" 
d="M277 22q0 26 15 69l91 268q9 29 9 46q0 26 -14 26q-18 0 -56.5 -47.5t-90 -141.5t-106.5 -225q-8 -17 -22 -17h-46q-10 0 -15 6.5t-2 16.5l102 336q12 39 12 56t-9 17q-11 0 -32 -22t-45 -57q-6 -9 -14 -3l-6 4q-7 6 -2 14q47 70 95 105t83 35q18 0 26 -8.5t8 -25.5
q0 -25 -15 -72l-61 -198q83 169 150 236.5t118 67.5q47 0 47 -49q0 -25 -11 -57l-91 -268q-13 -38 -13 -58q0 -16 9 -16q11 0 31.5 21t46.5 59q6 9 14 3l6 -4q3 -1 3 -6q0 -8 -10 -21q-45 -64 -90 -95.5t-79 -31.5q-36 0 -36 37zM385 557q-12 5 -29 14q-16 8 -25.5 12
t-21.5 4q-27 0 -48 -26q-8 -8 -13 -4l-7 6q-5 4 -2 10q16 27 41 43t53 16q14 0 24.5 -4.5t24.5 -13.5t24 -13.5t23 -4.5q33 0 54 27q8 8 13 3l8 -6q5 -3 1 -11q-16 -28 -40 -42.5t-51 -14.5q-17 0 -29 5z" />
    <glyph glyph-name="ograve" unicode="&#xf2;" horiz-adv-x="438" 
d="M52 28q-38 43 -38 119q0 70 34 155.5t97.5 145.5t147.5 60q58 0 93.5 -42.5t35.5 -117.5q0 -70 -33 -156t-95 -146.5t-143 -60.5q-61 0 -99 43zM120.5 40.5q14.5 -27.5 38.5 -27.5q36 0 75.5 48t66.5 130t29 178q1 59 -12 84.5t-34 26.5q-38 0 -80 -52t-70 -135.5
t-28 -170.5q0 -54 14.5 -81.5zM344 554q-4 0 -11 4q-110 72 -146 105q-18 20 -18 40q0 16 13 28q10 13 26 13q19 0 38 -18q16 -15 60 -79l46 -65q6 -8 6.5 -12t-2.5 -8l-4 -5q-3 -3 -8 -3z" />
    <glyph glyph-name="oacute" unicode="&#xf3;" horiz-adv-x="438" 
d="M52 28q-38 43 -38 119q0 70 34 155.5t97.5 145.5t147.5 60q58 0 93.5 -42.5t35.5 -117.5q0 -70 -33 -156t-95 -146.5t-143 -60.5q-61 0 -99 43zM120.5 40.5q14.5 -27.5 38.5 -27.5q36 0 75.5 48t66.5 130t29 178q1 59 -12 84.5t-34 26.5q-38 0 -80 -52t-70 -135.5
t-28 -170.5q0 -54 14.5 -81.5zM237 569q0 5 7 13l46 65q44 64 60 79q19 17 36 17q16 0 28 -12q13 -13 13 -29q0 -19 -18 -39q-26 -26 -146 -105q-5 -4 -11 -4q-5 0 -8 3l-4 5q-3 3 -3 7z" />
    <glyph glyph-name="ocircumflex" unicode="&#xf4;" horiz-adv-x="438" 
d="M52 28q-38 43 -38 119q0 70 34 155.5t97.5 145.5t147.5 60q58 0 93.5 -42.5t35.5 -117.5q0 -70 -33 -156t-95 -146.5t-143 -60.5q-61 0 -99 43zM120.5 40.5q14.5 -27.5 38.5 -27.5q36 0 75.5 48t66.5 130t29 178q1 59 -12 84.5t-34 26.5q-38 0 -80 -52t-70 -135.5
t-28 -170.5q0 -54 14.5 -81.5zM194 564q0 7 7 14l134 138q7 8 17 8h16q8 0 11 -8l50 -138q1 -1 1 -4q0 -8 -12 -17l-4 -3q-8 -4 -11 -4q-6 0 -10 7l-52 108l-118 -108q-7 -6 -13 -6q-5 0 -8 3l-4 3q-4 3 -4 7z" />
    <glyph glyph-name="otilde" unicode="&#xf5;" horiz-adv-x="438" 
d="M52 28q-38 43 -38 119q0 70 34 155.5t97.5 145.5t147.5 60q58 0 93.5 -42.5t35.5 -117.5q0 -70 -33 -156t-95 -146.5t-143 -60.5q-61 0 -99 43zM120.5 40.5q14.5 -27.5 38.5 -27.5q36 0 75.5 48t66.5 130t29 178q1 59 -12 84.5t-34 26.5q-38 0 -80 -52t-70 -135.5
t-28 -170.5q0 -54 14.5 -81.5zM335 565q-12 5 -29 14q-16 8 -25.5 12t-21.5 4q-27 0 -48 -26q-8 -8 -13 -4l-7 6q-5 4 -2 10q16 27 41 43t53 16q14 0 24.5 -4.5t24.5 -13.5t24 -13.5t23 -4.5q33 0 54 27q8 8 13 3l8 -6q5 -3 1 -11q-16 -28 -40 -42.5t-51 -14.5q-17 0 -29 5z
" />
    <glyph glyph-name="odieresis" unicode="&#xf6;" horiz-adv-x="438" 
d="M52 28q-38 43 -38 119q0 70 34 155.5t97.5 145.5t147.5 60q58 0 93.5 -42.5t35.5 -117.5q0 -70 -33 -156t-95 -146.5t-143 -60.5q-61 0 -99 43zM120.5 40.5q14.5 -27.5 38.5 -27.5q36 0 75.5 48t66.5 130t29 178q1 59 -12 84.5t-34 26.5q-38 0 -80 -52t-70 -135.5
t-28 -170.5q0 -54 14.5 -81.5zM216 594.5q-9 10.5 -9 29.5q0 14 4 27q7 29 25 47t40 18q16 -1 25 -12t9 -30q0 -11 -3 -25q-8 -30 -26 -48t-40 -18q-16 1 -25 11.5zM356 594.5q-9 10.5 -9 29.5q0 14 4 27q7 29 25 47t40 18q16 -1 25 -12t9 -30q0 -11 -3 -25q-8 -30 -26 -48
t-40 -18q-16 1 -25 11.5z" />
    <glyph glyph-name="divide" unicode="&#xf7;" horiz-adv-x="424" 
d="M156 140q-8 10 -8 27q0 6 4 24q7 26 23 42t35 16q15 -1 23 -11t8 -27q0 -10 -3 -22q-7 -27 -23 -43t-36 -16q-15 0 -23 10zM42 319q0 5 3.5 8.5t8.5 3.5h354q5 0 8.5 -3.5t3.5 -8.5v-16q0 -5 -3.5 -8.5t-8.5 -3.5h-354q-5 0 -8.5 3.5t-3.5 8.5v16zM235 473q16 16 35 16
q15 -1 23 -11t8 -27q0 -10 -3 -22q-7 -27 -23 -43t-36 -16q-15 0 -23 10t-8 27q0 6 4 24q7 26 23 42z" />
    <glyph glyph-name="oslash" unicode="&#xf8;" horiz-adv-x="438" 
d="M61 19l-103 -137q-3 -3 -8.5 -3.5t-9.5 1.5l-11 6q-4 3 -5.5 7.5t1.5 8.5l111 148q-22 41 -22 97q0 70 34 155.5t97.5 145.5t147.5 60q40 0 71 -22l123 163q2 3 8 3.5t9 -1.5l12 -6q4 -3 5 -7.5t-2 -7.5l-128 -171q31 -42 31 -111q0 -70 -33 -156t-95 -146.5t-143 -60.5
q-54 0 -90 34zM325 433q-11 45 -41 47q-37 0 -77 -48.5t-68 -126.5t-32 -162zM126.5 30.5q13.5 -17.5 32.5 -17.5q36 0 75.5 48t66.5 130t29 178v9l-222 -295q5 -35 18.5 -52.5z" />
    <glyph glyph-name="ugrave" unicode="&#xf9;" horiz-adv-x="530" 
d="M282 -6.5q-8 8.5 -8 25.5q0 26 15 72l62 200q-153 -306 -261 -306q-24 0 -37.5 16.5t-13.5 47.5q0 37 19 88l82 222q14 38 14 58q0 16 -10 16q-11 0 -31.5 -21t-46.5 -59q-6 -9 -14 -3l-6 4q-3 2 -3 6q0 8 10 21q45 64 90 95.5t79 31.5q37 0 37 -38q0 -26 -16 -68
l-93 -253q-13 -36 -13 -55q0 -22 18 -22q32 0 96 97t159 314q6 17 22 17h46q10 0 15 -6.5t2 -16.5l-105 -343q-13 -42 -13 -61q0 -16 9 -16q11 0 32 23.5t46 59.5q6 9 14 3l6 -4q7 -6 2 -14q-47 -70 -95 -105t-83 -35q-18 0 -26 8.5zM359 546q-4 0 -11 4q-110 72 -146 105
q-18 20 -18 40q0 16 13 28q10 13 26 13q19 0 38 -18q16 -15 60 -79l46 -65q6 -8 6.5 -12t-2.5 -8l-4 -5q-3 -3 -8 -3z" />
    <glyph glyph-name="uacute" unicode="&#xfa;" horiz-adv-x="530" 
d="M282 -6.5q-8 8.5 -8 25.5q0 26 15 72l62 200q-153 -306 -261 -306q-24 0 -37.5 16.5t-13.5 47.5q0 37 19 88l82 222q14 38 14 58q0 16 -10 16q-11 0 -31.5 -21t-46.5 -59q-6 -9 -14 -3l-6 4q-3 2 -3 6q0 8 10 21q45 64 90 95.5t79 31.5q37 0 37 -38q0 -26 -16 -68
l-93 -253q-13 -36 -13 -55q0 -22 18 -22q32 0 96 97t159 314q6 17 22 17h46q10 0 15 -6.5t2 -16.5l-105 -343q-13 -42 -13 -61q0 -16 9 -16q11 0 32 23.5t46 59.5q6 9 14 3l6 -4q7 -6 2 -14q-47 -70 -95 -105t-83 -35q-18 0 -26 8.5zM252 561q0 5 7 13l46 65q44 64 60 79
q19 17 36 17q16 0 28 -12q13 -13 13 -29q0 -19 -18 -39q-26 -26 -146 -105q-5 -4 -11 -4q-5 0 -8 3l-4 5q-3 3 -3 7z" />
    <glyph glyph-name="ucircumflex" unicode="&#xfb;" horiz-adv-x="530" 
d="M282 -6.5q-8 8.5 -8 25.5q0 26 15 72l62 200q-153 -306 -261 -306q-24 0 -37.5 16.5t-13.5 47.5q0 37 19 88l82 222q14 38 14 58q0 16 -10 16q-11 0 -31.5 -21t-46.5 -59q-6 -9 -14 -3l-6 4q-3 2 -3 6q0 8 10 21q45 64 90 95.5t79 31.5q37 0 37 -38q0 -26 -16 -68
l-93 -253q-13 -36 -13 -55q0 -22 18 -22q32 0 96 97t159 314q6 17 22 17h46q10 0 15 -6.5t2 -16.5l-105 -343q-13 -42 -13 -61q0 -16 9 -16q11 0 32 23.5t46 59.5q6 9 14 3l6 -4q7 -6 2 -14q-47 -70 -95 -105t-83 -35q-18 0 -26 8.5zM209 556q0 7 7 14l134 138q7 8 17 8h16
q8 0 11 -8l50 -138q1 -1 1 -4q0 -8 -12 -17l-4 -3q-8 -4 -11 -4q-6 0 -10 7l-52 108l-118 -108q-7 -6 -13 -6q-5 0 -8 3l-4 3q-4 3 -4 7z" />
    <glyph glyph-name="udieresis" unicode="&#xfc;" horiz-adv-x="530" 
d="M282 -6.5q-8 8.5 -8 25.5q0 26 15 72l62 200q-153 -306 -261 -306q-24 0 -37.5 16.5t-13.5 47.5q0 37 19 88l82 222q14 38 14 58q0 16 -10 16q-11 0 -31.5 -21t-46.5 -59q-6 -9 -14 -3l-6 4q-3 2 -3 6q0 8 10 21q45 64 90 95.5t79 31.5q37 0 37 -38q0 -26 -16 -68
l-93 -253q-13 -36 -13 -55q0 -22 18 -22q32 0 96 97t159 314q6 17 22 17h46q10 0 15 -6.5t2 -16.5l-105 -343q-13 -42 -13 -61q0 -16 9 -16q11 0 32 23.5t46 59.5q6 9 14 3l6 -4q7 -6 2 -14q-47 -70 -95 -105t-83 -35q-18 0 -26 8.5zM231 586.5q-9 10.5 -9 29.5q0 14 4 27
q7 29 25 47t40 18q16 -1 25 -12t9 -30q0 -11 -3 -25q-8 -30 -26 -48t-40 -18q-16 1 -25 11.5zM371 586.5q-9 10.5 -9 29.5q0 14 4 27q7 29 25 47t40 18q16 -1 25 -12t9 -30q0 -11 -3 -25q-8 -30 -26 -48t-40 -18q-16 1 -25 11.5z" />
    <glyph glyph-name="yacute" unicode="&#xfd;" horiz-adv-x="467" 
d="M-65 -204.5q-15 14.5 -15 38.5q0 12 2 18q7 24 21 36.5t34 12.5q12 0 19 -5t15 -15q10 -11 17.5 -16t22.5 -5q30 0 75.5 37t95.5 99q-18 189 -33 285.5t-27.5 126.5t-27.5 30q-12 0 -26.5 -17t-50.5 -68q-6 -9 -14 -3l-6 4q-3 2 -3 6q0 8 10 21q47 70 77.5 98.5
t60.5 28.5q27 0 45 -29t34 -119.5t30 -269.5q49 75 80 144.5t31 113.5q0 22 -7 35t-22 30q-12 12 -18 22.5t-6 24.5q0 17 18 32.5t40 15.5q33 0 52.5 -21t19.5 -58q0 -76 -92 -235.5t-211 -286t-201 -126.5q-25 0 -40 14.5zM231 561q0 5 7 13l46 65q44 64 60 79q19 17 36 17
q16 0 28 -12q13 -13 13 -29q0 -19 -18 -39q-26 -26 -146 -105q-5 -4 -11 -4q-5 0 -8 3l-4 5q-3 3 -3 7z" />
    <glyph glyph-name="thorn" unicode="&#xfe;" horiz-adv-x="490" 
d="M-132.5 -215.5q-1.5 2.5 1.5 9.5l2 5q3 7 6 10t10 4q19 5 35.5 18.5t22.5 31.5l228 747q3 9 3 16q0 26 -32 36q-6 1 -4 10l2 8q2 8 11 10q71 14 121 42q6 4 12 2l4 -2q6 -3 4 -11l-130 -427q57 101 120 157.5t110 56.5q42 0 66 -31.5t24 -88.5q0 -91 -42 -185t-115 -156
t-160 -62q-52 0 -92 14l-42 -136q-2 -8 -2 -12q0 -14 10.5 -25t25.5 -14q9 -2 4 -13l-2 -5q-3 -7 -5.5 -9.5t-7.5 -2.5q-23 0 -47 3q-28 2 -43 2q-14 0 -44 -2q-24 -3 -48 -3q-5 0 -6.5 2.5zM172 13q57 0 107.5 65.5t81.5 155.5t31 155t-35 65q-32 1 -81 -50.5t-98.5 -142.5
t-84.5 -203q26 -45 79 -45z" />
    <glyph glyph-name="ydieresis" unicode="&#xff;" horiz-adv-x="467" 
d="M-65 -204.5q-15 14.5 -15 38.5q0 12 2 18q7 24 21 36.5t34 12.5q12 0 19 -5t15 -15q10 -11 17.5 -16t22.5 -5q30 0 75.5 37t95.5 99q-18 189 -33 285.5t-27.5 126.5t-27.5 30q-12 0 -26.5 -17t-50.5 -68q-6 -9 -14 -3l-6 4q-3 2 -3 6q0 8 10 21q47 70 77.5 98.5
t60.5 28.5q27 0 45 -29t34 -119.5t30 -269.5q49 75 80 144.5t31 113.5q0 22 -7 35t-22 30q-12 12 -18 22.5t-6 24.5q0 17 18 32.5t40 15.5q33 0 52.5 -21t19.5 -58q0 -76 -92 -235.5t-211 -286t-201 -126.5q-25 0 -40 14.5zM210 586.5q-9 10.5 -9 29.5q0 14 4 27q7 29 25 47
t40 18q16 -1 25 -12t9 -30q0 -11 -3 -25q-8 -30 -26 -48t-40 -18q-16 1 -25 11.5zM350 586.5q-9 10.5 -9 29.5q0 14 4 27q7 29 25 47t40 18q16 -1 25 -12t9 -30q0 -11 -3 -25q-8 -30 -26 -48t-40 -18q-16 1 -25 11.5z" />
    <glyph glyph-name="Amacron" unicode="&#x100;" horiz-adv-x="614" 
d="M-61 12l2 5q5 12 12 13q73 9 103 59l373 629q7 10 16 10h11q11 0 11 -10v-637q0 -44 59 -50q4 -1 4.5 -3.5t-0.5 -9.5l-1 -5q-2 -12 -13 -12q-38 0 -68 3q-36 2 -54 2q-21 0 -57 -2q-28 -3 -61 -3q-5 0 -6.5 2.5t1.5 9.5l2 5q3 7 6 9.5t9 3.5q33 6 56.5 20t24.5 35l4 182
h-171l-104 -176q-10 -16 -10 -29t13 -21t40 -12q13 -2 8 -13l-2 -5q-3 -7 -5.5 -9.5t-6.5 -2.5q-8 0 -65 3q-30 2 -40 2q-9 0 -35 -2q-23 -3 -50 -3q-11 0 -6 12zM374 301l5 269l-158 -269h153zM338.5 782.5q-0.5 3.5 1.5 8.5l7 16q5 12 13 12h251q3 0 4 -3.5t-1 -8.5
l-7 -16q-2 -5 -6 -8.5t-8 -3.5h-250q-4 0 -4.5 3.5z" />
    <glyph glyph-name="amacron" unicode="&#x101;" horiz-adv-x="476" 
d="M20.5 16.5q-21.5 31.5 -19.5 90.5q4 90 45.5 184t109.5 155.5t148 61.5q70 0 118 -35q20 -14 20 -32q0 -7 -7 -30l-97 -277q-13 -39 -13 -58q0 -16 9 -16q11 0 31.5 21t46.5 59q6 9 14 3l6 -4q3 -1 3 -6q0 -8 -10 -21q-45 -64 -90 -95.5t-79 -31.5q-35 0 -35 36
q0 23 16 71l16 46q-45 -73 -89.5 -113t-79.5 -40q-42 0 -63.5 31.5zM99 52.5q6 -13.5 22 -13.5q22 -1 64 52t88.5 145.5t80.5 204.5q-8 19 -20 29t-33 10q-53 0 -101 -70t-77.5 -164t-29.5 -155q0 -25 6 -38.5zM193.5 563.5q-0.5 3.5 1.5 8.5l7 16q5 12 13 12h251
q3 0 4 -3.5t-1 -8.5l-7 -16q-2 -5 -6 -8.5t-8 -3.5h-250q-4 0 -4.5 3.5z" />
    <glyph glyph-name="Abreve" unicode="&#x102;" horiz-adv-x="614" 
d="M-61 12l2 5q5 12 12 13q73 9 103 59l373 629q7 10 16 10h11q11 0 11 -10v-637q0 -44 59 -50q4 -1 4.5 -3.5t-0.5 -9.5l-1 -5q-2 -12 -13 -12q-38 0 -68 3q-36 2 -54 2q-21 0 -57 -2q-28 -3 -61 -3q-5 0 -6.5 2.5t1.5 9.5l2 5q3 7 6 9.5t9 3.5q33 6 56.5 20t24.5 35l4 182
h-171l-104 -176q-10 -16 -10 -29t13 -21t40 -12q13 -2 8 -13l-2 -5q-3 -7 -5.5 -9.5t-6.5 -2.5q-8 0 -65 3q-30 2 -40 2q-9 0 -35 -2q-23 -3 -50 -3q-11 0 -6 12zM374 301l5 269l-158 -269h153zM395.5 783q-23.5 20 -23.5 55q0 14 3 27q3 15 19 15h27q14 0 11 -15
q-3 -12 -3 -23q0 -46 49 -46q56 0 82 69q6 15 21 15h27q15 0 10 -13q-18 -47 -57 -75.5t-95 -28.5q-47 0 -70.5 20z" />
    <glyph glyph-name="abreve" unicode="&#x103;" horiz-adv-x="476" 
d="M20.5 16.5q-21.5 31.5 -19.5 90.5q4 90 45.5 184t109.5 155.5t148 61.5q70 0 118 -35q20 -14 20 -32q0 -7 -7 -30l-97 -277q-13 -39 -13 -58q0 -16 9 -16q11 0 31.5 21t46.5 59q6 9 14 3l6 -4q3 -1 3 -6q0 -8 -10 -21q-45 -64 -90 -95.5t-79 -31.5q-35 0 -35 36
q0 23 16 71l16 46q-45 -73 -89.5 -113t-79.5 -40q-42 0 -63.5 31.5zM99 52.5q6 -13.5 22 -13.5q22 -1 64 52t88.5 145.5t80.5 204.5q-8 19 -20 29t-33 10q-53 0 -101 -70t-77.5 -164t-29.5 -155q0 -25 6 -38.5zM250.5 564q-23.5 20 -23.5 55q0 14 3 27q3 15 19 15h27
q14 0 11 -15q-3 -12 -3 -23q0 -46 49 -46q56 0 82 69q6 15 21 15h27q15 0 10 -13q-18 -47 -57 -75.5t-95 -28.5q-47 0 -70.5 20z" />
    <glyph glyph-name="Aogonek" unicode="&#x104;" horiz-adv-x="614" 
d="M-61 12l2 5q5 12 12 13q73 9 103 59l373 629q7 10 16 10h11q11 0 11 -10v-637q0 -44 59 -50q4 -1 4.5 -3.5t-0.5 -9.5l-1 -5q-2 -12 -13 -12q-12 -11 -21 -16q-25 -15 -60 -47q-20 -17 -29 -34t-9 -37q0 -21 13 -35.5t34 -14.5q22 0 44 17q9 8 14 1l5 -5q6 -8 0 -14
q-40 -53 -100 -53q-37 0 -58.5 21t-21.5 53q0 48 52 95q20 17 46 34q31 19 51 36q-58 4 -82 4q-21 0 -57 -2q-28 -3 -61 -3q-5 0 -6.5 2.5t1.5 9.5l2 5q3 7 6 9.5t9 3.5q33 6 56.5 20t24.5 35l4 182h-171l-104 -176q-10 -16 -10 -29t13 -21t40 -12q13 -2 8 -13l-2 -5
q-3 -7 -5.5 -9.5t-6.5 -2.5q-8 0 -65 3q-30 2 -40 2q-9 0 -35 -2q-23 -3 -50 -3q-11 0 -6 12zM374 301l5 269l-158 -269h153z" />
    <glyph glyph-name="aogonek" unicode="&#x105;" horiz-adv-x="476" 
d="M20.5 16.5q-21.5 31.5 -19.5 90.5q4 90 45.5 184t109.5 155.5t148 61.5q70 0 118 -35q20 -14 20 -32q0 -7 -7 -30l-97 -277q-13 -39 -13 -58q0 -16 9 -16q11 0 31.5 21t46.5 59q6 9 14 3l6 -4q3 -1 3 -6q0 -8 -10 -21q-52 -75 -111 -109q-11 -9 -19 -14q-34 -24 -61 -48
q-20 -17 -29 -34t-9 -37q0 -21 13 -35.5t34 -14.5q22 0 44 17q9 8 14 1l5 -5q6 -8 0 -14q-40 -53 -100 -53q-37 0 -58.5 21t-21.5 53q0 48 52 95q12 11 29 22.5t23 15.5l19 12q-28 3 -28 36q0 23 16 71l16 46q-45 -73 -89.5 -113t-79.5 -40q-42 0 -63.5 31.5zM99 52.5
q6 -13.5 22 -13.5q22 -1 64 52t88.5 145.5t80.5 204.5q-8 19 -20 29t-33 10q-53 0 -101 -70t-77.5 -164t-29.5 -155q0 -25 6 -38.5z" />
    <glyph glyph-name="Cacute" unicode="&#x106;" horiz-adv-x="511" 
d="M85 41q-49 56 -49 169q0 124 47.5 246.5t135 202t199.5 79.5q41 0 82.5 -11t60.5 -26q7 -6 7 -15q0 -6 -3 -14l-40 -132q-1 -5 -5.5 -8.5t-9.5 -3.5h-7q-11 0 -11 10q3 90 -19.5 129.5t-69.5 39.5q-68 0 -129 -76.5t-98 -189.5t-37 -213t32 -143t92 -43q42 0 81.5 20.5
t81.5 61.5q5 5 11 5t10 -4l2 -2q3 -3 3 -6q0 -5 -8 -15q-99 -117 -224 -117q-86 0 -135 56zM362 799q0 5 7 13l46 65q44 64 60 79q19 17 36 17q16 0 28 -12q13 -13 13 -29q0 -19 -18 -39q-26 -26 -146 -105q-5 -4 -11 -4q-5 0 -8 3l-4 5q-3 3 -3 7z" />
    <glyph glyph-name="cacute" unicode="&#x107;" horiz-adv-x="380" 
d="M44 26.5q-32 41.5 -32 112.5q0 80 40 167t103 144.5t127 57.5q57 0 92.5 -24.5t35.5 -67.5q0 -27 -18 -43t-43 -16q-19 0 -27 10t-9 21.5t-1 39.5q0 25 -7 38.5t-29 13.5q-37 0 -76.5 -56.5t-66 -138.5t-26.5 -151q0 -95 61 -95q32 0 69 26.5t71 73.5q6 9 15 3l5 -3
q10 -6 4 -15q-44 -70 -97 -104.5t-100 -34.5q-59 0 -91 41.5zM226 569q0 5 7 13l46 65q44 64 60 79q19 17 36 17q16 0 28 -12q13 -13 13 -29q0 -19 -18 -39q-26 -26 -146 -105q-5 -4 -11 -4q-5 0 -8 3l-4 5q-3 3 -3 7z" />
    <glyph glyph-name="Ccaron" unicode="&#x10c;" horiz-adv-x="511" 
d="M85 41q-49 56 -49 169q0 124 47.5 246.5t135 202t199.5 79.5q41 0 82.5 -11t60.5 -26q7 -6 7 -15q0 -6 -3 -14l-40 -132q-1 -5 -5.5 -8.5t-9.5 -3.5h-7q-11 0 -11 10q3 90 -19.5 129.5t-69.5 39.5q-68 0 -129 -76.5t-98 -189.5t-37 -213t32 -143t92 -43q42 0 81.5 20.5
t81.5 61.5q5 5 11 5t10 -4l2 -2q3 -3 3 -6q0 -5 -8 -15q-99 -117 -224 -117q-86 0 -135 56zM596 940q0 -7 -7 -14l-134 -138q-7 -8 -17 -8h-16q-8 0 -11 8l-50 138q-1 1 -1 4q0 8 12 17l4 3q8 4 11 4q7 0 10 -7l52 -108l118 108q8 6 13 6t8 -3l4 -3q4 -3 4 -7z" />
    <glyph glyph-name="ccaron" unicode="&#x10d;" horiz-adv-x="380" 
d="M44 26.5q-32 41.5 -32 112.5q0 80 40 167t103 144.5t127 57.5q57 0 92.5 -24.5t35.5 -67.5q0 -27 -18 -43t-43 -16q-19 0 -27 10t-9 21.5t-1 39.5q0 25 -7 38.5t-29 13.5q-37 0 -76.5 -56.5t-66 -138.5t-26.5 -151q0 -95 61 -95q32 0 69 26.5t71 73.5q6 9 15 3l5 -3
q10 -6 4 -15q-44 -70 -97 -104.5t-100 -34.5q-59 0 -91 41.5zM460 710q0 -7 -7 -14l-134 -138q-7 -8 -17 -8h-16q-8 0 -11 8l-50 138q-1 1 -1 4q0 8 12 17l4 3q8 4 11 4q7 0 10 -7l52 -108l118 108q8 6 13 6t8 -3l4 -3q4 -3 4 -7z" />
    <glyph glyph-name="Dcaron" unicode="&#x10e;" horiz-adv-x="557" 
d="M-64 12l2 5q3 7 6.5 9.5t9.5 4.5q24 4 42.5 15t23.5 28l177 579q1 3 1 8q0 13 -11.5 23t-28.5 13q-7 2 -9 5t1 9l2 5q3 8 5.5 10t6.5 2q25 0 41 -1l74 -1q26 0 38 1l41 1q121 0 176.5 -63t55.5 -174q0 -91 -41.5 -205.5t-136 -200t-244.5 -85.5l-68 1l-33 1l-89 -1
q-15 -1 -36 -1q-11 0 -6 12zM116 60q0 -29 42 -29h22q82 0 149 65.5t108.5 169t51.5 214.5q2 19 2 53q0 85 -30 124.5t-92 39.5h-10q-24 0 -41 -13.5t-25 -36.5l-173 -566q-4 -16 -4 -21zM561 930q0 -7 -7 -14l-134 -138q-7 -8 -17 -8h-16q-8 0 -11 8l-50 138q-1 1 -1 4
q0 8 12 17l4 3q8 4 11 4q7 0 10 -7l52 -108l118 108q8 6 13 6t8 -3l4 -3q4 -3 4 -7z" />
    <glyph glyph-name="dcaron" unicode="&#x10f;" horiz-adv-x="486" 
d="M240 -6.5q-8 8.5 -8 26.5q0 26 15 72l24 77q-49 -87 -98.5 -135.5t-88.5 -48.5q-42 0 -63.5 31.5t-19.5 90.5q4 90 45.5 184t109.5 155.5t148 61.5q35 0 67 -10l48 155q3 9 3 16q0 26 -33 36q-7 1 -4 10l3 8q3 9 10 10q73 15 122 42q7 4 12 2l4 -2q6 -2 4 -11l-192 -630
q-12 -39 -12 -57q0 -17 9 -17q11 0 31 21t46 59q6 9 14 3l6 -4q3 -1 3 -6q0 -8 -10 -21q-45 -64 -90 -95.5t-79 -31.5q-18 0 -26 8.5zM99 52.5q6 -13.5 22 -13.5q22 -1 62.5 49.5t86 139t79.5 196.5l5 17q-8 19 -20 29t-33 10q-53 0 -101 -70t-77.5 -164t-29.5 -155
q0 -25 6 -38.5zM558 613.5q-2 3.5 -1 13.5l5 82q1 11 3 43.5t7 48.5q6 23 20.5 37t33.5 13q17 1 26 -8.5t9 -26.5q0 -5 -2 -15q-19 -60 -72 -177q-4 -8 -7.5 -11t-9.5 -3h-5q-5 0 -7 3.5z" />
    <glyph glyph-name="Dcroat" unicode="&#x110;" horiz-adv-x="557" 
d="M-64 12l2 5q3 7 6.5 9.5t9.5 4.5q24 4 42.5 15t23.5 28l82 267h-55q-4 0 -7 3.5t-3 8.5v16q0 5 3 8.5t7 3.5h67l83 272q1 3 1 8q0 13 -11.5 23t-28.5 13q-7 2 -9 5t1 9l2 5q3 8 5.5 10t6.5 2q25 0 41 -1l74 -1q26 0 38 1l41 1q121 0 176.5 -63t55.5 -174
q0 -91 -41.5 -205.5t-136 -200t-244.5 -85.5l-68 1l-33 1l-89 -1q-15 -1 -36 -1q-11 0 -6 12zM116 60q0 -29 42 -29h22q82 0 149 65.5t108.5 169t51.5 214.5q2 19 2 53q0 85 -30 124.5t-92 39.5h-10q-24 0 -41 -13.5t-25 -36.5l-81 -266h107q9 0 9 -12v-16q0 -12 -9 -12
h-120l-79 -260q-4 -16 -4 -21z" />
    <glyph glyph-name="dcroat" unicode="&#x111;" horiz-adv-x="486" 
d="M240 -6.5q-8 8.5 -8 26.5q0 26 15 72l24 77q-49 -87 -98.5 -135.5t-88.5 -48.5q-42 0 -63.5 31.5t-19.5 90.5q4 90 45.5 184t109.5 155.5t148 61.5q35 0 67 -10l29 93h-93q-3 0 -4.5 3.5t-0.5 8.5l3 16q2 12 10 12h97l7 22q3 9 3 16q0 26 -33 36q-7 1 -4 10l3 8
q3 9 10 10q73 15 122 42q7 4 12 2l4 -2q6 -2 4 -11l-41 -133h37q3 0 4.5 -3.5t0.5 -8.5l-3 -16q-2 -12 -10 -12h-41l-139 -457q-12 -39 -12 -57q0 -17 9 -17q11 0 31 21t46 59q6 9 14 3l6 -4q3 -1 3 -6q0 -8 -10 -21q-45 -64 -90 -95.5t-79 -31.5q-18 0 -26 8.5zM99 52.5
q6 -13.5 22 -13.5q22 -1 62.5 49.5t86 139t79.5 196.5l5 17q-8 19 -20 29t-33 10q-53 0 -101 -70t-77.5 -164t-29.5 -155q0 -25 6 -38.5z" />
    <glyph glyph-name="Emacron" unicode="&#x112;" horiz-adv-x="498" 
d="M-63.5 2.5q-0.5 2.5 0.5 9.5l1 5q2 11 16 14q24 4 42.5 15t23.5 28l177 579q1 3 1 8q0 13 -11 22.5t-29 13.5q-13 4 -8 14l2 5q3 8 5.5 10t6.5 2q28 0 49 -1q74 -2 157 -2l108 1q54 2 93 2q19 0 27 -3.5t8 -11.5q0 -6 -3 -17l-42 -136q-1 -4 -4.5 -6.5t-6.5 -2.5h-8
q-8 0 -7 12q2 12 2 34q0 54 -33.5 75t-113.5 21h-31q-25 0 -42 -12t-24 -34l-78 -257h111q34 0 62.5 22t45.5 64q3 9 15 9h5q12 0 9 -9l-14 -41q-10 -27 -20 -60l-13 -46q-4 -16 -16 -57q-2 -5 -4.5 -7t-9.5 -2h-5q-6 0 -8 3t-1 10q3 14 3 24q0 29 -16 43.5t-45 14.5h-109
l-84 -275q-2 -8 -2 -12q0 -17 13 -26.5t35 -9.5h36q61 0 101 12t68.5 39.5t52.5 78.5q5 12 14 12h8q4 0 5.5 -2.5t0.5 -6.5l-42 -136q-6 -19 -15.5 -25.5t-35.5 -6.5l-88 1q-78 2 -123 2q-82 0 -158 -2q-21 -1 -49 -1q-5 0 -5.5 2.5zM286.5 782.5q-0.5 3.5 1.5 8.5l7 16
q5 12 13 12h251q3 0 4 -3.5t-1 -8.5l-7 -16q-2 -5 -6 -8.5t-8 -3.5h-250q-4 0 -4.5 3.5z" />
    <glyph glyph-name="emacron" unicode="&#x113;" horiz-adv-x="383" 
d="M42 24.5q-31 39.5 -31 108.5q0 82 39 170t104.5 146.5t140.5 58.5q60 0 83 -23.5t21 -62.5q-2 -44 -64.5 -96t-216.5 -94q-12 -51 -12 -98q0 -95 59 -95q30 0 71 27t75 73q6 9 15 3l5 -3q10 -6 4 -15q-45 -65 -102.5 -102t-100.5 -37q-59 0 -90 39.5zM267.5 337.5
q43.5 46.5 43.5 99.5q0 21 -9 32t-27 11q-44 0 -85 -66t-65 -155q99 32 142.5 78.5zM185.5 562.5q-0.5 3.5 1.5 8.5l7 16q5 12 13 12h251q3 0 4 -3.5t-1 -8.5l-7 -16q-2 -5 -6 -8.5t-8 -3.5h-250q-4 0 -4.5 3.5z" />
    <glyph glyph-name="Edotaccent" unicode="&#x116;" horiz-adv-x="498" 
d="M-63.5 2.5q-0.5 2.5 0.5 9.5l1 5q2 11 16 14q24 4 42.5 15t23.5 28l177 579q1 3 1 8q0 13 -11 22.5t-29 13.5q-13 4 -8 14l2 5q3 8 5.5 10t6.5 2q28 0 49 -1q74 -2 157 -2l108 1q54 2 93 2q19 0 27 -3.5t8 -11.5q0 -6 -3 -17l-42 -136q-1 -4 -4.5 -6.5t-6.5 -2.5h-8
q-8 0 -7 12q2 12 2 34q0 54 -33.5 75t-113.5 21h-31q-25 0 -42 -12t-24 -34l-78 -257h111q34 0 62.5 22t45.5 64q3 9 15 9h5q12 0 9 -9l-14 -41q-10 -27 -20 -60l-13 -46q-4 -16 -16 -57q-2 -5 -4.5 -7t-9.5 -2h-5q-6 0 -8 3t-1 10q3 14 3 24q0 29 -16 43.5t-45 14.5h-109
l-84 -275q-2 -8 -2 -12q0 -17 13 -26.5t35 -9.5h36q61 0 101 12t68.5 39.5t52.5 78.5q5 12 14 12h8q4 0 5.5 -2.5t0.5 -6.5l-42 -136q-6 -19 -15.5 -25.5t-35.5 -6.5l-88 1q-78 2 -123 2q-82 0 -158 -2q-21 -1 -49 -1q-5 0 -5.5 2.5zM382 814.5q-9 10.5 -9 29.5q0 14 4 27
q7 29 25 47t40 18q16 -1 25 -12t9 -30q0 -11 -3 -25q-8 -30 -26 -48t-40 -18q-16 1 -25 11.5z" />
    <glyph glyph-name="edotaccent" unicode="&#x117;" horiz-adv-x="383" 
d="M42 24.5q-31 39.5 -31 108.5q0 82 39 170t104.5 146.5t140.5 58.5q60 0 83 -23.5t21 -62.5q-2 -44 -64.5 -96t-216.5 -94q-12 -51 -12 -98q0 -95 59 -95q30 0 71 27t75 73q6 9 15 3l5 -3q10 -6 4 -15q-45 -65 -102.5 -102t-100.5 -37q-59 0 -90 39.5zM267.5 337.5
q43.5 46.5 43.5 99.5q0 21 -9 32t-27 11q-44 0 -85 -66t-65 -155q99 32 142.5 78.5zM281 594.5q-9 10.5 -9 29.5q0 14 4 27q7 29 25 47t40 18q16 -1 25 -12t9 -30q0 -11 -3 -25q-8 -30 -26 -48t-40 -18q-16 1 -25 11.5z" />
    <glyph glyph-name="Eogonek" unicode="&#x118;" horiz-adv-x="498" 
d="M-63.5 2.5q-0.5 2.5 0.5 9.5l1 5q2 11 16 14q24 4 42.5 15t23.5 28l177 579q1 3 1 8q0 13 -11 22.5t-29 13.5q-13 4 -8 14l2 5q3 8 5.5 10t6.5 2q28 0 49 -1q74 -2 157 -2l108 1q54 2 93 2q19 0 27 -3.5t8 -11.5q0 -6 -3 -17l-42 -136q-1 -4 -4.5 -6.5t-6.5 -2.5h-8
q-8 0 -7 12q2 12 2 34q0 54 -33.5 75t-113.5 21h-31q-25 0 -42 -12t-24 -34l-78 -257h111q34 0 62.5 22t45.5 64q3 9 15 9h5q12 0 9 -9l-14 -41q-10 -27 -20 -60l-13 -46q-4 -16 -16 -57q-2 -5 -4.5 -7t-9.5 -2h-5q-6 0 -8 3t-1 10q3 14 3 24q0 29 -16 43.5t-45 14.5h-109
l-84 -275q-2 -8 -2 -12q0 -17 13 -26.5t35 -9.5h36q61 0 101 12t68.5 39.5t52.5 78.5q5 12 14 12h8q4 0 5.5 -2.5t0.5 -6.5l-42 -136q-5 -15 -9 -20l-1 -1l-7 -6q-6 -4 -23.5 -15.5t-49.5 -40.5q-20 -17 -29 -34t-9 -37q0 -21 13 -35.5t34 -14.5q22 0 44 17q9 8 14 1l5 -5
q6 -8 0 -14q-40 -53 -100 -53q-37 0 -58.5 21t-21.5 53q0 48 52 95q13 12 47 34l33 23l-77 1q-74 2 -119 2q-82 0 -158 -2q-21 -1 -49 -1q-5 0 -5.5 2.5z" />
    <glyph glyph-name="eogonek" unicode="&#x119;" horiz-adv-x="383" 
d="M41.5 25.5q-30.5 39.5 -30.5 107.5q0 82 39 170t104.5 146.5t140.5 58.5q60 0 83 -23.5t21 -62.5q-2 -44 -64.5 -96t-216.5 -94q-12 -51 -12 -98q0 -95 59 -95q30 0 71 27t75 73q6 9 15 3l5 -3q10 -6 4 -15q-43 -63 -101 -101l5 -4q-12 -11 -21 -16q-25 -15 -60 -47
q-20 -17 -29 -34t-9 -37q0 -21 13 -35.5t34 -14.5q22 0 44 17q9 8 14 1l5 -5q6 -8 0 -14q-40 -53 -100 -53q-37 0 -58.5 21t-21.5 53q0 48 52 95q16 15 51 37q-16 -2 -23 -2q-58 1 -88.5 40.5zM267.5 337.5q43.5 46.5 43.5 99.5q0 21 -9 32t-27 11q-44 0 -85 -66t-65 -155
q99 32 142.5 78.5z" />
    <glyph glyph-name="Ecaron" unicode="&#x11a;" horiz-adv-x="498" 
d="M-63.5 2.5q-0.5 2.5 0.5 9.5l1 5q2 11 16 14q24 4 42.5 15t23.5 28l177 579q1 3 1 8q0 13 -11 22.5t-29 13.5q-13 4 -8 14l2 5q3 8 5.5 10t6.5 2q28 0 49 -1q74 -2 157 -2l108 1q54 2 93 2q19 0 27 -3.5t8 -11.5q0 -6 -3 -17l-42 -136q-1 -4 -4.5 -6.5t-6.5 -2.5h-8
q-8 0 -7 12q2 12 2 34q0 54 -33.5 75t-113.5 21h-31q-25 0 -42 -12t-24 -34l-78 -257h111q34 0 62.5 22t45.5 64q3 9 15 9h5q12 0 9 -9l-14 -41q-10 -27 -20 -60l-13 -46q-4 -16 -16 -57q-2 -5 -4.5 -7t-9.5 -2h-5q-6 0 -8 3t-1 10q3 14 3 24q0 29 -16 43.5t-45 14.5h-109
l-84 -275q-2 -8 -2 -12q0 -17 13 -26.5t35 -9.5h36q61 0 101 12t68.5 39.5t52.5 78.5q5 12 14 12h8q4 0 5.5 -2.5t0.5 -6.5l-42 -136q-6 -19 -15.5 -25.5t-35.5 -6.5l-88 1q-78 2 -123 2q-82 0 -158 -2q-21 -1 -49 -1q-5 0 -5.5 2.5zM580 930q0 -7 -7 -14l-134 -138
q-7 -8 -17 -8h-16q-8 0 -11 8l-50 138q-1 1 -1 4q0 8 12 17l4 3q8 4 11 4q7 0 10 -7l52 -108l118 108q8 6 13 6t8 -3l4 -3q4 -3 4 -7z" />
    <glyph glyph-name="ecaron" unicode="&#x11b;" horiz-adv-x="383" 
d="M42 24.5q-31 39.5 -31 108.5q0 82 39 170t104.5 146.5t140.5 58.5q60 0 83 -23.5t21 -62.5q-2 -44 -64.5 -96t-216.5 -94q-12 -51 -12 -98q0 -95 59 -95q30 0 71 27t75 73q6 9 15 3l5 -3q10 -6 4 -15q-45 -65 -102.5 -102t-100.5 -37q-59 0 -90 39.5zM267.5 337.5
q43.5 46.5 43.5 99.5q0 21 -9 32t-27 11q-44 0 -85 -66t-65 -155q99 32 142.5 78.5zM479 710q0 -7 -7 -14l-134 -138q-7 -8 -17 -8h-16q-8 0 -11 8l-50 138q-1 1 -1 4q0 8 12 17l4 3q8 4 11 4q7 0 10 -7l52 -108l118 108q8 6 13 6t8 -3l4 -3q4 -3 4 -7z" />
    <glyph glyph-name="uni0122" unicode="&#x122;" horiz-adv-x="569" 
d="M85 41q-49 56 -49 169q0 124 47.5 246.5t135 202t199.5 79.5q41 0 82.5 -11t60.5 -26q7 -6 7 -15q0 -6 -3 -14l-40 -132q-1 -5 -5.5 -8.5t-9.5 -3.5h-7q-11 0 -11 10q3 90 -19.5 129.5t-69.5 39.5q-68 0 -129 -76.5t-98 -189.5t-37 -213q0 -106 28.5 -157t76.5 -51
q35 0 70 26.5t47 69.5l56 198q2 8 2 11q0 15 -11 25t-29 14q-5 2 -6.5 4.5t-0.5 9.5l1 5q2 12 13 12q29 0 54 -3q32 -2 48 -2t50 2q27 3 57 3q5 0 5.5 -2.5t-0.5 -9.5l-1 -5q-2 -11 -12 -13q-27 -4 -47 -18t-26 -33q-26 -81 -38.5 -126.5t-12.5 -74.5q0 -19 7 -25
q4 -4 7.5 -6.5t5.5 -5t1 -5.5l-2 -6q-3 -12 -16 -12q-37 -2 -63 -10.5t-59 -24.5q-33 -17 -59.5 -25t-64.5 -8q-86 0 -135 56zM44 -216q-5 7 -5 11t3 9l3 4q3 5 7 6.5t8 -2.5q21 -21 53 -21q49 0 64 37q-13 3 -20 14t-7 28q0 14 4 27q8 30 26 48.5t40 18.5q18 0 28 -11.5
t10 -34.5q0 -17 -6 -39q-7 -26 -27 -54t-50.5 -47t-65.5 -19q-43 0 -65 25z" />
    <glyph glyph-name="uni0123" unicode="&#x123;" horiz-adv-x="456" 
d="M-25.5 -199q-33.5 28 -33.5 72q0 78 106 147q-7 2 -11.5 10t-11.5 29l-14 40q-2 5 -2 14q0 11 8 21t25 21q15 9 39.5 21.5t45.5 20.5q-27 16 -42 43t-15 61q0 52 28 102t77.5 81.5t110.5 31.5q22 0 38 -5t37 -14q12 -5 24 -9t23 -4q16 0 35 5.5t28 7.5q6 2 13 2q6 0 8 -3
t2 -9v-11q0 -23 -23 -26q-36 -4 -65 -4q15 -25 15 -57q0 -56 -30.5 -105t-81 -78t-108.5 -29h-4v0q-31 0 -55 -7t-37 -17.5t-13 -19.5q0 -19 43 -19q24 0 48 3q30 2 40 2q66 0 108.5 -19t42.5 -76q0 -69 -43.5 -126.5t-113.5 -91t-146 -33.5q-62 0 -95.5 28zM59 -154.5
q26 -26.5 72 -26.5q40 0 81.5 22t68 57t26.5 71q0 34 -39 49.5t-82 15.5q-22 0 -80 -8q-41 -18 -57 -50t-16 -67q0 -37 26 -63.5zM173.5 224q16.5 -19 36.5 -19q28 0 56.5 26t46.5 72t18 102q0 38 -15 60.5t-38 22.5q-32 0 -61 -32.5t-46 -82.5t-15 -100q1 -30 17.5 -49z
M436 838q3 0 6 -7l3 -9l1 -4q0 -5 -5 -10t-12 -10q-24 -21 -44 -54t-27 -62q29 -5 29 -40q0 -14 -4 -27q-8 -30 -25.5 -47t-39.5 -17q-20 0 -32 14t-12 40q0 17 6 39q29 102 150 191q3 3 6 3z" />
    <glyph glyph-name="Imacron" unicode="&#x12a;" horiz-adv-x="246" 
d="M-63.5 2.5q-0.5 2.5 0.5 9.5l1 5q2 11 16 14q25 5 44 18.5t25 31.5l173 566q2 8 2 12q0 14 -11 24t-29 14q-5 2 -6.5 4.5t-0.5 9.5l1 5q2 12 13 12q29 0 54 -3q32 -2 48 -2t50 2q27 3 57 3q5 0 5.5 -2.5t-0.5 -9.5l-1 -5q-2 -11 -12 -13q-26 -4 -46 -16t-25 -29
l-176 -577q-1 -3 -1 -9q0 -14 12 -24t32 -13q6 -1 3 -13l-1 -5q-2 -12 -13 -12q-29 0 -55 3q-32 2 -49 2t-49 -2q-26 -3 -56 -3q-5 0 -5.5 2.5zM152.5 782.5q-0.5 3.5 1.5 8.5l7 16q5 12 13 12h251q3 0 4 -3.5t-1 -8.5l-7 -16q-2 -5 -6 -8.5t-8 -3.5h-250q-4 0 -4.5 3.5z
" />
    <glyph glyph-name="imacron" unicode="&#x12b;" horiz-adv-x="284" 
d="M25 23q0 26 16 68l101 268q14 35 14 56q0 16 -10 16q-12 0 -32.5 -20t-45.5 -58q-6 -9 -14 -3l-6 4q-7 6 -2 14q47 70 95 105t83 35q37 0 37 -38q0 -26 -16 -68l-101 -268q-14 -35 -14 -56q0 -16 10 -16q12 0 32.5 20.5t45.5 57.5q6 9 14 3l6 -4q7 -6 2 -14
q-47 -70 -95 -105t-83 -35q-37 0 -37 38zM108.5 562.5q-0.5 3.5 1.5 8.5l7 16q5 12 13 12h251q3 0 4 -3.5t-1 -8.5l-7 -16q-2 -5 -6 -8.5t-8 -3.5h-250q-4 0 -4.5 3.5z" />
    <glyph glyph-name="Iogonek" unicode="&#x12e;" horiz-adv-x="246" 
d="M-63.5 2.5q-0.5 2.5 0.5 9.5l1 5q2 11 16 14q25 5 44 18.5t25 31.5l173 566q2 8 2 12q0 14 -11 24t-29 14q-5 2 -6.5 4.5t-0.5 9.5l1 5q2 12 13 12q29 0 54 -3q32 -2 48 -2t50 2q27 3 57 3q5 0 5.5 -2.5t-0.5 -9.5l-1 -5q-2 -11 -12 -13q-26 -4 -46 -16t-25 -29
l-176 -577q-1 -3 -1 -9q0 -14 12 -24t32 -13q6 -1 3 -13l-1 -5q-3 -10 -10 -12q-5 -3 -22 -14.5t-51 -41.5q-20 -17 -29 -34t-9 -37q0 -21 13 -35.5t34 -14.5q22 0 44 17q9 8 14 1l5 -5q6 -8 0 -14q-40 -53 -100 -53q-37 0 -58.5 21t-21.5 53q0 48 52 95q19 16 50 36l39 27
q-46 4 -67 4q-17 0 -49 -2q-26 -3 -56 -3q-5 0 -5.5 2.5z" />
    <glyph glyph-name="iogonek" unicode="&#x12f;" horiz-adv-x="284" 
d="M204 594.5q-9 10.5 -9 29.5q0 14 4 27q8 29 25.5 47t39.5 18q16 -1 25 -12t9 -30q0 -11 -3 -25q-8 -30 -26 -48t-40 -18q-16 1 -25 11.5zM-11 -59q15 13 36 27l27 18q-27 4 -27 38q0 26 16 67l101 268q14 35 14 56q0 16 -10 16q-12 0 -32.5 -20t-45.5 -58q-6 -9 -14 -3
l-6 4q-7 6 -2 14q47 70 95 105t83 35q37 0 37 -38q0 -26 -16 -68l-101 -268q-14 -35 -14 -56q0 -16 10 -16q12 0 32.5 20.5t45.5 57.5q6 9 14 3l6 -4q7 -6 2 -14q-62 -93 -129 -127q-4 -3 -20.5 -13.5t-45.5 -37.5q-20 -17 -29 -34t-9 -37q0 -21 13 -35.5t34 -14.5
q22 0 44 17q9 8 14 1l5 -5q6 -8 0 -14q-40 -53 -100 -53q-37 0 -58.5 21t-21.5 53q0 48 52 95z" />
    <glyph glyph-name="dotlessi" unicode="&#x131;" horiz-adv-x="284" 
d="M25 23q0 26 16 68l101 268q14 35 14 56q0 16 -10 16q-12 0 -32.5 -20t-45.5 -58q-6 -9 -14 -3l-6 4q-7 6 -2 14q47 70 95 105t83 35q37 0 37 -38q0 -26 -16 -68l-101 -268q-14 -35 -14 -56q0 -16 10 -16q12 0 32.5 20.5t45.5 57.5q6 9 14 3l6 -4q7 -6 2 -14
q-47 -70 -95 -105t-83 -35q-37 0 -37 38z" />
    <glyph glyph-name="IJ" unicode="&#x132;" horiz-adv-x="608" 
d="M-63.5 2.5q-0.5 2.5 0.5 9.5l1 5q2 11 16 14q25 5 44 18.5t25 31.5l173 566q2 8 2 12q0 14 -11 24t-29 14q-5 2 -6.5 4.5t-0.5 9.5l1 5q2 12 13 12q29 0 54 -3q32 -2 48 -2t50 2q27 3 57 3q5 0 5.5 -2.5t-0.5 -9.5l-1 -5q-2 -11 -12 -13q-26 -4 -46 -16t-25 -29
l-176 -577q-1 -3 -1 -9q0 -14 12 -24t32 -13q6 -1 3 -13l-1 -5q-2 -12 -13 -12q-29 0 -55 3q-32 2 -49 2t-49 -2q-26 -3 -56 -3q-5 0 -5.5 2.5zM216.5 5.5q-22.5 20.5 -22.5 50.5q0 9 4 25q9 29 29 47t43 18q24 0 33 -11.5t9 -31.5q0 -8 -2 -28q-2 -16 -2 -24q0 -26 20 -26
q39 0 69 98l159 524q2 8 2 12q0 30 -59 39q-5 1 -6.5 3.5t-0.5 9.5l1 5q2 12 13 12q14 0 77 -3q30 -2 44 -2q17 0 51 2q27 3 57 3q11 0 6 -12l-2 -5q-5 -12 -12 -13q-25 -4 -45.5 -16t-25.5 -29l-139 -453q-29 -94 -91 -154.5t-137 -60.5q-50 0 -72.5 20.5z" />
    <glyph glyph-name="ij" unicode="&#x133;" horiz-adv-x="555" 
d="M25 23q0 26 16 68l101 268q14 35 14 56q0 16 -10 16q-12 0 -32.5 -20t-45.5 -58q-6 -9 -14 -3l-6 4q-7 6 -2 14q47 70 95 105t83 35q37 0 37 -38q0 -26 -16 -68l-101 -268q-14 -35 -14 -56q0 -16 10 -16q12 0 32.5 20.5t45.5 57.5q6 9 14 3l6 -4q7 -6 2 -14
q-47 -70 -95 -105t-83 -35q-37 0 -37 38zM244 704.5q18 18.5 40 18.5q18 0 27.5 -10.5t9.5 -30.5q0 -15 -4 -28q-8 -31 -26 -49.5t-39 -18.5q-18 0 -28 11t-10 31q0 15 4 28q8 30 26 48.5zM136.5 -185q-18.5 17 -18.5 43q0 10 3 21q7 23 27 42.5t39 19.5t26 -10t7 -28
q0 -8 -2 -24l-1 -21q0 -13 3.5 -19t14.5 -6q13 0 24 13.5t23.5 47t34.5 100.5l119 365q13 39 13 58q0 14 -8 14q-10 0 -30.5 -20t-47.5 -57q-6 -9 -14 -3l-6 4q-8 6 -1 14q50 72 95.5 105.5t82.5 33.5q36 0 36 -37q0 -24 -15 -69l-121 -357q-39 -118 -96.5 -182.5
t-129.5 -64.5q-39 0 -57.5 17zM534 704.5q18 18.5 40 18.5q18 0 27.5 -10.5t9.5 -30.5q0 -15 -4 -28q-8 -31 -26 -49.5t-39 -18.5q-18 0 -28 11t-10 31q0 15 4 28q8 30 26 48.5z" />
    <glyph glyph-name="uni0136" unicode="&#x136;" horiz-adv-x="565" 
d="M-63.5 2.5q-0.5 2.5 0.5 9.5l1 5q2 11 16 14q25 5 44 18.5t25 31.5l173 566q2 8 2 11q0 15 -11 25t-29 14q-13 4 -8 14l2 5q3 8 5.5 10t6.5 2q30 0 55 -3q32 -2 48 -2q15 0 49 2q27 3 58 3q5 0 6.5 -2.5t-1.5 -9.5l-2 -5q-2 -6 -4.5 -9t-6.5 -4q-26 -4 -46 -16.5
t-26 -30.5l-94 -308l107 108l1 1l181 184q23 25 23 38q0 18 -41 24q-5 1 -6.5 3.5t-0.5 9.5l1 5q2 12 13 12q9 0 66 -3q32 -2 41 -2q11 0 37 2q20 3 39 3q5 0 6.5 -2.5t-1.5 -9.5l-2 -5q-2 -6 -4.5 -9t-6.5 -4q-26 -4 -58.5 -19.5t-52.5 -34.5l-225 -224l90 -327
q6 -23 29.5 -40t48.5 -21q4 -1 4.5 -3.5t-0.5 -9.5l-1 -5q-2 -12 -13 -12q-31 0 -64 3q-44 2 -64 2q-17 0 -49 -2q-24 -3 -50 -3q-5 0 -5.5 2.5t0.5 9.5l1 5q2 11 16 14q21 5 34.5 16.5t13.5 26.5q0 7 -1 10l-66 258l-58 -58l-64 -209q-1 -3 -1 -9q0 -14 12 -24.5t31 -13.5
q4 -1 4.5 -3.5t-0.5 -9.5l-1 -5q-2 -12 -13 -12q-29 0 -56 3q-32 2 -48 2t-50 -2q-26 -3 -55 -3q-5 0 -5.5 2.5zM18 -216q-5 7 -5 11t3 9l3 4q3 5 7 6.5t8 -2.5q21 -21 53 -21q49 0 64 37q-13 3 -20 14t-7 28q0 14 4 27q8 30 26 48.5t40 18.5q18 0 28 -11.5t10 -34.5
q0 -17 -6 -39q-7 -26 -27 -54t-50.5 -47t-65.5 -19q-43 0 -65 25z" />
    <glyph glyph-name="uni0137" unicode="&#x137;" horiz-adv-x="490" 
d="M-11.5 3q-2.5 3 -1.5 8l197 642q3 9 3 16q0 26 -33 36q-7 1 -4 10l3 8q4 9 11 10q72 15 121 42q7 4 12 2l4 -2q6 -2 4 -11l-177 -578q63 100 126.5 173t114.5 111t79 38q30 0 44.5 -13.5t14.5 -37.5q0 -10 -3 -24q-7 -24 -22 -37.5t-37 -13.5q-15 0 -22 5t-14 16
q-6 9 -11.5 13.5t-16.5 4.5q-17 0 -50.5 -26.5t-76.5 -76.5l55 -206q8 -29 16 -42.5t19 -13.5q13 0 32 19.5t50 64.5q6 9 14 3l6 -4q3 -1 3 -6q0 -8 -10 -21q-47 -70 -78 -98.5t-61 -28.5q-27 0 -44 22.5t-29 78.5l-34 153q-52 -76 -94 -149l-25 -82q-3 -8 -12 -8h-66
q-5 0 -7.5 3zM-26 -216q-5 7 -5 11t3 9l3 4q3 5 7 6.5t8 -2.5q21 -21 53 -21q49 0 64 37q-13 3 -20 14t-7 28q0 14 4 27q8 30 26 48.5t40 18.5q18 0 28 -11.5t10 -34.5q0 -17 -6 -39q-7 -26 -27 -54t-50.5 -47t-65.5 -19q-43 0 -65 25z" />
    <glyph glyph-name="Lacute" unicode="&#x139;" horiz-adv-x="485" 
d="M-64 12l2 5q3 7 6.5 9.5t9.5 4.5q24 5 43 16.5t24 27.5l176 576q2 6 2 9q0 13 -11.5 23t-30.5 14q-6 2 -8 5t1 9l2 5q3 8 5.5 10t6.5 2q30 0 54 -3q32 -2 48 -2t50 2q29 3 58 3q10 0 5 -12l-2 -5q-2 -6 -5 -9t-7 -4q-26 -4 -46 -18t-26 -33l-173 -566q-2 -8 -2 -12
q0 -15 11.5 -24.5t29.5 -9.5h31q61 0 101 12t68.5 39.5t52.5 78.5q5 12 14 12h8q4 0 5.5 -2.5t0.5 -6.5l-42 -136q-6 -19 -15.5 -25.5t-35.5 -6.5q-38 0 -92 2l-107 1q-82 0 -158 -2q-21 -1 -49 -1q-10 0 -5 12zM210 789q0 5 7 13l46 65q44 64 60 79q19 17 36 17
q16 0 28 -12q13 -13 13 -29q0 -19 -18 -39q-26 -26 -146 -105q-5 -4 -11 -4q-5 0 -8 3l-4 5q-3 3 -3 7z" />
    <glyph glyph-name="lacute" unicode="&#x13a;" horiz-adv-x="251" 
d="M5 -6.5q-8 8.5 -8 26.5q0 26 15 72l172 561q3 9 3 16q0 26 -33 36q-7 1 -4 10l3 8q3 9 10 10q73 15 122 42q7 4 12 2l4 -2q6 -2 4 -11l-192 -630q-12 -39 -12 -57q0 -17 9 -17q11 0 31 21t46 59q6 9 14 3l6 -4q3 -1 3 -6q0 -8 -10 -21q-45 -64 -90 -95.5t-79 -31.5
q-18 0 -26 8.5zM180 825q0 5 7 13l46 65q44 64 60 79q19 17 36 17q16 0 28 -12q13 -13 13 -29q0 -19 -18 -39q-26 -26 -146 -105q-5 -4 -11 -4q-5 0 -8 3l-4 5q-3 3 -3 7z" />
    <glyph glyph-name="uni013B" unicode="&#x13b;" horiz-adv-x="485" 
d="M-64 12l2 5q3 7 6.5 9.5t9.5 4.5q24 5 43 16.5t24 27.5l176 576q2 6 2 9q0 13 -11.5 23t-30.5 14q-6 2 -8 5t1 9l2 5q3 8 5.5 10t6.5 2q30 0 54 -3q32 -2 48 -2t50 2q29 3 58 3q10 0 5 -12l-2 -5q-2 -6 -5 -9t-7 -4q-26 -4 -46 -18t-26 -33l-173 -566q-2 -8 -2 -12
q0 -15 11.5 -24.5t29.5 -9.5h31q61 0 101 12t68.5 39.5t52.5 78.5q5 12 14 12h8q4 0 5.5 -2.5t0.5 -6.5l-42 -136q-6 -19 -15.5 -25.5t-35.5 -6.5q-38 0 -92 2l-107 1q-82 0 -158 -2q-21 -1 -49 -1q-10 0 -5 12zM-17 -216q-5 7 -5 11t3 9l3 4q3 5 7 6.5t8 -2.5
q21 -21 53 -21q49 0 64 37q-13 3 -20 14t-7 28q0 14 4 27q8 30 26 48.5t40 18.5q18 0 28 -11.5t10 -34.5q0 -17 -6 -39q-7 -26 -27 -54t-50.5 -47t-65.5 -19q-43 0 -65 25z" />
    <glyph glyph-name="uni013C" unicode="&#x13c;" horiz-adv-x="251" 
d="M5 -6.5q-8 8.5 -8 26.5q0 26 15 72l172 561q3 9 3 16q0 26 -33 36q-7 1 -4 10l3 8q3 9 10 10q73 15 122 42q7 4 12 2l4 -2q6 -2 4 -11l-192 -630q-12 -39 -12 -57q0 -17 9 -17q11 0 31 21t46 59q6 9 14 3l6 -4q3 -1 3 -6q0 -8 -10 -21q-45 -64 -90 -95.5t-79 -31.5
q-18 0 -26 8.5zM-147 -231q-5 7 -5 11t3 9l3 4q3 5 7 6.5t8 -2.5q21 -21 53 -21q49 0 64 37q-13 3 -20 14t-7 28q0 14 4 27q8 30 26 48.5t40 18.5q18 0 28 -11.5t10 -34.5q0 -17 -6 -39q-7 -26 -27 -54t-50.5 -47t-65.5 -19q-43 0 -65 25z" />
    <glyph glyph-name="Lcaron" unicode="&#x13d;" horiz-adv-x="485" 
d="M-64 12l2 5q3 7 6.5 9.5t9.5 4.5q24 5 43 16.5t24 27.5l176 576q2 6 2 9q0 13 -11.5 23t-30.5 14q-6 2 -8 5t1 9l2 5q3 8 5.5 10t6.5 2q30 0 54 -3q32 -2 48 -2t50 2q29 3 58 3q10 0 5 -12l-2 -5q-2 -6 -5 -9t-7 -4q-26 -4 -46 -18t-26 -33l-173 -566q-2 -8 -2 -12
q0 -15 11.5 -24.5t29.5 -9.5h31q61 0 101 12t68.5 39.5t52.5 78.5q5 12 14 12h8q4 0 5.5 -2.5t0.5 -6.5l-42 -136q-6 -19 -15.5 -25.5t-35.5 -6.5q-38 0 -92 2l-107 1q-82 0 -158 -2q-21 -1 -49 -1q-10 0 -5 12zM409 610.5q-2 3.5 -1 13.5l5 82q1 11 3 43.5t7 48.5
q6 23 20.5 37t33.5 13q17 1 26 -8.5t9 -26.5q0 -5 -2 -15q-19 -60 -72 -177q-4 -8 -7.5 -11t-9.5 -3h-5q-5 0 -7 3.5z" />
    <glyph glyph-name="lcaron" unicode="&#x13e;" horiz-adv-x="251" 
d="M5 -6.5q-8 8.5 -8 26.5q0 26 15 72l172 561q3 9 3 16q0 26 -33 36q-7 1 -4 10l3 8q3 9 10 10q73 15 122 42q7 4 12 2l4 -2q6 -2 4 -11l-192 -630q-12 -39 -12 -57q0 -17 9 -17q11 0 31 21t46 59q6 9 14 3l6 -4q3 -1 3 -6q0 -8 -10 -21q-45 -64 -90 -95.5t-79 -31.5
q-18 0 -26 8.5zM321 609.5q-2 3.5 -1 13.5l5 82q1 11 3 43.5t7 48.5q6 23 20.5 37t33.5 13q17 1 26 -8.5t9 -26.5q0 -5 -2 -15q-19 -60 -72 -177q-4 -8 -7.5 -11t-9.5 -3h-5q-5 0 -7 3.5z" />
    <glyph glyph-name="Lslash" unicode="&#x141;" horiz-adv-x="485" 
d="M-64 12l2 5q3 7 6.5 9.5t9.5 4.5q24 5 43 16.5t24 27.5l68 223l-44 -29q-4 -2 -7 -2q-5 0 -10 5l-9 14q-2 4 -2 7q0 6 6 9l84 55l90 294q2 6 2 9q0 13 -11.5 23t-30.5 14q-6 2 -8 5t1 9l2 5q3 8 5.5 10t6.5 2q30 0 54 -3q32 -2 48 -2t50 2q29 3 58 3q10 0 5 -12l-2 -5
q-2 -6 -5 -9t-7 -4q-26 -4 -46 -18t-26 -33l-64 -210l90 59q2 2 7 2q8 0 10 -5l8 -13q2 -2 2 -7q0 -7 -5 -10l-130 -85l-91 -297q-2 -8 -2 -12q0 -15 11.5 -24.5t29.5 -9.5h31q61 0 101 12t68.5 39.5t52.5 78.5q5 12 14 12h8q4 0 5.5 -2.5t0.5 -6.5l-42 -136
q-6 -19 -15.5 -25.5t-35.5 -6.5q-38 0 -92 2l-107 1q-82 0 -158 -2q-21 -1 -49 -1q-10 0 -5 12z" />
    <glyph glyph-name="lslash" unicode="&#x142;" horiz-adv-x="251" 
d="M5 -6.5q-8 8.5 -8 26.5q0 26 15 72l69 226l-38 -30q-2 -2 -7 -2q-7 0 -10 5l-10 12q-2 3 -2 8q0 6 4 9l84 64l82 269q3 9 3 16q0 26 -33 36q-7 1 -4 10l3 8q3 9 10 10q73 15 122 42q7 4 12 2l4 -2q6 -2 4 -11l-89 -292l83 64q3 3 7 3q5 0 10 -5l9 -13q3 -3 3 -7
q0 -6 -5 -9l-127 -98l-83 -273q-12 -39 -12 -57q0 -17 9 -17q11 0 31 21t46 59q6 9 14 3l6 -4q3 -1 3 -6q0 -8 -10 -21q-45 -64 -90 -95.5t-79 -31.5q-18 0 -26 8.5z" />
    <glyph glyph-name="Nacute" unicode="&#x143;" horiz-adv-x="536" 
d="M-68 12l2 5q5 12 12 13q23 4 44 18t27 33l177 566q2 8 2 11q0 15 -12.5 26t-30.5 14q-9 2 -4 13l2 5q3 8 5.5 10t6.5 2q21 -1 62 -1q42 0 62 1l122 -544l145 464q2 6 2 10q0 15 -14 25.5t-42 14.5q-13 2 -8 13l2 5q3 7 5.5 9.5t6.5 2.5q14 0 40 -2q20 -3 40 -3t41 3
q26 2 40 2q11 0 6 -12l-2 -5q-5 -12 -12 -13q-23 -4 -43 -18t-26 -32l-203 -636q-2 -5 -6 -8.5t-9 -3.5h-12q-11 0 -12 8l-132 604l-164 -531q-2 -8 -2 -11q0 -31 55 -40q13 -2 8 -13l-2 -5q-3 -7 -5.5 -9.5t-6.5 -2.5q-22 0 -43 3q-28 2 -43 2q-12 0 -38 -2q-18 -3 -37 -3
q-11 0 -6 12zM341 789q0 5 7 13l46 65q44 64 60 79q19 17 36 17q16 0 28 -12q13 -13 13 -29q0 -19 -18 -39q-26 -26 -146 -105q-5 -4 -11 -4q-5 0 -8 3l-4 5q-3 3 -3 7z" />
    <glyph glyph-name="nacute" unicode="&#x144;" horiz-adv-x="533" 
d="M277 22q0 26 15 69l91 268q9 29 9 46q0 26 -14 26q-18 0 -56.5 -47.5t-90 -141.5t-106.5 -225q-8 -17 -22 -17h-46q-10 0 -15 6.5t-2 16.5l102 336q12 39 12 56t-9 17q-11 0 -32 -22t-45 -57q-6 -9 -14 -3l-6 4q-7 6 -2 14q47 70 95 105t83 35q18 0 26 -8.5t8 -25.5
q0 -25 -15 -72l-61 -198q83 169 150 236.5t118 67.5q47 0 47 -49q0 -25 -11 -57l-91 -268q-13 -38 -13 -58q0 -16 9 -16q11 0 31.5 21t46.5 59q6 9 14 3l6 -4q3 -1 3 -6q0 -8 -10 -21q-45 -64 -90 -95.5t-79 -31.5q-36 0 -36 37zM287 561q0 5 7 13l46 65q44 64 60 79
q19 17 36 17q16 0 28 -12q13 -13 13 -29q0 -19 -18 -39q-26 -26 -146 -105q-5 -4 -11 -4q-5 0 -8 3l-4 5q-3 3 -3 7z" />
    <glyph glyph-name="uni0145" unicode="&#x145;" horiz-adv-x="536" 
d="M-68 12l2 5q5 12 12 13q23 4 44 18t27 33l177 566q2 8 2 11q0 15 -12.5 26t-30.5 14q-9 2 -4 13l2 5q3 8 5.5 10t6.5 2q21 -1 62 -1q42 0 62 1l122 -544l145 464q2 6 2 10q0 15 -14 25.5t-42 14.5q-13 2 -8 13l2 5q3 7 5.5 9.5t6.5 2.5q14 0 40 -2q20 -3 40 -3t41 3
q26 2 40 2q11 0 6 -12l-2 -5q-5 -12 -12 -13q-23 -4 -43 -18t-26 -32l-203 -636q-2 -5 -6 -8.5t-9 -3.5h-12q-11 0 -12 8l-132 604l-164 -531q-2 -8 -2 -11q0 -31 55 -40q13 -2 8 -13l-2 -5q-3 -7 -5.5 -9.5t-6.5 -2.5q-22 0 -43 3q-28 2 -43 2q-12 0 -38 -2q-18 -3 -37 -3
q-11 0 -6 12zM29 -216q-5 7 -5 11t3 9l3 4q3 5 7 6.5t8 -2.5q21 -21 53 -21q49 0 64 37q-13 3 -20 14t-7 28q0 14 4 27q8 30 26 48.5t40 18.5q18 0 28 -11.5t10 -34.5q0 -17 -6 -39q-7 -26 -27 -54t-50.5 -47t-65.5 -19q-43 0 -65 25z" />
    <glyph glyph-name="uni0146" unicode="&#x146;" horiz-adv-x="533" 
d="M277 22q0 26 15 69l91 268q9 29 9 46q0 26 -14 26q-18 0 -56.5 -47.5t-90 -141.5t-106.5 -225q-8 -17 -22 -17h-46q-10 0 -15 6.5t-2 16.5l102 336q12 39 12 56t-9 17q-11 0 -32 -22t-45 -57q-6 -9 -14 -3l-6 4q-7 6 -2 14q47 70 95 105t83 35q18 0 26 -8.5t8 -25.5
q0 -25 -15 -72l-61 -198q83 169 150 236.5t118 67.5q47 0 47 -49q0 -25 -11 -57l-91 -268q-13 -38 -13 -58q0 -16 9 -16q11 0 31.5 21t46.5 59q6 9 14 3l6 -4q3 -1 3 -6q0 -8 -10 -21q-45 -64 -90 -95.5t-79 -31.5q-36 0 -36 37zM13 -216q-5 7 -5 11t3 9l3 4q3 5 7 6.5
t8 -2.5q21 -21 53 -21q49 0 64 37q-13 3 -20 14t-7 28q0 14 4 27q8 30 26 48.5t40 18.5q18 0 28 -11.5t10 -34.5q0 -17 -6 -39q-7 -26 -27 -54t-50.5 -47t-65.5 -19q-43 0 -65 25z" />
    <glyph glyph-name="Ncaron" unicode="&#x147;" horiz-adv-x="536" 
d="M-68 12l2 5q5 12 12 13q23 4 44 18t27 33l177 566q2 8 2 11q0 15 -12.5 26t-30.5 14q-9 2 -4 13l2 5q3 8 5.5 10t6.5 2q21 -1 62 -1q42 0 62 1l122 -544l145 464q2 6 2 10q0 15 -14 25.5t-42 14.5q-13 2 -8 13l2 5q3 7 5.5 9.5t6.5 2.5q14 0 40 -2q20 -3 40 -3t41 3
q26 2 40 2q11 0 6 -12l-2 -5q-5 -12 -12 -13q-23 -4 -43 -18t-26 -32l-203 -636q-2 -5 -6 -8.5t-9 -3.5h-12q-11 0 -12 8l-132 604l-164 -531q-2 -8 -2 -11q0 -31 55 -40q13 -2 8 -13l-2 -5q-3 -7 -5.5 -9.5t-6.5 -2.5q-22 0 -43 3q-28 2 -43 2q-12 0 -38 -2q-18 -3 -37 -3
q-11 0 -6 12zM575 930q0 -7 -7 -14l-134 -138q-7 -8 -17 -8h-16q-8 0 -11 8l-50 138q-1 1 -1 4q0 8 12 17l4 3q8 4 11 4q7 0 10 -7l52 -108l118 108q8 6 13 6t8 -3l4 -3q4 -3 4 -7z" />
    <glyph glyph-name="ncaron" unicode="&#x148;" horiz-adv-x="533" 
d="M277 22q0 26 15 69l91 268q9 29 9 46q0 26 -14 26q-18 0 -56.5 -47.5t-90 -141.5t-106.5 -225q-8 -17 -22 -17h-46q-10 0 -15 6.5t-2 16.5l102 336q12 39 12 56t-9 17q-11 0 -32 -22t-45 -57q-6 -9 -14 -3l-6 4q-7 6 -2 14q47 70 95 105t83 35q18 0 26 -8.5t8 -25.5
q0 -25 -15 -72l-61 -198q83 169 150 236.5t118 67.5q47 0 47 -49q0 -25 -11 -57l-91 -268q-13 -38 -13 -58q0 -16 9 -16q11 0 31.5 21t46.5 59q6 9 14 3l6 -4q3 -1 3 -6q0 -8 -10 -21q-45 -64 -90 -95.5t-79 -31.5q-36 0 -36 37zM521 702q0 -7 -7 -14l-134 -138
q-7 -8 -17 -8h-16q-8 0 -11 8l-50 138q-1 1 -1 4q0 8 12 17l4 3q8 4 11 4q7 0 10 -7l52 -108l118 108q8 6 13 6t8 -3l4 -3q4 -3 4 -7z" />
    <glyph glyph-name="Omacron" unicode="&#x14c;" horiz-adv-x="542" 
d="M74.5 42q-44.5 57 -44.5 159q0 76 25 169q31 114 83.5 197t121 127.5t146.5 44.5q83 0 129 -57t46 -159q0 -74 -23 -159q-50 -187 -144.5 -283t-212.5 -96q-82 0 -126.5 57zM129 175q0 -77 24.5 -117.5t67.5 -40.5q64 0 125.5 85.5t103.5 244.5q32 125 32 210
q0 74 -22.5 112t-62.5 38q-67 0 -129 -79t-108 -253q-31 -118 -31 -200zM290.5 793.5q-0.5 3.5 1.5 8.5l7 16q5 12 13 12h251q3 0 4 -3.5t-1 -8.5l-7 -16q-2 -5 -6 -8.5t-8 -3.5h-250q-4 0 -4.5 3.5z" />
    <glyph glyph-name="omacron" unicode="&#x14d;" horiz-adv-x="438" 
d="M52 28q-38 43 -38 119q0 70 34 155.5t97.5 145.5t147.5 60q58 0 93.5 -42.5t35.5 -117.5q0 -70 -33 -156t-95 -146.5t-143 -60.5q-61 0 -99 43zM120.5 40.5q14.5 -27.5 38.5 -27.5q36 0 75.5 48t66.5 130t29 178q1 59 -12 84.5t-34 26.5q-38 0 -80 -52t-70 -135.5
t-28 -170.5q0 -54 14.5 -81.5zM177.5 562.5q-0.5 3.5 1.5 8.5l7 16q5 12 13 12h251q3 0 4 -3.5t-1 -8.5l-7 -16q-2 -5 -6 -8.5t-8 -3.5h-250q-4 0 -4.5 3.5z" />
    <glyph glyph-name="Ohungarumlaut" unicode="&#x150;" horiz-adv-x="542" 
d="M74.5 42q-44.5 57 -44.5 159q0 76 25 169q31 114 83.5 197t121 127.5t146.5 44.5q83 0 129 -57t46 -159q0 -74 -23 -159q-50 -187 -144.5 -283t-212.5 -96q-82 0 -126.5 57zM129 175q0 -77 24.5 -117.5t67.5 -40.5q64 0 125.5 85.5t103.5 244.5q32 125 32 210
q0 74 -22.5 112t-62.5 38q-67 0 -129 -79t-108 -253q-31 -118 -31 -200zM336 822q0 4 4 12q19 48 30 79q25 69 37 87q18 27 40 27q11 0 21 -6q22 -13 22 -36q0 -13 -10 -31q-10 -17 -35.5 -47.5t-79.5 -90.5q-11 -11 -19 -6l-5 4q-5 3 -5 8zM491 911q25 69 37 87
q18 27 40 27q11 0 21 -6q22 -13 22 -36q0 -13 -10 -31q-10 -17 -35.5 -47.5t-79.5 -90.5q-11 -11 -19 -6l-5 4q-5 3 -5 8q0 4 4 12q19 48 30 79z" />
    <glyph glyph-name="ohungarumlaut" unicode="&#x151;" horiz-adv-x="438" 
d="M52 28q-38 43 -38 119q0 70 34 155.5t97.5 145.5t147.5 60q58 0 93.5 -42.5t35.5 -117.5q0 -70 -33 -156t-95 -146.5t-143 -60.5q-61 0 -99 43zM120.5 40.5q14.5 -27.5 38.5 -27.5q36 0 75.5 48t66.5 130t29 178q1 59 -12 84.5t-34 26.5q-38 0 -80 -52t-70 -135.5
t-28 -170.5q0 -54 14.5 -81.5zM223 591q0 4 4 12q19 48 30 79q25 69 37 87q18 27 40 27q11 0 21 -6q22 -13 22 -36q0 -13 -10 -31q-10 -17 -35.5 -47.5t-79.5 -90.5q-11 -11 -19 -6l-5 4q-5 3 -5 8zM378 680q25 69 37 87q18 27 40 27q11 0 21 -6q22 -13 22 -36
q0 -13 -10 -31q-10 -17 -35.5 -47.5t-79.5 -90.5q-11 -11 -19 -6l-5 4q-5 3 -5 8q0 4 4 12q19 48 30 79z" />
    <glyph glyph-name="OE" unicode="&#x152;" horiz-adv-x="850" 
d="M74.5 42q-44.5 57 -44.5 159q0 76 25 169q31 114 83.5 197t121 127.5t146.5 44.5l16 -1q8 0 38 -2q149 -11 262 -11l108 1q54 2 93 2q19 0 27 -3.5t8 -11.5q0 -6 -3 -17l-42 -136q-1 -4 -4.5 -6.5t-6.5 -2.5h-8q-4 0 -6 3t-1 9q2 12 2 34q0 54 -33.5 75t-113.5 21h-31
q-25 0 -42 -12t-24 -34l-78 -257h111q34 0 62.5 22t45.5 64q3 9 15 9h5q6 0 8 -2t1 -7l-14 -41q-10 -27 -20 -60l-13 -46q-4 -16 -16 -57q-2 -5 -4.5 -7t-9.5 -2h-5q-6 0 -8 3t-1 10q3 14 3 24q0 29 -16 43.5t-45 14.5h-109l-84 -275q-2 -10 -2 -13q0 -16 13 -25.5t35 -9.5
h36q61 0 101 12t68.5 39.5t52.5 78.5q5 12 14 12h8q4 0 5.5 -2.5t0.5 -6.5l-42 -136q-6 -19 -15.5 -25.5t-35.5 -6.5l-88 1q-78 2 -123 2q-99 0 -207 -12q-72 -6 -93 -6q-82 0 -126.5 57zM129 175q0 -77 24.5 -117.5t67.5 -40.5q64 0 125.5 85.5t103.5 244.5q32 125 32 210
q0 74 -22.5 112t-62.5 38q-67 0 -129 -79t-108 -253q-31 -118 -31 -200z" />
    <glyph glyph-name="oe" unicode="&#x153;" horiz-adv-x="671" 
d="M52 28q-38 43 -38 119q0 70 34 155.5t97.5 145.5t147.5 60q42 0 73 -23.5t45 -65.5q38 42 81.5 65.5t90.5 23.5q60 0 83 -23.5t21 -62.5q-2 -44 -64.5 -96t-216.5 -94q-12 -51 -12 -98q0 -95 59 -95q30 0 71 27t75 73q6 9 15 3l5 -3q10 -6 4 -15q-45 -65 -102.5 -102
t-100.5 -37q-41 0 -69 20t-41 57q-70 -77 -159 -77q-61 0 -99 43zM120.5 40.5q14.5 -27.5 38.5 -27.5q36 0 75.5 48t66.5 130t29 178q1 59 -12 84.5t-34 26.5q-38 0 -80 -52t-70 -135.5t-28 -170.5q0 -54 14.5 -81.5zM555.5 337.5q43.5 46.5 43.5 99.5q0 21 -9 32t-27 11
q-44 0 -85 -66t-65 -155q99 32 142.5 78.5z" />
    <glyph glyph-name="Racute" unicode="&#x154;" horiz-adv-x="569" 
d="M-63.5 2.5q-0.5 2.5 0.5 9.5l1 5q2 11 16 14q25 5 44 18.5t25 31.5l173 566q2 8 2 12q0 14 -11 24t-29 14q-5 2 -6.5 4.5t-0.5 9.5l1 5q2 12 12 12q22 0 38 -1l94 -1l86 2q88 0 135 -40.5t47 -103.5q0 -24 -8 -53q-44 -146 -215 -180q31 -17 44.5 -47.5t17.5 -91.5
q5 -73 17 -111.5t28 -52t39 -16.5q5 -1 6.5 -3.5t-0.5 -9.5l-1 -5q-1 -7 -4.5 -9.5t-8.5 -2.5l-65 -1q-11 -1 -30 -1q-31 0 -48 15.5t-26 53.5t-13 110q-5 87 -22.5 125.5t-56.5 41.5l-14 2l-82 -267q-2 -8 -2 -12q0 -15 12 -25.5t32 -13.5q6 -1 3 -13l-1 -5q-2 -12 -13 -12
q-29 0 -55 3q-32 2 -49 2q-16 0 -50 -2q-27 -3 -57 -3q-5 0 -5.5 2.5zM288 374q59 0 98.5 38.5t62.5 117.5q10 33 10 63q0 46 -23 73.5t-63 27.5h-13q-21 0 -40 -13.5t-25 -33.5l-81 -266q32 -7 74 -7zM326 789q0 5 7 13l46 65q44 64 60 79q19 17 36 17q16 0 28 -12
q13 -13 13 -29q0 -19 -18 -39q-26 -26 -146 -105q-5 -4 -11 -4q-5 0 -8 3l-4 5q-3 3 -3 7z" />
    <glyph glyph-name="racute" unicode="&#x155;" horiz-adv-x="423" 
d="M42 6.5q-5 6.5 -2 16.5l102 336q12 39 12 56t-9 17q-11 0 -32 -22t-45 -57q-6 -9 -14 -3l-6 4q-7 6 -2 14q47 70 95 105t83 35q18 0 26 -8t8 -25q0 -25 -15 -73l-58 -190q59 127 98.5 190.5t69 84.5t65.5 21q30 0 44.5 -13.5t14.5 -37.5q0 -10 -3 -24q-7 -24 -22 -37.5
t-37 -13.5q-15 0 -22 5.5t-13 15.5q-6 9 -11 13.5t-16 4.5q-17 0 -41.5 -31.5t-69.5 -120t-117 -252.5q-6 -17 -22 -17h-46q-10 0 -15 6.5zM253 561q0 5 7 13l46 65q44 64 60 79q19 17 36 17q16 0 28 -12q13 -13 13 -29q0 -19 -18 -39q-26 -26 -146 -105q-5 -4 -11 -4
q-5 0 -8 3l-4 5q-3 3 -3 7z" />
    <glyph glyph-name="uni0156" unicode="&#x156;" horiz-adv-x="569" 
d="M-63.5 2.5q-0.5 2.5 0.5 9.5l1 5q2 11 16 14q25 5 44 18.5t25 31.5l173 566q2 8 2 12q0 14 -11 24t-29 14q-5 2 -6.5 4.5t-0.5 9.5l1 5q2 12 12 12q22 0 38 -1l94 -1l86 2q88 0 135 -40.5t47 -103.5q0 -24 -8 -53q-44 -146 -215 -180q31 -17 44.5 -47.5t17.5 -91.5
q5 -73 17 -111.5t28 -52t39 -16.5q5 -1 6.5 -3.5t-0.5 -9.5l-1 -5q-1 -7 -4.5 -9.5t-8.5 -2.5l-65 -1q-11 -1 -30 -1q-31 0 -48 15.5t-26 53.5t-13 110q-5 87 -22.5 125.5t-56.5 41.5l-14 2l-82 -267q-2 -8 -2 -12q0 -15 12 -25.5t32 -13.5q6 -1 3 -13l-1 -5q-2 -12 -13 -12
q-29 0 -55 3q-32 2 -49 2q-16 0 -50 -2q-27 -3 -57 -3q-5 0 -5.5 2.5zM288 374q59 0 98.5 38.5t62.5 117.5q10 33 10 63q0 46 -23 73.5t-63 27.5h-13q-21 0 -40 -13.5t-25 -33.5l-81 -266q32 -7 74 -7zM55 -216q-5 7 -5 11t3 9l3 4q3 5 7 6.5t8 -2.5q21 -21 53 -21
q49 0 64 37q-13 3 -20 14t-7 28q0 14 4 27q8 30 26 48.5t40 18.5q18 0 28 -11.5t10 -34.5q0 -17 -6 -39q-7 -26 -27 -54t-50.5 -47t-65.5 -19q-43 0 -65 25z" />
    <glyph glyph-name="uni0157" unicode="&#x157;" horiz-adv-x="423" 
d="M42 6.5q-5 6.5 -2 16.5l102 336q12 39 12 56t-9 17q-11 0 -32 -22t-45 -57q-6 -9 -14 -3l-6 4q-7 6 -2 14q47 70 95 105t83 35q18 0 26 -8t8 -25q0 -25 -15 -73l-58 -190q59 127 98.5 190.5t69 84.5t65.5 21q30 0 44.5 -13.5t14.5 -37.5q0 -10 -3 -24q-7 -24 -22 -37.5
t-37 -13.5q-15 0 -22 5.5t-13 15.5q-6 9 -11 13.5t-16 4.5q-17 0 -41.5 -31.5t-69.5 -120t-117 -252.5q-6 -17 -22 -17h-46q-10 0 -15 6.5zM-18 -216q-5 7 -5 11t3 9l3 4q3 5 7 6.5t8 -2.5q21 -21 53 -21q49 0 64 37q-13 3 -20 14t-7 28q0 14 4 27q8 30 26 48.5t40 18.5
q18 0 28 -11.5t10 -34.5q0 -17 -6 -39q-7 -26 -27 -54t-50.5 -47t-65.5 -19q-43 0 -65 25z" />
    <glyph glyph-name="Rcaron" unicode="&#x158;" horiz-adv-x="569" 
d="M-63.5 2.5q-0.5 2.5 0.5 9.5l1 5q2 11 16 14q25 5 44 18.5t25 31.5l173 566q2 8 2 12q0 14 -11 24t-29 14q-5 2 -6.5 4.5t-0.5 9.5l1 5q2 12 12 12q22 0 38 -1l94 -1l86 2q88 0 135 -40.5t47 -103.5q0 -24 -8 -53q-44 -146 -215 -180q31 -17 44.5 -47.5t17.5 -91.5
q5 -73 17 -111.5t28 -52t39 -16.5q5 -1 6.5 -3.5t-0.5 -9.5l-1 -5q-1 -7 -4.5 -9.5t-8.5 -2.5l-65 -1q-11 -1 -30 -1q-31 0 -48 15.5t-26 53.5t-13 110q-5 87 -22.5 125.5t-56.5 41.5l-14 2l-82 -267q-2 -8 -2 -12q0 -15 12 -25.5t32 -13.5q6 -1 3 -13l-1 -5q-2 -12 -13 -12
q-29 0 -55 3q-32 2 -49 2q-16 0 -50 -2q-27 -3 -57 -3q-5 0 -5.5 2.5zM288 374q59 0 98.5 38.5t62.5 117.5q10 33 10 63q0 46 -23 73.5t-63 27.5h-13q-21 0 -40 -13.5t-25 -33.5l-81 -266q32 -7 74 -7zM560 930q0 -7 -7 -14l-134 -138q-7 -8 -17 -8h-16q-8 0 -11 8l-50 138
q-1 1 -1 4q0 8 12 17l4 3q8 4 11 4q7 0 10 -7l52 -108l118 108q8 6 13 6t8 -3l4 -3q4 -3 4 -7z" />
    <glyph glyph-name="rcaron" unicode="&#x159;" horiz-adv-x="423" 
d="M42 6.5q-5 6.5 -2 16.5l102 336q12 39 12 56t-9 17q-11 0 -32 -22t-45 -57q-6 -9 -14 -3l-6 4q-7 6 -2 14q47 70 95 105t83 35q18 0 26 -8t8 -25q0 -25 -15 -73l-58 -190q59 127 98.5 190.5t69 84.5t65.5 21q30 0 44.5 -13.5t14.5 -37.5q0 -10 -3 -24q-7 -24 -22 -37.5
t-37 -13.5q-15 0 -22 5.5t-13 15.5q-6 9 -11 13.5t-16 4.5q-17 0 -41.5 -31.5t-69.5 -120t-117 -252.5q-6 -17 -22 -17h-46q-10 0 -15 6.5zM487 702q0 -7 -7 -14l-134 -138q-7 -8 -17 -8h-16q-8 0 -11 8l-50 138q-1 1 -1 4q0 8 12 17l4 3q8 4 11 4q7 0 10 -7l52 -108
l118 108q8 6 13 6t8 -3l4 -3q4 -3 4 -7z" />
    <glyph glyph-name="Sacute" unicode="&#x15a;" horiz-adv-x="447" 
d="M30 0q-55 15 -66 30q-6 8 -6 15q0 5 4 17l48 158q2 5 6 8.5t9 3.5h7q12 0 11 -10q-2 -28 -2 -41q0 -73 29.5 -116.5t95.5 -43.5q47 0 83 20t55 55t19 77q0 53 -27 96t-81 102q-48 51 -71.5 86.5t-23.5 77.5q0 55 31 101.5t85 74.5t120 28q54 0 96.5 -12.5t57.5 -29.5
q6 -7 6 -17q0 -7 -3 -15l-38 -123q-1 -5 -5.5 -8.5t-9.5 -3.5h-8q-11 0 -11 10q3 83 -27 123.5t-79 40.5q-35 0 -62.5 -19t-43 -49.5t-15.5 -65.5q0 -38 21.5 -71t67.5 -84q36 -39 57.5 -67t36.5 -62.5t15 -74.5q0 -57 -31.5 -109t-93 -84.5t-147.5 -32.5q-55 0 -110 15z
M300 800q0 5 7 13l46 65q44 64 60 79q19 17 36 17q16 0 28 -12q13 -13 13 -29q0 -19 -18 -39q-26 -26 -146 -105q-5 -4 -11 -4q-5 0 -8 3l-4 5q-3 3 -3 7z" />
    <glyph glyph-name="sacute" unicode="&#x15b;" horiz-adv-x="364" 
d="M24 8.5q-35 23.5 -35 63.5q0 30 18 47.5t44 17.5q25 0 31.5 -14.5t6.5 -43.5q0 -33 8 -49.5t40 -16.5q42 0 69.5 30.5t27.5 69.5q0 37 -18.5 65.5t-56.5 68.5q-36 38 -53.5 65t-17.5 61q0 33 17.5 64t51.5 51t81 20q60 0 95.5 -23t35.5 -65q0 -27 -17 -42.5t-42 -15.5
q-23 0 -28.5 13.5t-5.5 40.5q0 31 -8 47.5t-39 16.5q-24 0 -41 -22t-17 -53q0 -24 14.5 -45t44.5 -52q40 -41 61 -74t21 -79q0 -49 -25 -87.5t-69 -60.5t-101 -22q-58 0 -93 23.5zM172 569q0 5 7 13l46 65q44 64 60 79q19 17 36 17q16 0 28 -12q13 -13 13 -29q0 -19 -18 -39
q-26 -26 -146 -105q-5 -4 -11 -4q-5 0 -8 3l-4 5q-3 3 -3 7z" />
    <glyph glyph-name="Scedilla" unicode="&#x15e;" horiz-adv-x="447" 
d="M33 -221.5q-21 10.5 -29 26.5q-2 4 -2 5q0 5 9 12l5 4q4 4 7 4t8 -5q7 -7 20 -12t28 -5q27 0 45.5 19.5t18.5 44.5q0 38 -62 41l37 73q-50 3 -97 17t-57 27q-6 8 -6 15q0 5 4 17l48 158q2 5 6 8.5t9 3.5h7q12 0 11 -10q-2 -28 -2 -41q0 -73 29.5 -116.5t95.5 -43.5
q47 0 83 20t55 55t19 77q0 53 -27 96t-81 102q-48 51 -71.5 86.5t-23.5 77.5q0 55 31 101.5t85 74.5t120 28q54 0 96.5 -12.5t57.5 -29.5q6 -7 6 -17q0 -7 -3 -15l-38 -123q-1 -5 -5.5 -8.5t-9.5 -3.5h-8q-11 0 -11 10q3 83 -27 123.5t-79 40.5q-35 0 -62.5 -19t-43 -49.5
t-15.5 -65.5q0 -38 21.5 -71t67.5 -84q36 -39 57.5 -67t36.5 -62.5t15 -74.5q0 -56 -29.5 -106.5t-87.5 -83.5t-140 -36l-23 -44q36 -5 54.5 -21.5t18.5 -40.5q0 -13 -4 -25q-12 -40 -42.5 -63t-72.5 -23q-32 0 -53 10.5z" />
    <glyph glyph-name="scedilla" unicode="&#x15f;" horiz-adv-x="364" 
d="M0 -226.5q-21 10.5 -29 26.5q-2 4 -2 5q0 5 9 12l5 4q4 4 7 4t8 -5q7 -7 20 -12t28 -5q27 0 45.5 19.5t18.5 44.5q0 38 -62 41l41 79q-47 5 -73.5 28t-26.5 57q0 30 18 47.5t44 17.5q25 0 31.5 -14.5t6.5 -43.5q0 -33 8 -49.5t40 -16.5q42 0 69.5 30.5t27.5 69.5
q0 37 -18.5 65.5t-56.5 68.5q-36 38 -53.5 65t-17.5 61q0 33 17.5 64t51.5 51t81 20q60 0 95.5 -23t35.5 -65q0 -27 -17 -42.5t-42 -15.5q-23 0 -28.5 13.5t-5.5 40.5q0 31 -8 47.5t-39 16.5q-24 0 -41 -22t-17 -53q0 -24 14.5 -45t44.5 -52q40 -41 61 -74t21 -79
q0 -48 -23.5 -86t-66 -60.5t-97.5 -23.5l-26 -49q36 -5 54.5 -21.5t18.5 -40.5q0 -13 -4 -25q-12 -40 -42.5 -63t-72.5 -23q-32 0 -53 10.5z" />
    <glyph glyph-name="Scaron" unicode="&#x160;" horiz-adv-x="447" 
d="M30 0q-55 15 -66 30q-6 8 -6 15q0 5 4 17l48 158q2 5 6 8.5t9 3.5h7q12 0 11 -10q-2 -28 -2 -41q0 -73 29.5 -116.5t95.5 -43.5q47 0 83 20t55 55t19 77q0 53 -27 96t-81 102q-48 51 -71.5 86.5t-23.5 77.5q0 55 31 101.5t85 74.5t120 28q54 0 96.5 -12.5t57.5 -29.5
q6 -7 6 -17q0 -7 -3 -15l-38 -123q-1 -5 -5.5 -8.5t-9.5 -3.5h-8q-11 0 -11 10q3 83 -27 123.5t-79 40.5q-35 0 -62.5 -19t-43 -49.5t-15.5 -65.5q0 -38 21.5 -71t67.5 -84q36 -39 57.5 -67t36.5 -62.5t15 -74.5q0 -57 -31.5 -109t-93 -84.5t-147.5 -32.5q-55 0 -110 15z
M534 941q0 -7 -7 -14l-134 -138q-7 -8 -17 -8h-16q-8 0 -11 8l-50 138q-1 1 -1 4q0 8 12 17l4 3q8 4 11 4q7 0 10 -7l52 -108l118 108q8 6 13 6t8 -3l4 -3q4 -3 4 -7z" />
    <glyph glyph-name="scaron" unicode="&#x161;" horiz-adv-x="364" 
d="M24 8.5q-35 23.5 -35 63.5q0 30 18 47.5t44 17.5q25 0 31.5 -14.5t6.5 -43.5q0 -33 8 -49.5t40 -16.5q42 0 69.5 30.5t27.5 69.5q0 37 -18.5 65.5t-56.5 68.5q-36 38 -53.5 65t-17.5 61q0 33 17.5 64t51.5 51t81 20q60 0 95.5 -23t35.5 -65q0 -27 -17 -42.5t-42 -15.5
q-23 0 -28.5 13.5t-5.5 40.5q0 31 -8 47.5t-39 16.5q-24 0 -41 -22t-17 -53q0 -24 14.5 -45t44.5 -52q40 -41 61 -74t21 -79q0 -49 -25 -87.5t-69 -60.5t-101 -22q-58 0 -93 23.5zM406 710q0 -7 -7 -14l-134 -138q-7 -8 -17 -8h-16q-8 0 -11 8l-50 138q-1 1 -1 4q0 8 12 17
l4 3q8 4 11 4q7 0 10 -7l52 -108l118 108q8 6 13 6t8 -3l4 -3q4 -3 4 -7z" />
    <glyph glyph-name="uni0162" unicode="&#x162;" horiz-adv-x="575" 
d="M99.5 2.5q-0.5 2.5 0.5 9.5l1 5q2 11 16 14q25 5 44 18.5t25 31.5l173 566q2 8 2 12q0 14 -12.5 22.5t-35.5 8.5h-21q-44 0 -84 -30.5t-75 -106.5q-6 -12 -15 -12h-15q-4 0 -5.5 2.5t-0.5 6.5l54 146q7 20 16.5 26t34.5 6q39 0 85 -2l105 -1h82l104 1q48 2 87 2
q20 0 27.5 -3.5t7.5 -12.5q0 -5 -3 -16l-35 -146q-1 -4 -4.5 -6.5t-6.5 -2.5h-14q-8 0 -7 12q3 24 3 43q0 94 -80 94h-22q-27 0 -47.5 -10t-25.5 -27l-176 -577q-1 -3 -1 -9q0 -14 12 -24t32 -13q6 -1 3 -13l-1 -5q-2 -12 -12 -12q-20 0 -52 2q-20 2 -31 2l-25 -48
q36 -5 54.5 -21.5t18.5 -40.5q0 -13 -4 -25q-12 -40 -42.5 -63t-72.5 -23q-32 0 -53 10.5t-29 26.5q-2 4 -2 5q0 5 9 12l5 4q4 4 7 4t8 -5q7 -7 20 -12t28 -5q27 0 45.5 19.5t18.5 44.5q0 38 -62 41l40 77q-11 0 -37 -2q-25 -3 -54 -3q-5 0 -5.5 2.5z" />
    <glyph glyph-name="uni0163" unicode="&#x163;" horiz-adv-x="303" 
d="M221 450l-1 -4l-94 -312q-9 -28 -9 -50q0 -25 17 -25q18 0 48 25t56 56q8 9 15 3l6 -4q3 -1 3 -6q0 -9 -10 -20q-47 -58 -92.5 -89.5t-81.5 -37.5l-21 -40q36 -5 54.5 -21.5t18.5 -40.5q0 -13 -4 -25q-12 -40 -42.5 -63t-72.5 -23q-32 0 -53 10.5t-29 26.5q-2 4 -2 5
q0 5 9 12l5 4q4 4 7 4t8 -5q7 -7 20 -12t28 -5q27 0 45.5 19.5t18.5 44.5q0 38 -62 41l37 71q-28 12 -28 51q0 21 9 51l110 357q-14 0 -23.5 -1t-16.5 -1q-8 0 -10 3t0 9l1 4q1 5 6.5 8.5t14.5 7.5q58 25 138 124q4 5 13 2l4 -2q6 -3 3 -11l-30 -100q38 1 74 4h6q11 0 14 -3
t1 -10l-5 -16q-5 -17 -29 -17z" />
    <glyph glyph-name="Tcaron" unicode="&#x164;" horiz-adv-x="575" 
d="M99.5 2.5q-0.5 2.5 0.5 9.5l1 5q2 11 16 14q25 5 44 18.5t25 31.5l173 566q2 8 2 12q0 14 -12.5 22.5t-35.5 8.5h-21q-44 0 -84 -30.5t-75 -106.5q-6 -12 -15 -12h-15q-4 0 -5.5 2.5t-0.5 6.5l54 146q7 20 16.5 26t34.5 6q39 0 85 -2l105 -1h82l104 1q48 2 87 2
q20 0 27.5 -3.5t7.5 -12.5q0 -5 -3 -16l-35 -146q-1 -4 -4.5 -6.5t-6.5 -2.5h-14q-8 0 -7 12q3 24 3 43q0 94 -80 94h-22q-27 0 -47.5 -10t-25.5 -27l-176 -577q-1 -3 -1 -9q0 -14 12 -24t32 -13q6 -1 3 -13l-1 -5q-2 -12 -12 -12q-30 0 -56 3q-32 2 -49 2t-49 -2
q-25 -3 -56 -3q-5 0 -5.5 2.5zM609 930q0 -7 -7 -14l-134 -138q-7 -8 -17 -8h-16q-8 0 -11 8l-50 138q-1 1 -1 4q0 8 12 17l4 3q8 4 11 4q7 0 10 -7l52 -108l118 108q8 6 13 6t8 -3l4 -3q4 -3 4 -7z" />
    <glyph glyph-name="tcaron" unicode="&#x165;" horiz-adv-x="303" 
d="M28.5 -1.5q-13.5 13.5 -13.5 41.5q0 21 9 51l110 357q-14 0 -23.5 -1t-16.5 -1q-8 0 -10 3t0 9l1 4q1 5 6.5 8.5t14.5 7.5q58 25 138 124q4 5 13 2l4 -2q6 -3 3 -11l-30 -100q38 1 74 4h6q11 0 14 -3t1 -10l-5 -16q-5 -17 -29 -17l-74 1l-1 -4l-94 -312q-9 -28 -9 -50
q0 -25 17 -25q18 0 48 25t56 56q8 9 15 3l6 -4q3 -1 3 -6q0 -9 -10 -20q-51 -64 -102 -96t-85 -32q-23 0 -36.5 13.5zM313 516.5q-2 3.5 -1 13.5l5 82q1 11 3 43.5t7 48.5q6 23 20.5 37t33.5 13q17 1 26 -8.5t9 -26.5q0 -5 -2 -15q-19 -60 -72 -177q-4 -8 -7.5 -11t-9.5 -3
h-5q-5 0 -7 3.5z" />
    <glyph glyph-name="Umacron" unicode="&#x16a;" horiz-adv-x="595" 
d="M100 23.5q-47 38.5 -47 118.5q0 49 19 112l121 399q1 3 1 8q0 13 -11 22.5t-29 13.5q-13 4 -8 14l2 5q3 7 5.5 9.5t6.5 2.5q29 0 56 -3q32 -2 48 -2t50 2q27 3 57 3q5 0 6.5 -2.5t-1.5 -9.5l-2 -5q-2 -6 -4.5 -9t-6.5 -4q-27 -4 -47.5 -18t-26.5 -33l-114 -376
q-24 -76 -24 -129q0 -59 28 -82t75 -23q78 0 137 51.5t92 161.5l115 377q5 18 5 28q0 36 -44 43q-4 1 -5.5 3.5t0.5 9.5l1 5q1 7 4.5 9.5t8.5 2.5q18 0 44 -2l31 -1l35 1q28 2 49 2q5 0 6.5 -2.5t-1.5 -9.5l-2 -5q-3 -7 -6.5 -10t-10.5 -4q-59 -10 -78 -70l-113 -368
q-44 -143 -122 -208.5t-174 -65.5q-79 0 -126 38.5zM344.5 782.5q-0.5 3.5 1.5 8.5l7 16q5 12 13 12h251q3 0 4 -3.5t-1 -8.5l-7 -16q-2 -5 -6 -8.5t-8 -3.5h-250q-4 0 -4.5 3.5z" />
    <glyph glyph-name="umacron" unicode="&#x16b;" horiz-adv-x="530" 
d="M282 -6.5q-8 8.5 -8 25.5q0 26 15 72l62 200q-153 -306 -261 -306q-24 0 -37.5 16.5t-13.5 47.5q0 37 19 88l82 222q14 38 14 58q0 16 -10 16q-11 0 -31.5 -21t-46.5 -59q-6 -9 -14 -3l-6 4q-3 2 -3 6q0 8 10 21q45 64 90 95.5t79 31.5q37 0 37 -38q0 -26 -16 -68
l-93 -253q-13 -36 -13 -55q0 -22 18 -22q32 0 96 97t159 314q6 17 22 17h46q10 0 15 -6.5t2 -16.5l-105 -343q-13 -42 -13 -61q0 -16 9 -16q11 0 32 23.5t46 59.5q6 9 14 3l6 -4q7 -6 2 -14q-47 -70 -95 -105t-83 -35q-18 0 -26 8.5zM192.5 554.5q-0.5 3.5 1.5 8.5l7 16
q5 12 13 12h251q3 0 4 -3.5t-1 -8.5l-7 -16q-2 -5 -6 -8.5t-8 -3.5h-250q-4 0 -4.5 3.5z" />
    <glyph glyph-name="Uring" unicode="&#x16e;" horiz-adv-x="595" 
d="M100 23.5q-47 38.5 -47 118.5q0 49 19 112l121 399q1 3 1 8q0 13 -11 22.5t-29 13.5q-13 4 -8 14l2 5q3 7 5.5 9.5t6.5 2.5q29 0 56 -3q32 -2 48 -2t50 2q27 3 57 3q5 0 6.5 -2.5t-1.5 -9.5l-2 -5q-2 -6 -4.5 -9t-6.5 -4q-27 -4 -47.5 -18t-26.5 -33l-114 -376
q-24 -76 -24 -129q0 -59 28 -82t75 -23q78 0 137 51.5t92 161.5l115 377q5 18 5 28q0 36 -44 43q-4 1 -5.5 3.5t0.5 9.5l1 5q1 7 4.5 9.5t8.5 2.5q18 0 44 -2l31 -1l35 1q28 2 49 2q5 0 6.5 -2.5t-1.5 -9.5l-2 -5q-3 -7 -6.5 -10t-10.5 -4q-59 -10 -78 -70l-113 -368
q-44 -143 -122 -208.5t-174 -65.5q-79 0 -126 38.5zM421 736q-17 19 -17 53q0 20 6 44q14 53 45.5 84t71.5 31q31 0 48 -19.5t17 -53.5q0 -19 -6 -43q-14 -53 -45.5 -84t-70.5 -31q-32 0 -49 19zM455 791q0 -37 24 -39q16 0 30.5 21t24.5 56q7 25 7 46q0 37 -23 39
q-16 0 -31 -20.5t-25 -56.5q-7 -31 -7 -46z" />
    <glyph glyph-name="uring" unicode="&#x16f;" horiz-adv-x="530" 
d="M282 -6.5q-8 8.5 -8 25.5q0 26 15 72l62 200q-153 -306 -261 -306q-24 0 -37.5 16.5t-13.5 47.5q0 37 19 88l82 222q14 38 14 58q0 16 -10 16q-11 0 -31.5 -21t-46.5 -59q-6 -9 -14 -3l-6 4q-3 2 -3 6q0 8 10 21q45 64 90 95.5t79 31.5q37 0 37 -38q0 -26 -16 -68
l-93 -253q-13 -36 -13 -55q0 -22 18 -22q32 0 96 97t159 314q6 17 22 17h46q10 0 15 -6.5t2 -16.5l-105 -343q-13 -42 -13 -61q0 -16 9 -16q11 0 32 23.5t46 59.5q6 9 14 3l6 -4q7 -6 2 -14q-47 -70 -95 -105t-83 -35q-18 0 -26 8.5zM269 508q-17 19 -17 53q0 20 6 44
q14 53 45.5 84t71.5 31q31 0 48 -19.5t17 -53.5q0 -19 -6 -43q-14 -53 -45.5 -84t-70.5 -31q-32 0 -49 19zM303 563q0 -37 24 -39q16 0 30.5 21t24.5 56q7 25 7 46q0 37 -23 39q-16 0 -31 -20.5t-25 -56.5q-7 -31 -7 -46z" />
    <glyph glyph-name="Uhungarumlaut" unicode="&#x170;" horiz-adv-x="595" 
d="M100 23.5q-47 38.5 -47 118.5q0 49 19 112l121 399q1 3 1 8q0 13 -11 22.5t-29 13.5q-13 4 -8 14l2 5q3 7 5.5 9.5t6.5 2.5q29 0 56 -3q32 -2 48 -2t50 2q27 3 57 3q5 0 6.5 -2.5t-1.5 -9.5l-2 -5q-2 -6 -4.5 -9t-6.5 -4q-27 -4 -47.5 -18t-26.5 -33l-114 -376
q-24 -76 -24 -129q0 -59 28 -82t75 -23q78 0 137 51.5t92 161.5l115 377q5 18 5 28q0 36 -44 43q-4 1 -5.5 3.5t0.5 9.5l1 5q1 7 4.5 9.5t8.5 2.5q18 0 44 -2l31 -1l35 1q28 2 49 2q5 0 6.5 -2.5t-1.5 -9.5l-2 -5q-3 -7 -6.5 -10t-10.5 -4q-59 -10 -78 -70l-113 -368
q-44 -143 -122 -208.5t-174 -65.5q-79 0 -126 38.5zM390 811q0 4 4 12q19 48 30 79q25 69 37 87q18 27 40 27q11 0 21 -6q22 -13 22 -36q0 -13 -10 -31q-10 -17 -35.5 -47.5t-79.5 -90.5q-11 -11 -19 -6l-5 4q-5 3 -5 8zM545 900q25 69 37 87q18 27 40 27q11 0 21 -6
q22 -13 22 -36q0 -13 -10 -31q-10 -17 -35.5 -47.5t-79.5 -90.5q-11 -11 -19 -6l-5 4q-5 3 -5 8q0 4 4 12q19 48 30 79z" />
    <glyph glyph-name="uhungarumlaut" unicode="&#x171;" horiz-adv-x="530" 
d="M282 -6.5q-8 8.5 -8 25.5q0 26 15 72l62 200q-153 -306 -261 -306q-24 0 -37.5 16.5t-13.5 47.5q0 37 19 88l82 222q14 38 14 58q0 16 -10 16q-11 0 -31.5 -21t-46.5 -59q-6 -9 -14 -3l-6 4q-3 2 -3 6q0 8 10 21q45 64 90 95.5t79 31.5q37 0 37 -38q0 -26 -16 -68
l-93 -253q-13 -36 -13 -55q0 -22 18 -22q32 0 96 97t159 314q6 17 22 17h46q10 0 15 -6.5t2 -16.5l-105 -343q-13 -42 -13 -61q0 -16 9 -16q11 0 32 23.5t46 59.5q6 9 14 3l6 -4q7 -6 2 -14q-47 -70 -95 -105t-83 -35q-18 0 -26 8.5zM238 583q0 4 4 12q19 48 30 79
q25 69 37 87q18 27 40 27q11 0 21 -6q22 -13 22 -36q0 -13 -10 -31q-10 -17 -35.5 -47.5t-79.5 -90.5q-11 -11 -19 -6l-5 4q-5 3 -5 8zM393 672q25 69 37 87q18 27 40 27q11 0 21 -6q22 -13 22 -36q0 -13 -10 -31q-10 -17 -35.5 -47.5t-79.5 -90.5q-11 -11 -19 -6l-5 4
q-5 3 -5 8q0 4 4 12q19 48 30 79z" />
    <glyph glyph-name="Uogonek" unicode="&#x172;" horiz-adv-x="595" 
d="M100 23.5q-47 38.5 -47 118.5q0 49 19 112l121 399q1 3 1 8q0 13 -11 22.5t-29 13.5q-13 4 -8 14l2 5q3 7 5.5 9.5t6.5 2.5q29 0 56 -3q32 -2 48 -2t50 2q27 3 57 3q5 0 6.5 -2.5t-1.5 -9.5l-2 -5q-2 -6 -4.5 -9t-6.5 -4q-27 -4 -47.5 -18t-26.5 -33l-114 -376
q-24 -76 -24 -129q0 -59 28 -82t75 -23q78 0 137 51.5t92 161.5l115 377q5 18 5 28q0 36 -44 43q-4 1 -5.5 3.5t0.5 9.5l1 5q1 7 4.5 9.5t8.5 2.5q18 0 44 -2l31 -1l35 1q28 2 49 2q5 0 6.5 -2.5t-1.5 -9.5l-2 -5q-3 -7 -6.5 -10t-10.5 -4q-59 -10 -78 -70l-113 -368
q-54 -176 -167 -241q-5 -4 -20 -15q-25 -15 -60 -47q-20 -17 -29 -34t-9 -37q0 -21 13 -35.5t34 -14.5q22 0 44 17q9 8 14 1l5 -5q6 -8 0 -14q-40 -53 -100 -53q-37 0 -58.5 21t-21.5 53q0 48 52 95q17 15 54 39q-21 -4 -47 -4q-79 0 -126 38.5z" />
    <glyph glyph-name="uogonek" unicode="&#x173;" horiz-adv-x="530" 
d="M52.5 1.5q-13.5 16.5 -13.5 47.5q0 37 19 88l82 222q14 38 14 58q0 16 -10 16q-11 0 -31.5 -21t-46.5 -59q-6 -9 -14 -3l-6 4q-3 2 -3 6q0 8 10 21q45 64 90 95.5t79 31.5q37 0 37 -38q0 -26 -16 -68l-93 -253q-13 -36 -13 -55q0 -22 18 -22q32 0 96 97t159 314
q6 17 22 17h46q10 0 15 -6.5t2 -16.5l-105 -343q-13 -42 -13 -61q0 -16 9 -16q11 0 32 23.5t46 59.5q6 9 14 3l6 -4q7 -6 2 -14q-54 -82 -117 -120q-8 -6 -26.5 -18.5t-48.5 -39.5q-20 -17 -29 -34t-9 -37q0 -21 13 -35.5t34 -14.5q22 0 44 17q9 8 14 1l5 -5q6 -8 0 -14
q-40 -53 -100 -53q-37 0 -58.5 21t-21.5 53q0 48 52 95q15 13 62 44q-26 4 -26 34q0 26 15 72l62 200q-153 -306 -261 -306q-24 0 -37.5 16.5z" />
    <glyph glyph-name="Wcircumflex" unicode="&#x174;" horiz-adv-x="822" 
d="M190 10l20 637q1 44 -60 50q-9 2 -4 13l2 5q3 8 5.5 10t6.5 2q38 0 68 -3q36 -2 54 -2q33 0 67 3q44 2 66 2q28 0 62 -3l57 -2q17 0 53 2q69 3 83 3q11 0 6 -12l-2 -5q-3 -7 -6.5 -9.5t-9.5 -3.5q-42 -5 -62.5 -18.5t-21.5 -36.5l-22 -459l257 453q9 17 9 28q0 27 -55 34
q-5 1 -6.5 3.5t-0.5 9.5l1 5q2 12 13 12q12 0 66 -3q26 -2 32 -2q9 0 35 2q45 3 51 3q5 0 5.5 -2.5t-0.5 -9.5l-1 -5q-2 -11 -12 -13q-33 -4 -56 -18t-40 -43l-361 -627q-7 -10 -17 -10h-10q-10 0 -10 10l6 381l-231 -381q-7 -10 -15 -10h-11q-11 0 -11 10zM459 455l3 192
q0 23 -15 36.5t-43 13.5q-37 0 -59 -15.5t-24 -39.5l-31 -468zM436 784q0 7 7 14l134 138q7 8 17 8h16q8 0 11 -8l50 -138q1 -1 1 -4q0 -8 -12 -17l-4 -3q-8 -4 -11 -4q-6 0 -10 7l-52 108l-118 -108q-7 -6 -13 -6q-5 0 -8 3l-4 3q-4 3 -4 7z" />
    <glyph glyph-name="wcircumflex" unicode="&#x175;" horiz-adv-x="676" 
d="M306.5 5q-18.5 20 -18.5 62q0 34 13 80q-101 -162 -199 -162q-62 0 -62 64q0 35 19 88l81 222q14 38 14 58q0 16 -9 16q-11 0 -32 -21t-47 -59q-6 -9 -14 -3l-6 4q-3 2 -3 6q0 8 10 21q45 64 90 95.5t79 31.5q37 0 37 -38q0 -23 -16 -68l-83 -229q-24 -65 -24 -96
q0 -17 6.5 -24t19.5 -7q35 0 82.5 65.5t105.5 193.5l54 178q5 17 22 17h49q8 0 13 -4.5t5 -11.5q0 -3 -2 -9q-62 -185 -87 -271.5t-25 -121.5q0 -22 9 -29t27 -7q34 0 79.5 47.5t78.5 118t33 136.5q0 22 -7 35t-22 30q-12 12 -18 22.5t-6 24.5q0 17 18 32.5t40 15.5
q33 0 52.5 -21t19.5 -58q0 -78 -51 -184.5t-128 -183t-149 -76.5q-30 0 -48.5 20zM372 556q0 7 7 14l134 138q7 8 17 8h16q8 0 11 -8l50 -138q1 -1 1 -4q0 -8 -12 -17l-4 -3q-8 -4 -11 -4q-6 0 -10 7l-52 108l-118 -108q-7 -6 -13 -6q-5 0 -8 3l-4 3q-4 3 -4 7z" />
    <glyph glyph-name="Ycircumflex" unicode="&#x176;" horiz-adv-x="577" 
d="M104.5 2.5q-0.5 2.5 0.5 9.5l1 5q2 11 16 14q25 5 44 18.5t25 31.5l45 146l-26 421q-3 44 -59 50q-4 1 -4.5 3.5t0.5 9.5l1 5q2 12 13 12q37 0 68 -3q36 -2 53 -2q18 0 52 2q66 3 82 3q5 0 6.5 -2.5t-1.5 -9.5l-2 -5q-3 -7 -6 -9.5t-9 -3.5q-86 -11 -85 -55l17 -347
l221 340q11 17 11 28q0 26 -56 34q-5 1 -6.5 3.5t-0.5 9.5l1 5q2 12 13 12q34 0 61 -3q30 -2 43 -2q9 0 35 2q45 3 51 3q5 0 6.5 -2.5t-1.5 -9.5l-2 -5q-2 -6 -4.5 -9t-6.5 -4q-32 -4 -54.5 -16.5t-37.5 -35.5l-276 -417l-46 -152q-1 -3 -1 -9q0 -14 12 -24.5t32 -13.5
q6 -1 3 -13l-1 -5q-2 -12 -13 -12q-29 0 -55 3q-32 2 -49 2t-49 -2q-25 -3 -56 -3q-5 0 -5.5 2.5zM366 784q0 7 7 14l134 138q7 8 17 8h16q8 0 11 -8l50 -138q1 -1 1 -4q0 -8 -12 -17l-4 -3q-8 -4 -11 -4q-6 0 -10 7l-52 108l-118 -108q-7 -6 -13 -6q-5 0 -8 3l-4 3
q-4 3 -4 7z" />
    <glyph glyph-name="ycircumflex" unicode="&#x177;" horiz-adv-x="467" 
d="M-65 -204.5q-15 14.5 -15 38.5q0 12 2 18q7 24 21 36.5t34 12.5q12 0 19 -5t15 -15q10 -11 17.5 -16t22.5 -5q30 0 75.5 37t95.5 99q-18 189 -33 285.5t-27.5 126.5t-27.5 30q-12 0 -26.5 -17t-50.5 -68q-6 -9 -14 -3l-6 4q-3 2 -3 6q0 8 10 21q47 70 77.5 98.5
t60.5 28.5q27 0 45 -29t34 -119.5t30 -269.5q49 75 80 144.5t31 113.5q0 22 -7 35t-22 30q-12 12 -18 22.5t-6 24.5q0 17 18 32.5t40 15.5q33 0 52.5 -21t19.5 -58q0 -76 -92 -235.5t-211 -286t-201 -126.5q-25 0 -40 14.5zM188 556q0 7 7 14l134 138q7 8 17 8h16q8 0 11 -8
l50 -138q1 -1 1 -4q0 -8 -12 -17l-4 -3q-8 -4 -11 -4q-6 0 -10 7l-52 108l-118 -108q-7 -6 -13 -6q-5 0 -8 3l-4 3q-4 3 -4 7z" />
    <glyph glyph-name="Ydieresis" unicode="&#x178;" horiz-adv-x="577" 
d="M104.5 2.5q-0.5 2.5 0.5 9.5l1 5q2 11 16 14q25 5 44 18.5t25 31.5l45 146l-26 421q-3 44 -59 50q-4 1 -4.5 3.5t0.5 9.5l1 5q2 12 13 12q37 0 68 -3q36 -2 53 -2q18 0 52 2q66 3 82 3q5 0 6.5 -2.5t-1.5 -9.5l-2 -5q-3 -7 -6 -9.5t-9 -3.5q-86 -11 -85 -55l17 -347
l221 340q11 17 11 28q0 26 -56 34q-5 1 -6.5 3.5t-0.5 9.5l1 5q2 12 13 12q34 0 61 -3q30 -2 43 -2q9 0 35 2q45 3 51 3q5 0 6.5 -2.5t-1.5 -9.5l-2 -5q-2 -6 -4.5 -9t-6.5 -4q-32 -4 -54.5 -16.5t-37.5 -35.5l-276 -417l-46 -152q-1 -3 -1 -9q0 -14 12 -24.5t32 -13.5
q6 -1 3 -13l-1 -5q-2 -12 -13 -12q-29 0 -55 3q-32 2 -49 2t-49 -2q-25 -3 -56 -3q-5 0 -5.5 2.5zM388 814.5q-9 10.5 -9 29.5q0 14 4 27q7 29 25 47t40 18q16 -1 25 -12t9 -30q0 -11 -3 -25q-8 -30 -26 -48t-40 -18q-16 1 -25 11.5zM528 814.5q-9 10.5 -9 29.5q0 14 4 27
q7 29 25 47t40 18q16 -1 25 -12t9 -30q0 -11 -3 -25q-8 -30 -26 -48t-40 -18q-16 1 -25 11.5z" />
    <glyph glyph-name="Zacute" unicode="&#x179;" horiz-adv-x="538" 
d="M-32 13l3 8q4 12 7 16l487 657h-94q-62 0 -102 -11.5t-68 -39t-52 -77.5q-6 -12 -15 -12h-8q-4 0 -5.5 2.5t-0.5 6.5l42 136q6 19 15.5 25.5t35.5 6.5q246 -3 361 -3q23 0 18 -13l-3 -8q-4 -12 -7 -16l-487 -657h142q62 0 102 11.5t68 39t52 77.5q6 12 15 12h8
q3 0 5 -2.5t1 -6.5l-42 -136q-6 -19 -15.5 -25.5t-35.5 -6.5l-408 3q-24 0 -19 13zM327 789q0 5 7 13l46 65q44 64 60 79q19 17 36 17q16 0 28 -12q13 -13 13 -29q0 -19 -18 -39q-26 -26 -146 -105q-5 -4 -11 -4q-5 0 -8 3l-4 5q-3 3 -3 7z" />
    <glyph glyph-name="zacute" unicode="&#x17a;" horiz-adv-x="392" 
d="M163 -3q-72 14 -108 14q-37 0 -56 -13q-5 -3 -7 -3q-4 0 -6.5 3.5t-3.5 4.5l-4 6q-3 5 -3 8q0 5 4 9l313 384q-19 -1 -38.5 2t-24.5 4q-31 7 -57 7q-35 0 -52.5 -11t-35.5 -44q-7 -12 -16 -12h-7q-4 0 -5.5 3t0.5 9l26 64q12 28 21 43.5t25.5 26t43.5 10.5q18 0 63 -9
q66 -11 90 -11q28 0 41 10q5 3 8 3t6 -3.5t4 -4.5l5 -7q3 -4 3 -8q0 -5 -4 -9l-311 -382q34 2 97 -8q44 -6 57 -6q27 0 41 4t28 19.5t29 51.5q5 12 17 12h6q5 0 6 -2.5t-1 -7.5l-39 -92q-16 -37 -33 -56t-48 -19q-16 0 -74 10zM176 561q0 5 7 13l46 65q44 64 60 79
q19 17 36 17q16 0 28 -12q13 -13 13 -29q0 -19 -18 -39q-26 -26 -146 -105q-5 -4 -11 -4q-5 0 -8 3l-4 5q-3 3 -3 7z" />
    <glyph glyph-name="Zdotaccent" unicode="&#x17b;" horiz-adv-x="538" 
d="M-32 13l3 8q4 12 7 16l487 657h-94q-62 0 -102 -11.5t-68 -39t-52 -77.5q-6 -12 -15 -12h-8q-4 0 -5.5 2.5t-0.5 6.5l42 136q6 19 15.5 25.5t35.5 6.5q246 -3 361 -3q23 0 18 -13l-3 -8q-4 -12 -7 -16l-487 -657h142q62 0 102 11.5t68 39t52 77.5q6 12 15 12h8
q3 0 5 -2.5t1 -6.5l-42 -136q-6 -19 -15.5 -25.5t-35.5 -6.5l-408 3q-24 0 -19 13zM363 814.5q-9 10.5 -9 29.5q0 14 4 27q7 29 25 47t40 18q16 -1 25 -12t9 -30q0 -11 -3 -25q-8 -30 -26 -48t-40 -18q-16 1 -25 11.5z" />
    <glyph glyph-name="zdotaccent" unicode="&#x17c;" horiz-adv-x="392" 
d="M163 -3q-72 14 -108 14q-37 0 -56 -13q-5 -3 -7 -3q-4 0 -6.5 3.5t-3.5 4.5l-4 6q-3 5 -3 8q0 5 4 9l313 384q-19 -1 -38.5 2t-24.5 4q-31 7 -57 7q-35 0 -52.5 -11t-35.5 -44q-7 -12 -16 -12h-7q-4 0 -5.5 3t0.5 9l26 64q12 28 21 43.5t25.5 26t43.5 10.5q18 0 63 -9
q66 -11 90 -11q28 0 41 10q5 3 8 3t6 -3.5t4 -4.5l5 -7q3 -4 3 -8q0 -5 -4 -9l-311 -382q34 2 97 -8q44 -6 57 -6q27 0 41 4t28 19.5t29 51.5q5 12 17 12h6q5 0 6 -2.5t-1 -7.5l-39 -92q-16 -37 -33 -56t-48 -19q-16 0 -74 10zM212 586.5q-9 10.5 -9 29.5q0 14 4 27
q7 29 25 47t40 18q16 -1 25 -12t9 -30q0 -11 -3 -25q-8 -30 -26 -48t-40 -18q-16 1 -25 11.5z" />
    <glyph glyph-name="Zcaron" unicode="&#x17d;" horiz-adv-x="538" 
d="M-32 13l3 8q4 12 7 16l487 657h-94q-62 0 -102 -11.5t-68 -39t-52 -77.5q-6 -12 -15 -12h-8q-4 0 -5.5 2.5t-0.5 6.5l42 136q6 19 15.5 25.5t35.5 6.5q246 -3 361 -3q23 0 18 -13l-3 -8q-4 -12 -7 -16l-487 -657h142q62 0 102 11.5t68 39t52 77.5q6 12 15 12h8
q3 0 5 -2.5t1 -6.5l-42 -136q-6 -19 -15.5 -25.5t-35.5 -6.5l-408 3q-24 0 -19 13zM561 930q0 -7 -7 -14l-134 -138q-7 -8 -17 -8h-16q-8 0 -11 8l-50 138q-1 1 -1 4q0 8 12 17l4 3q8 4 11 4q7 0 10 -7l52 -108l118 108q8 6 13 6t8 -3l4 -3q4 -3 4 -7z" />
    <glyph glyph-name="zcaron" unicode="&#x17e;" horiz-adv-x="392" 
d="M163 -3q-72 14 -108 14q-37 0 -56 -13q-5 -3 -7 -3q-4 0 -6.5 3.5t-3.5 4.5l-4 6q-3 5 -3 8q0 5 4 9l313 384q-19 -1 -38.5 2t-24.5 4q-31 7 -57 7q-35 0 -52.5 -11t-35.5 -44q-7 -12 -16 -12h-7q-4 0 -5.5 3t0.5 9l26 64q12 28 21 43.5t25.5 26t43.5 10.5q18 0 63 -9
q66 -11 90 -11q28 0 41 10q5 3 8 3t6 -3.5t4 -4.5l5 -7q3 -4 3 -8q0 -5 -4 -9l-311 -382q34 2 97 -8q44 -6 57 -6q27 0 41 4t28 19.5t29 51.5q5 12 17 12h6q5 0 6 -2.5t-1 -7.5l-39 -92q-16 -37 -33 -56t-48 -19q-16 0 -74 10zM410 702q0 -7 -7 -14l-134 -138q-7 -8 -17 -8
h-16q-8 0 -11 8l-50 138q-1 1 -1 4q0 8 12 17l4 3q8 4 11 4q7 0 10 -7l52 -108l118 108q8 6 13 6t8 -3l4 -3q4 -3 4 -7z" />
    <glyph glyph-name="uni0237" unicode="&#x237;" horiz-adv-x="271" 
d="M-147.5 -185q-18.5 17 -18.5 43q0 10 3 21q7 23 27 42.5t39 19.5t26 -10t7 -28q0 -8 -2 -24l-1 -21q0 -13 3.5 -19t14.5 -6q13 0 24 13.5t23.5 47t34.5 100.5l119 365q13 39 13 58q0 14 -8 14q-10 0 -30.5 -20t-47.5 -57q-6 -9 -14 -3l-6 4q-8 6 -1 14q50 72 95.5 105.5
t82.5 33.5q36 0 36 -37q0 -24 -15 -69l-121 -357q-39 -118 -96.5 -182.5t-129.5 -64.5q-39 0 -57.5 17z" />
    <glyph glyph-name="circumflex" unicode="&#x2c6;" horiz-adv-x="273" 
d="M187 796q0 7 7 14l134 138q7 8 17 8h16q8 0 11 -8l50 -138q1 -1 1 -4q0 -8 -12 -17l-4 -3q-8 -4 -11 -4q-6 0 -10 7l-52 108l-118 -108q-7 -6 -13 -6q-5 0 -8 3l-4 3q-4 3 -4 7z" />
    <glyph glyph-name="caron" unicode="&#x2c7;" horiz-adv-x="274" 
d="M465 942q0 -7 -7 -14l-134 -138q-7 -8 -17 -8h-16q-8 0 -11 8l-50 138q-1 1 -1 4q0 8 12 17l4 3q8 4 11 4q7 0 10 -7l52 -108l118 108q8 6 13 6t8 -3l4 -3q4 -3 4 -7z" />
    <glyph glyph-name="breve" unicode="&#x2d8;" horiz-adv-x="283" 
d="M232.5 795q-23.5 20 -23.5 55q0 14 3 27q3 15 19 15h27q14 0 11 -15q-3 -12 -3 -23q0 -46 49 -46q56 0 82 69q6 15 21 15h27q15 0 10 -13q-18 -47 -57 -75.5t-95 -28.5q-47 0 -70.5 20z" />
    <glyph glyph-name="dotaccent" unicode="&#x2d9;" horiz-adv-x="137" 
d="M219 826.5q-9 10.5 -9 29.5q0 14 4 27q7 29 25 47t40 18q16 -1 25 -12t9 -30q0 -11 -3 -25q-8 -30 -26 -48t-40 -18q-16 1 -25 11.5z" />
    <glyph glyph-name="ring" unicode="&#x2da;" horiz-adv-x="216" 
d="M222 778q-17 19 -17 53q0 20 6 44q14 53 45.5 84t71.5 31q31 0 48 -19.5t17 -53.5q0 -19 -6 -43q-14 -53 -45.5 -84t-70.5 -31q-32 0 -49 19zM256 833q0 -37 24 -39q16 0 30.5 21t24.5 56q7 25 7 46q0 37 -23 39q-16 0 -31 -20.5t-25 -56.5q-7 -31 -7 -46z" />
    <glyph glyph-name="ogonek" unicode="&#x2db;" horiz-adv-x="232" 
d="M-73.5 -192q-21.5 21 -21.5 53q0 48 52 95q11 11 48 35q7 5 27.5 19t39.5 31l22 -16q-12 -11 -21 -16q-25 -15 -60 -47q-20 -17 -29 -34t-9 -37q0 -21 13 -35.5t34 -14.5q22 0 44 17q9 8 14 1l5 -5q6 -8 0 -14q-40 -53 -100 -53q-37 0 -58.5 21z" />
    <glyph glyph-name="tilde" unicode="&#x2dc;" horiz-adv-x="295" 
d="M338 797q-12 5 -29 14q-16 8 -25.5 12t-21.5 4q-27 0 -48 -26q-8 -8 -13 -4l-7 6q-5 4 -2 10q16 27 41 43t53 16q14 0 24.5 -4.5t24.5 -13.5t24 -13.5t23 -4.5q33 0 54 27q8 8 13 3l8 -6q5 -3 1 -11q-16 -28 -40 -42.5t-51 -14.5q-17 0 -29 5z" />
    <glyph glyph-name="hungarumlaut" unicode="&#x2dd;" horiz-adv-x="267" 
d="M195 823q0 4 4 12q19 48 30 79q25 69 37 87q18 27 40 27q11 0 21 -6q22 -13 22 -36q0 -13 -10 -31q-10 -17 -35.5 -47.5t-79.5 -90.5q-11 -11 -19 -6l-5 4q-5 3 -5 8zM350 912q25 69 37 87q18 27 40 27q11 0 21 -6q22 -13 22 -36q0 -13 -10 -31q-10 -17 -35.5 -47.5
t-79.5 -90.5q-11 -11 -19 -6l-5 4q-5 3 -5 8q0 4 4 12q19 48 30 79z" />
    <glyph glyph-name="gravecomb" unicode="&#x300;" 
d="M406 786q-4 0 -11 4q-110 72 -146 105q-18 20 -18 40q0 16 13 28q10 13 26 13q19 0 38 -18q16 -15 60 -79l46 -65q6 -8 6.5 -12t-2.5 -8l-4 -5q-3 -3 -8 -3z" />
    <glyph glyph-name="acutecomb" unicode="&#x301;" 
d="M189 801q0 5 7 13l46 65q44 64 60 79q19 17 36 17q16 0 28 -12q13 -13 13 -29q0 -19 -18 -39q-26 -26 -146 -105q-5 -4 -11 -4q-5 0 -8 3l-4 5q-3 3 -3 7z" />
    <glyph glyph-name="uni0302" unicode="&#x302;" 
d="M187 796q0 7 7 14l134 138q7 8 17 8h16q8 0 11 -8l50 -138q1 -1 1 -4q0 -8 -12 -17l-4 -3q-8 -4 -11 -4q-6 0 -10 7l-52 108l-118 -108q-7 -6 -13 -6q-5 0 -8 3l-4 3q-4 3 -4 7z" />
    <glyph glyph-name="tildecomb" unicode="&#x303;" 
d="M338 797q-12 5 -29 14q-16 8 -25.5 12t-21.5 4q-27 0 -48 -26q-8 -8 -13 -4l-7 6q-5 4 -2 10q16 27 41 43t53 16q14 0 24.5 -4.5t24.5 -13.5t24 -13.5t23 -4.5q33 0 54 27q8 8 13 3l8 -6q5 -3 1 -11q-16 -28 -40 -42.5t-51 -14.5q-17 0 -29 5z" />
    <glyph glyph-name="uni0304" unicode="&#x304;" 
d="M187.5 794.5q-0.5 3.5 1.5 8.5l7 16q5 12 13 12h251q3 0 4 -3.5t-1 -8.5l-7 -16q-2 -5 -6 -8.5t-8 -3.5h-250q-4 0 -4.5 3.5z" />
    <glyph glyph-name="uni0306" unicode="&#x306;" 
d="M232.5 795q-23.5 20 -23.5 55q0 14 3 27q3 15 19 15h27q14 0 11 -15q-3 -12 -3 -23q0 -46 49 -46q56 0 82 69q6 15 21 15h27q15 0 10 -13q-18 -47 -57 -75.5t-95 -28.5q-47 0 -70.5 20z" />
    <glyph glyph-name="uni0307" unicode="&#x307;" 
d="M219 826.5q-9 10.5 -9 29.5q0 14 4 27q7 29 25 47t40 18q16 -1 25 -12t9 -30q0 -11 -3 -25q-8 -30 -26 -48t-40 -18q-16 1 -25 11.5z" />
    <glyph glyph-name="uni0308" unicode="&#x308;" 
d="M219 826.5q-9 10.5 -9 29.5q0 14 4 27q7 29 25 47t40 18q16 -1 25 -12t9 -30q0 -11 -3 -25q-8 -30 -26 -48t-40 -18q-16 1 -25 11.5zM359 826.5q-9 10.5 -9 29.5q0 14 4 27q7 29 25 47t40 18q16 -1 25 -12t9 -30q0 -11 -3 -25q-8 -30 -26 -48t-40 -18q-16 1 -25 11.5z
" />
    <glyph glyph-name="uni030A" unicode="&#x30a;" 
d="M222 778q-17 19 -17 53q0 20 6 44q14 53 45.5 84t71.5 31q31 0 48 -19.5t17 -53.5q0 -19 -6 -43q-14 -53 -45.5 -84t-70.5 -31q-32 0 -49 19zM256 833q0 -37 24 -39q16 0 30.5 21t24.5 56q7 25 7 46q0 37 -23 39q-16 0 -31 -20.5t-25 -56.5q-7 -31 -7 -46z" />
    <glyph glyph-name="uni030B" unicode="&#x30b;" 
d="M195 823q0 4 4 12q19 48 30 79q25 69 37 87q18 27 40 27q11 0 21 -6q22 -13 22 -36q0 -13 -10 -31q-10 -17 -35.5 -47.5t-79.5 -90.5q-11 -11 -19 -6l-5 4q-5 3 -5 8zM350 912q25 69 37 87q18 27 40 27q11 0 21 -6q22 -13 22 -36q0 -13 -10 -31q-10 -17 -35.5 -47.5
t-79.5 -90.5q-11 -11 -19 -6l-5 4q-5 3 -5 8q0 4 4 12q19 48 30 79z" />
    <glyph glyph-name="uni030C" unicode="&#x30c;" 
d="M465 942q0 -7 -7 -14l-134 -138q-7 -8 -17 -8h-16q-8 0 -11 8l-50 138q-1 1 -1 4q0 8 12 17l4 3q8 4 11 4q7 0 10 -7l52 -108l118 108q8 6 13 6t8 -3l4 -3q4 -3 4 -7z" />
    <glyph glyph-name="uni0312" unicode="&#x312;" 
d="M365 1062q3 0 6 -7l3 -9l1 -4q0 -5 -5 -10t-12 -10q-24 -21 -44 -54t-27 -62q29 -5 29 -40q0 -14 -4 -27q-8 -30 -25.5 -47t-39.5 -17q-20 0 -32 14t-12 40q0 17 6 39q29 102 150 191q3 3 6 3z" />
    <glyph glyph-name="uni0326" unicode="&#x326;" 
d="M-113 -216q-5 7 -5 11t3 9l3 4q3 5 7 6.5t8 -2.5q21 -21 53 -21q49 0 64 37q-13 3 -20 14t-7 28q0 14 4 27q8 30 26 48.5t40 18.5q18 0 28 -11.5t10 -34.5q0 -17 -6 -39q-7 -26 -27 -54t-50.5 -47t-65.5 -19q-43 0 -65 25z" />
    <glyph glyph-name="uni0327" unicode="&#x327;" 
d="M-82 -216.5q-21 10.5 -29 26.5q-2 4 -2 5q0 5 9 12l5 4q4 4 7 4t8 -5q7 -7 20 -12t28 -5q27 0 45.5 19.5t18.5 44.5q0 38 -62 41l49 95l35 -4l-33 -63q36 -5 54.5 -21.5t18.5 -40.5q0 -13 -4 -25q-12 -40 -42.5 -63t-72.5 -23q-32 0 -53 10.5z" />
    <glyph glyph-name="uni0328" unicode="&#x328;" 
d="M-73.5 -192q-21.5 21 -21.5 53q0 48 52 95q11 11 48 35q7 5 27.5 19t39.5 31l22 -16q-12 -11 -21 -16q-25 -15 -60 -47q-20 -17 -29 -34t-9 -37q0 -21 13 -35.5t34 -14.5q22 0 44 17q9 8 14 1l5 -5q6 -8 0 -14q-40 -53 -100 -53q-37 0 -58.5 21z" />
    <glyph glyph-name="Wgrave" unicode="&#x1e80;" horiz-adv-x="822" 
d="M190 10l20 637q1 44 -60 50q-9 2 -4 13l2 5q3 8 5.5 10t6.5 2q38 0 68 -3q36 -2 54 -2q33 0 67 3q44 2 66 2q28 0 62 -3l57 -2q17 0 53 2q69 3 83 3q11 0 6 -12l-2 -5q-3 -7 -6.5 -9.5t-9.5 -3.5q-42 -5 -62.5 -18.5t-21.5 -36.5l-22 -459l257 453q9 17 9 28q0 27 -55 34
q-5 1 -6.5 3.5t-0.5 9.5l1 5q2 12 13 12q12 0 66 -3q26 -2 32 -2q9 0 35 2q45 3 51 3q5 0 5.5 -2.5t-0.5 -9.5l-1 -5q-2 -11 -12 -13q-33 -4 -56 -18t-40 -43l-361 -627q-7 -10 -17 -10h-10q-10 0 -10 10l6 381l-231 -381q-7 -10 -15 -10h-11q-11 0 -11 10zM459 455l3 192
q0 23 -15 36.5t-43 13.5q-37 0 -59 -15.5t-24 -39.5l-31 -468zM586 774q-4 0 -11 4q-110 72 -146 105q-18 20 -18 40q0 16 13 28q10 13 26 13q19 0 38 -18q16 -15 60 -79l46 -65q6 -8 6.5 -12t-2.5 -8l-4 -5q-3 -3 -8 -3z" />
    <glyph glyph-name="wgrave" unicode="&#x1e81;" horiz-adv-x="676" 
d="M306.5 5q-18.5 20 -18.5 62q0 34 13 80q-101 -162 -199 -162q-62 0 -62 64q0 35 19 88l81 222q14 38 14 58q0 16 -9 16q-11 0 -32 -21t-47 -59q-6 -9 -14 -3l-6 4q-3 2 -3 6q0 8 10 21q45 64 90 95.5t79 31.5q37 0 37 -38q0 -23 -16 -68l-83 -229q-24 -65 -24 -96
q0 -17 6.5 -24t19.5 -7q35 0 82.5 65.5t105.5 193.5l54 178q5 17 22 17h49q8 0 13 -4.5t5 -11.5q0 -3 -2 -9q-62 -185 -87 -271.5t-25 -121.5q0 -22 9 -29t27 -7q34 0 79.5 47.5t78.5 118t33 136.5q0 22 -7 35t-22 30q-12 12 -18 22.5t-6 24.5q0 17 18 32.5t40 15.5
q33 0 52.5 -21t19.5 -58q0 -78 -51 -184.5t-128 -183t-149 -76.5q-30 0 -48.5 20zM522 546q-4 0 -11 4q-110 72 -146 105q-18 20 -18 40q0 16 13 28q10 13 26 13q19 0 38 -18q16 -15 60 -79l46 -65q6 -8 6.5 -12t-2.5 -8l-4 -5q-3 -3 -8 -3z" />
    <glyph glyph-name="Wacute" unicode="&#x1e82;" horiz-adv-x="822" 
d="M190 10l20 637q1 44 -60 50q-9 2 -4 13l2 5q3 8 5.5 10t6.5 2q38 0 68 -3q36 -2 54 -2q33 0 67 3q44 2 66 2q28 0 62 -3l57 -2q17 0 53 2q69 3 83 3q11 0 6 -12l-2 -5q-3 -7 -6.5 -9.5t-9.5 -3.5q-42 -5 -62.5 -18.5t-21.5 -36.5l-22 -459l257 453q9 17 9 28q0 27 -55 34
q-5 1 -6.5 3.5t-0.5 9.5l1 5q2 12 13 12q12 0 66 -3q26 -2 32 -2q9 0 35 2q45 3 51 3q5 0 5.5 -2.5t-0.5 -9.5l-1 -5q-2 -11 -12 -13q-33 -4 -56 -18t-40 -43l-361 -627q-7 -10 -17 -10h-10q-10 0 -10 10l6 381l-231 -381q-7 -10 -15 -10h-11q-11 0 -11 10zM459 455l3 192
q0 23 -15 36.5t-43 13.5q-37 0 -59 -15.5t-24 -39.5l-31 -468zM479 789q0 5 7 13l46 65q44 64 60 79q19 17 36 17q16 0 28 -12q13 -13 13 -29q0 -19 -18 -39q-26 -26 -146 -105q-5 -4 -11 -4q-5 0 -8 3l-4 5q-3 3 -3 7z" />
    <glyph glyph-name="wacute" unicode="&#x1e83;" horiz-adv-x="676" 
d="M306.5 5q-18.5 20 -18.5 62q0 34 13 80q-101 -162 -199 -162q-62 0 -62 64q0 35 19 88l81 222q14 38 14 58q0 16 -9 16q-11 0 -32 -21t-47 -59q-6 -9 -14 -3l-6 4q-3 2 -3 6q0 8 10 21q45 64 90 95.5t79 31.5q37 0 37 -38q0 -23 -16 -68l-83 -229q-24 -65 -24 -96
q0 -17 6.5 -24t19.5 -7q35 0 82.5 65.5t105.5 193.5l54 178q5 17 22 17h49q8 0 13 -4.5t5 -11.5q0 -3 -2 -9q-62 -185 -87 -271.5t-25 -121.5q0 -22 9 -29t27 -7q34 0 79.5 47.5t78.5 118t33 136.5q0 22 -7 35t-22 30q-12 12 -18 22.5t-6 24.5q0 17 18 32.5t40 15.5
q33 0 52.5 -21t19.5 -58q0 -78 -51 -184.5t-128 -183t-149 -76.5q-30 0 -48.5 20zM415 561q0 5 7 13l46 65q44 64 60 79q19 17 36 17q16 0 28 -12q13 -13 13 -29q0 -19 -18 -39q-26 -26 -146 -105q-5 -4 -11 -4q-5 0 -8 3l-4 5q-3 3 -3 7z" />
    <glyph glyph-name="Wdieresis" unicode="&#x1e84;" horiz-adv-x="822" 
d="M190 10l20 637q1 44 -60 50q-9 2 -4 13l2 5q3 8 5.5 10t6.5 2q38 0 68 -3q36 -2 54 -2q33 0 67 3q44 2 66 2q28 0 62 -3l57 -2q17 0 53 2q69 3 83 3q11 0 6 -12l-2 -5q-3 -7 -6.5 -9.5t-9.5 -3.5q-42 -5 -62.5 -18.5t-21.5 -36.5l-22 -459l257 453q9 17 9 28q0 27 -55 34
q-5 1 -6.5 3.5t-0.5 9.5l1 5q2 12 13 12q12 0 66 -3q26 -2 32 -2q9 0 35 2q45 3 51 3q5 0 5.5 -2.5t-0.5 -9.5l-1 -5q-2 -11 -12 -13q-33 -4 -56 -18t-40 -43l-361 -627q-7 -10 -17 -10h-10q-10 0 -10 10l6 381l-231 -381q-7 -10 -15 -10h-11q-11 0 -11 10zM459 455l3 192
q0 23 -15 36.5t-43 13.5q-37 0 -59 -15.5t-24 -39.5l-31 -468zM458 814.5q-9 10.5 -9 29.5q0 14 4 27q7 29 25 47t40 18q16 -1 25 -12t9 -30q0 -11 -3 -25q-8 -30 -26 -48t-40 -18q-16 1 -25 11.5zM598 814.5q-9 10.5 -9 29.5q0 14 4 27q7 29 25 47t40 18q16 -1 25 -12
t9 -30q0 -11 -3 -25q-8 -30 -26 -48t-40 -18q-16 1 -25 11.5z" />
    <glyph glyph-name="wdieresis" unicode="&#x1e85;" horiz-adv-x="676" 
d="M306.5 5q-18.5 20 -18.5 62q0 34 13 80q-101 -162 -199 -162q-62 0 -62 64q0 35 19 88l81 222q14 38 14 58q0 16 -9 16q-11 0 -32 -21t-47 -59q-6 -9 -14 -3l-6 4q-3 2 -3 6q0 8 10 21q45 64 90 95.5t79 31.5q37 0 37 -38q0 -23 -16 -68l-83 -229q-24 -65 -24 -96
q0 -17 6.5 -24t19.5 -7q35 0 82.5 65.5t105.5 193.5l54 178q5 17 22 17h49q8 0 13 -4.5t5 -11.5q0 -3 -2 -9q-62 -185 -87 -271.5t-25 -121.5q0 -22 9 -29t27 -7q34 0 79.5 47.5t78.5 118t33 136.5q0 22 -7 35t-22 30q-12 12 -18 22.5t-6 24.5q0 17 18 32.5t40 15.5
q33 0 52.5 -21t19.5 -58q0 -78 -51 -184.5t-128 -183t-149 -76.5q-30 0 -48.5 20zM394 586.5q-9 10.5 -9 29.5q0 14 4 27q7 29 25 47t40 18q16 -1 25 -12t9 -30q0 -11 -3 -25q-8 -30 -26 -48t-40 -18q-16 1 -25 11.5zM534 586.5q-9 10.5 -9 29.5q0 14 4 27q7 29 25 47t40 18
q16 -1 25 -12t9 -30q0 -11 -3 -25q-8 -30 -26 -48t-40 -18q-16 1 -25 11.5z" />
    <glyph glyph-name="uni1E9E" unicode="&#x1e9e;" horiz-adv-x="577" 
d="M-245 -153q0 26 20 48t47 22q14 0 20.5 -7t13.5 -23q8 -20 19 -30.5t36 -10.5q19 0 37.5 22t45 93t63.5 211l76 283q-13 1 -26 -0.5t-19 -1.5q-8 0 -9.5 2.5t0.5 9.5l1 4q3 11 21 15q15 4 28.5 11t17.5 13l12 45q17 63 60.5 115t102 82t117.5 30q60 0 94 -26.5t34 -72.5
q0 -60 -40 -107q-130 -76 -130 -152q0 -23 12.5 -44t39.5 -56q37 -46 56.5 -83t19.5 -84q0 -49 -25 -87.5t-69 -60.5t-101 -22q-65 0 -101.5 23.5t-36.5 63.5q0 30 18 47.5t44 17.5q25 0 31.5 -14t7.5 -42q1 -33 11 -50.5t46 -17.5q42 0 69.5 30.5t27.5 69.5
q0 37 -17.5 67.5t-51.5 72.5q-32 39 -48 66.5t-16 59.5q0 42 28.5 84.5t116.5 109.5q24 57 24 93q0 34 -19.5 51.5t-56.5 17.5q-39 0 -63.5 -12t-43 -44t-35.5 -95l-102 -381q-59 -220 -142.5 -312t-178.5 -92q-87 0 -87 48z" />
    <glyph glyph-name="Ygrave" unicode="&#x1ef2;" horiz-adv-x="577" 
d="M104.5 2.5q-0.5 2.5 0.5 9.5l1 5q2 11 16 14q25 5 44 18.5t25 31.5l45 146l-26 421q-3 44 -59 50q-4 1 -4.5 3.5t0.5 9.5l1 5q2 12 13 12q37 0 68 -3q36 -2 53 -2q18 0 52 2q66 3 82 3q5 0 6.5 -2.5t-1.5 -9.5l-2 -5q-3 -7 -6 -9.5t-9 -3.5q-86 -11 -85 -55l17 -347
l221 340q11 17 11 28q0 26 -56 34q-5 1 -6.5 3.5t-0.5 9.5l1 5q2 12 13 12q34 0 61 -3q30 -2 43 -2q9 0 35 2q45 3 51 3q5 0 6.5 -2.5t-1.5 -9.5l-2 -5q-2 -6 -4.5 -9t-6.5 -4q-32 -4 -54.5 -16.5t-37.5 -35.5l-276 -417l-46 -152q-1 -3 -1 -9q0 -14 12 -24.5t32 -13.5
q6 -1 3 -13l-1 -5q-2 -12 -13 -12q-29 0 -55 3q-32 2 -49 2t-49 -2q-25 -3 -56 -3q-5 0 -5.5 2.5zM516 774q-4 0 -11 4q-110 72 -146 105q-18 20 -18 40q0 16 13 28q10 13 26 13q19 0 38 -18q16 -15 60 -79l46 -65q6 -8 6.5 -12t-2.5 -8l-4 -5q-3 -3 -8 -3z" />
    <glyph glyph-name="ygrave" unicode="&#x1ef3;" horiz-adv-x="467" 
d="M-65 -204.5q-15 14.5 -15 38.5q0 12 2 18q7 24 21 36.5t34 12.5q12 0 19 -5t15 -15q10 -11 17.5 -16t22.5 -5q30 0 75.5 37t95.5 99q-18 189 -33 285.5t-27.5 126.5t-27.5 30q-12 0 -26.5 -17t-50.5 -68q-6 -9 -14 -3l-6 4q-3 2 -3 6q0 8 10 21q47 70 77.5 98.5
t60.5 28.5q27 0 45 -29t34 -119.5t30 -269.5q49 75 80 144.5t31 113.5q0 22 -7 35t-22 30q-12 12 -18 22.5t-6 24.5q0 17 18 32.5t40 15.5q33 0 52.5 -21t19.5 -58q0 -76 -92 -235.5t-211 -286t-201 -126.5q-25 0 -40 14.5zM338 546q-4 0 -11 4q-110 72 -146 105
q-18 20 -18 40q0 16 13 28q10 13 26 13q19 0 38 -18q16 -15 60 -79l46 -65q6 -8 6.5 -12t-2.5 -8l-4 -5q-3 -3 -8 -3z" />
    <glyph glyph-name="endash" unicode="&#x2013;" horiz-adv-x="477" 
d="M46.5 358.5q-2.5 3.5 -0.5 8.5l4 16q5 12 16 12h434q5 0 7.5 -3.5t0.5 -8.5l-4 -16q-5 -12 -16 -12h-434q-5 0 -7.5 3.5z" />
    <glyph glyph-name="emdash" unicode="&#x2014;" horiz-adv-x="777" 
d="M46.5 358.5q-2.5 3.5 -0.5 8.5l4 16q5 12 16 12h734q5 0 7.5 -3.5t0.5 -8.5l-4 -16q-5 -12 -16 -12h-734q-5 0 -7.5 3.5z" />
    <glyph glyph-name="quoteleft" unicode="&#x2018;" horiz-adv-x="148" 
d="M259 805q3 0 6 -7l3 -9l1 -4q0 -5 -5 -10t-12 -10q-25 -22 -44.5 -54.5t-26.5 -61.5q29 -5 29 -40q0 -14 -4 -27q-8 -30 -25.5 -47t-39.5 -17q-20 0 -32 14t-12 40q0 17 6 39q29 102 150 191q3 3 6 3z" />
    <glyph glyph-name="quoteright" unicode="&#x2019;" horiz-adv-x="147" 
d="M98 511q-3 0 -6 7l-3 9l-1 4q0 5 5 10t12 10q25 22 44.5 54.5t26.5 61.5q-29 5 -29 40q0 14 4 27q8 30 25.5 47t39.5 17q20 0 32 -14t12 -40q0 -16 -6 -39q-29 -102 -150 -191q-3 -3 -6 -3z" />
    <glyph glyph-name="quotesinglbase" unicode="&#x201a;" horiz-adv-x="151" 
d="M-98 -169q-3 0 -6 7l-3 9l-1 4q0 5 5 10t12 10q25 22 44.5 54.5t26.5 61.5q-29 5 -29 40q0 14 4 27q8 30 25.5 47t39.5 17q20 0 32 -14t12 -40q0 -16 -6 -39q-29 -102 -150 -191q-3 -3 -6 -3z" />
    <glyph glyph-name="quotedblleft" unicode="&#x201c;" horiz-adv-x="278" 
d="M259 805q3 0 6 -7l3 -9l1 -4q0 -5 -5 -10t-12 -10q-25 -22 -44.5 -54.5t-26.5 -61.5q29 -5 29 -40q0 -14 -4 -27q-8 -30 -25.5 -47t-39.5 -17q-20 0 -32 14t-12 40q0 17 6 39q29 102 150 191q3 3 6 3zM383 802q3 3 6 3t6 -7l3 -9l1 -4q0 -5 -5 -10t-12 -10
q-25 -22 -44.5 -54.5t-26.5 -61.5q29 -5 29 -40q0 -14 -4 -27q-8 -30 -25.5 -47t-39.5 -17q-20 0 -32 14t-12 40q0 17 6 39q29 102 150 191z" />
    <glyph glyph-name="quotedblright" unicode="&#x201d;" horiz-adv-x="277" 
d="M228 511q-3 0 -6 7l-3 9l-1 4q0 5 5 10t12 10q25 22 44.5 54.5t26.5 61.5q-29 5 -29 40q0 14 4 27q8 30 25.5 47t39.5 17q20 0 32 -14t12 -40q0 -16 -6 -39q-29 -102 -150 -191q-3 -3 -6 -3zM98 511q-3 0 -6 7l-3 9l-1 4q0 5 5 10t12 10q25 22 44.5 54.5t26.5 61.5
q-29 5 -29 40q0 14 4 27q8 30 25.5 47t39.5 17q20 0 32 -14t12 -40q0 -16 -6 -39q-29 -102 -150 -191q-3 -3 -6 -3z" />
    <glyph glyph-name="quotedblbase" unicode="&#x201e;" horiz-adv-x="281" 
d="M32 -169q-3 0 -6 7l-3 9l-1 4q0 5 5 10t12 10q25 22 44.5 54.5t26.5 61.5q-29 5 -29 40q0 14 4 27q8 30 25.5 47t39.5 17q20 0 32 -14t12 -40q0 -16 -6 -39q-29 -102 -150 -191q-3 -3 -6 -3zM-98 -169q-3 0 -6 7l-3 9l-1 4q0 5 5 10t12 10q25 22 44.5 54.5t26.5 61.5
q-29 5 -29 40q0 14 4 27q8 30 25.5 47t39.5 17q20 0 32 -14t12 -40q0 -16 -6 -39q-29 -102 -150 -191q-3 -3 -6 -3z" />
    <glyph glyph-name="dagger" unicode="&#x2020;" horiz-adv-x="309" 
d="M180 425q0 7 3 16q8 25 29 67q29 58 46 109q-35 -7 -54 -13q-6 -1 -20 -4.5t-23 -3.5q-29 0 -29 19q0 3 2 11q9 29 45 29q10 0 41 -9l43 -12q2 13 4 46q4 46 8 60q10 36 41 36q21 0 21 -19q0 -6 -3 -17q-4 -14 -36 -72l-18 -34q30 6 50 12q38 9 48 9q29 0 29 -18
q0 -3 -2 -11q-9 -30 -45 -30q-9 0 -20.5 3.5t-16.5 4.5q-30 9 -48 13q-10 -36 -19 -104q-8 -53 -14 -72q-10 -36 -40 -36q-22 0 -22 20z" />
    <glyph glyph-name="bullet" unicode="&#x2022;" horiz-adv-x="225" 
d="M65 249.5q-16 19.5 -16 54.5q0 24 7 49q14 53 46.5 86t72.5 33q30 -1 46.5 -21.5t16.5 -55.5q0 -20 -6 -46q-15 -55 -48 -87.5t-73 -32.5q-30 1 -46 20.5z" />
    <glyph glyph-name="ellipsis" unicode="&#x2026;" horiz-adv-x="505" 
d="M149 -3.5q-9 10.5 -9 29.5q0 14 4 27q7 29 25 47t40 18q16 -1 25 -12t9 -30q0 -11 -3 -25q-8 -30 -26 -48t-40 -18q-16 1 -25 11.5zM329 -3.5q-9 10.5 -9 29.5q0 14 4 27q7 29 25 47t40 18q16 -1 25 -12t9 -30q0 -11 -3 -25q-8 -30 -26 -48t-40 -18q-16 1 -25 11.5z
M-31 -3.5q-9 10.5 -9 29.5q0 14 4 27q7 29 25 47t40 18q16 -1 25 -12t9 -30q0 -11 -3 -25q-8 -30 -26 -48t-40 -18q-16 1 -25 11.5z" />
    <glyph glyph-name="guilsinglleft" unicode="&#x2039;" horiz-adv-x="366" 
d="M38 246l4 16q3 8 13 14l294 153q3 2 8 2q6 0 8 -5l2 -6l1 -4q0 -7 -9 -13l-258 -149l166 -149q3 -3 3 -7q0 -5 -5 -10l-6 -6q-4 -4 -9 -5t-9 2l-200 153q-6 5 -3 14z" />
    <glyph glyph-name="guilsinglright" unicode="&#x203a;" horiz-adv-x="365" 
d="M330 262l-4 -16q-3 -8 -13 -14l-294 -153q-3 -2 -8 -2t-8 5l-2 6l-1 4q0 7 9 13l258 149l-166 149q-3 3 -3 7q0 5 5 10l6 6q4 4 9 5t9 -2l200 -153q6 -5 3 -14z" />
    <glyph glyph-name="Euro" unicode="&#x20ac;" horiz-adv-x="527" 
d="M29.5 411.5q-2.5 3.5 -1.5 8.5l5 16q1 5 6 8.5t10 3.5h31q48 127 136.5 208.5t201.5 81.5q41 0 82.5 -11t60.5 -26q7 -6 7 -15q0 -6 -3 -14l-40 -132q-1 -5 -5.5 -8.5t-9.5 -3.5h-7q-11 0 -11 10q3 90 -19.5 129.5t-69.5 39.5q-66 0 -126.5 -74t-98.5 -185h225
q5 0 7.5 -3.5t0.5 -8.5l-5 -16q-2 -5 -6 -8.5t-9 -3.5h-225q-13 -50 -20 -90h217q5 0 7.5 -3.5t0.5 -8.5l-5 -16q-2 -5 -6 -8.5t-9 -3.5h-210q-2 -34 -2 -50q0 -103 32.5 -157.5t88.5 -54.5t105.5 49.5t89.5 145.5q4 10 17 10h7q5 0 7 -3.5t1 -8.5l-31 -131q-2 -10 -7 -16.5
t-14 -13.5q-44 -31 -96 -47t-99 -16q-204 0 -204 225q0 37 4 68h-43q-5 0 -7.5 3.5t-1.5 8.5l5 16q1 5 6 8.5t10 3.5h36q8 48 22 90h-30q-5 0 -7.5 3.5z" />
    <glyph glyph-name="trademark" unicode="&#x2122;" horiz-adv-x="516" 
d="M131 442v2q2 5 7 5q23 5 27 20l70 227l1 4q0 13 -20 13h-8q-38 0 -64 -55q-2 -5 -6 -5h-6q-1 0 -2 1.5t0 2.5l21 58q3 8 7 10.5t14 2.5l76 -1h33l76 1q10 0 12.5 -2.5t0.5 -10.5l-14 -58q-2 -4 -5 -4h-5q-3 0 -3 5q1 6 1 17q0 38 -32 38h-9q-11 0 -19 -4t-10 -11
l-70 -231l-1 -4q0 -10 18 -14q3 0 1 -5v-2q-1 -5 -5 -5q-12 0 -22 1t-20 1t-20 -1t-22 -1q-3 0 -2 5zM291 444q2 5 4 5q9 2 17.5 7.5t11.5 12.5l77 227l1 4q0 6 -5 10t-12 6q-4 2 -2 5l1 2q1 5 5 5q29 -2 58 0l-4 -205l126 205q30 -1 58 0q2 0 2.5 -1.5t-0.5 -3.5v-2
q-1 -3 -5 -5q-10 -2 -18.5 -7.5t-10.5 -12.5l-63 -227l-1 -4q0 -6 5 -10t12 -6q2 0 2 -1.5t-1 -3.5v-2q-2 -5 -5 -5l-20 1q-6 1 -20 1q-10 0 -20.5 -1t-23.5 -1q-4 0 -2 5l1 2q2 5 6 5q23 5 28 20l57 203l-129 -211q-4 -4 -6 -4h-6q-3 0 -3 4l1 211l-69 -203l-1 -5
q0 -11 22 -15q5 0 3 -5l-1 -2q0 -5 -5 -5q-8 0 -16.5 1t-16.5 1t-16 -1t-15 -1q-4 0 -2 5z" />
    <glyph glyph-name="minus" unicode="&#x2212;" horiz-adv-x="424" 
d="M45.5 294.5q-3.5 3.5 -3.5 8.5v16q0 5 3.5 8.5t8.5 3.5h354q5 0 8.5 -3.5t3.5 -8.5v-16q0 -5 -3.5 -8.5t-8.5 -3.5h-354q-5 0 -8.5 3.5z" />
    <glyph glyph-name="approxequal" unicode="&#x2248;" horiz-adv-x="379" 
d="M245 216.5q-20 4.5 -46 13.5q-23 8 -41.5 12.5t-40.5 4.5q-27 0 -41 -26q-5 -8 -11 -4l-9 6q-7 4 -4 10q7 27 27 43t48 16q24 0 41.5 -4.5t43.5 -13.5q24 -9 41.5 -13.5t40.5 -4.5q17 0 28 6.5t18 20.5q5 8 12 3l9 -6q7 -3 4 -11q-6 -28 -26 -42.5t-47 -14.5t-47 4.5z
M245 336.5q-20 4.5 -46 13.5q-23 8 -41.5 12.5t-40.5 4.5q-27 0 -41 -26q-5 -8 -11 -4l-9 6q-7 4 -4 10q7 27 27 43t48 16q24 0 41.5 -4.5t43.5 -13.5q24 -9 41.5 -13.5t40.5 -4.5q17 0 28 6.5t18 20.5q5 8 12 3l9 -6q7 -3 4 -11q-6 -28 -26 -42.5t-47 -14.5t-47 4.5z" />
    <glyph glyph-name="notequal" unicode="&#x2260;" horiz-adv-x="464" 
d="M64.5 358.5q-3.5 3.5 -3.5 8.5v16q0 5 3.5 8.5t8.5 3.5h201l48 71q3 5 8 6t9 -2l13 -9q4 -3 5 -7.5t-2 -9.5l-33 -49h105q5 0 8.5 -3.5t3.5 -8.5v-16q0 -5 -3.5 -8.5t-8.5 -3.5h-132l-61 -90h193q5 0 8.5 -3.5t3.5 -8.5v-16q0 -5 -3.5 -8.5t-8.5 -3.5h-220l-50 -74
q-3 -4 -7.5 -5t-9.5 1l-13 9q-4 3 -5 7.5t2 9.5l35 52h-86q-5 0 -8.5 3.5t-3.5 8.5v16q0 5 3.5 8.5t8.5 3.5h113l61 90h-174q-5 0 -8.5 3.5z" />
    <glyph glyph-name="lessequal" unicode="&#x2264;" horiz-adv-x="465" 
d="M62 304v16q0 10 8 14l257 133q4 2 8 2q7 0 9 -5l6 -11q2 -4 2 -7q0 -8 -7 -12l-233 -122l233 -122q4 -2 5.5 -8t-0.5 -11l-6 -11q-2 -5 -9 -5q-4 0 -8 2l-257 133q-8 4 -8 14zM54 89q0 5 3 8.5t7 3.5h286q4 0 7 -3.5t3 -8.5v-16q0 -5 -3 -8.5t-7 -3.5h-286q-4 0 -7 3.5
t-3 8.5v16z" />
    <glyph glyph-name="greaterequal" unicode="&#x2265;" horiz-adv-x="503" 
d="M127 155q-6 0 -9 5l-6 11q-1 2 -1 6q0 10 6 13l233 122l-233 122q-5 3 -6 8.5t1 10.5l6 11q3 5 9 5q4 0 8 -2l257 -133q8 -4 8 -14v-16q0 -10 -8 -14l-257 -133q-4 -2 -8 -2zM102 89q0 5 3 8.5t7 3.5h286q4 0 7 -3.5t3 -8.5v-16q0 -5 -3 -8.5t-7 -3.5h-286q-4 0 -7 3.5
t-3 8.5v16z" />
    <glyph glyph-name="uni004A0301" horiz-adv-x="362" 
d="M-29.5 5.5q-22.5 20.5 -22.5 50.5q0 9 4 25q9 29 29 47t43 18q24 0 33 -11.5t9 -31.5q0 -8 -2 -28q-2 -16 -2 -24q0 -26 20 -26q39 0 69 98l159 524q2 8 2 12q0 30 -59 39q-5 1 -6.5 3.5t-0.5 9.5l1 5q2 12 13 12q14 0 77 -3q30 -2 44 -2q17 0 51 2q27 3 57 3q11 0 6 -12
l-2 -5q-5 -12 -12 -13q-25 -4 -45.5 -16t-25.5 -29l-139 -453q-29 -94 -91 -154.5t-137 -60.5q-50 0 -72.5 20.5zM322 789q0 5 7 13l46 65q44 64 60 79q19 17 36 17q16 0 28 -12q13 -13 13 -29q0 -19 -18 -39q-26 -26 -146 -105q-5 -4 -11 -4q-5 0 -8 3l-4 5q-3 3 -3 7z" />
    <glyph glyph-name="uni006A0301" horiz-adv-x="271" 
d="M-147.5 -185q-18.5 17 -18.5 43q0 10 3 21q7 23 27 42.5t39 19.5t26 -10t7 -28q0 -8 -2 -24l-1 -21q0 -13 3.5 -19t14.5 -6q13 0 24 13.5t23.5 47t34.5 100.5l119 365q13 39 13 58q0 14 -8 14q-10 0 -30.5 -20t-47.5 -57q-6 -9 -14 -3l-6 4q-8 6 -1 14q50 72 95.5 105.5
t82.5 33.5q36 0 36 -37q0 -24 -15 -69l-121 -357q-39 -118 -96.5 -182.5t-129.5 -64.5q-39 0 -57.5 17zM180 569q0 5 7 13l46 65q44 64 60 79q19 17 36 17q16 0 28 -12q13 -13 13 -29q0 -19 -18 -39q-26 -26 -146 -105q-5 -4 -11 -4q-5 0 -8 3l-4 5q-3 3 -3 7z" />
    <glyph glyph-name="ampersand.001" horiz-adv-x="743" 
d="M359 221.5q-15 16.5 -15 40.5q0 34 28.5 68t69 56.5t72.5 22.5q31 0 56.5 -20.5t57.5 -57.5q4 -4 16.5 -18t22 -20.5t16.5 -6.5q16 0 27.5 20.5t21.5 69.5q2 11 13 11h9q13 0 11 -13q-14 -76 -40.5 -118.5t-63.5 -42.5q-26 0 -49.5 17.5t-50.5 48.5q-22 -88 -71 -154.5
t-113 -103t-132 -36.5q-62 0 -112 31t-78.5 88t-28.5 131q0 91 37 167.5t97 121t124 44.5q46 0 69 -23.5t23 -57.5q0 -14 -2 -22q50 48 78.5 91t28.5 69q0 20 -14 46q-1 2 -6 14t-5 23q0 22 16 34.5t40 12.5q31 0 48.5 -21.5t17.5 -50.5q0 -46 -64 -124.5t-171 -161
t-228 -141.5q0 -12 2 -36q4 -54 28 -95t60 -63.5t77 -22.5q52 0 104.5 32t93 93t57.5 144q-20 23 -36 35.5t-33 12.5q-43 0 -43 -33q0 -8 4.5 -15t12.5 -16q10 -11 15 -19t5 -18q0 -23 -18 -36.5t-42 -13.5q-28 0 -43 16.5zM271 380q21 40 21 83q0 73 -39 73
q-31 0 -61.5 -32.5t-51 -89t-24.5 -124.5q84 39 155 90z" />
    <glyph glyph-name="uni030C.alt" 
d="M199 694.5q-2 3.5 -1 13.5l5 82q1 11 3 43.5t7 48.5q6 23 20.5 37t33.5 13q17 1 26 -8.5t9 -26.5q0 -5 -2 -15q-19 -60 -72 -177q-4 -8 -7.5 -11t-9.5 -3h-5q-5 0 -7 3.5z" />
    </font>
</defs>
</svg>
