<?xml version="1.0" standalone="no"?>
<!DOCTYPE svg PUBLIC "-//W3C//DTD SVG 1.1//EN" "http://www.w3.org/Graphics/SVG/1.1/DTD/svg11.dtd" >
<svg xmlns="http://www.w3.org/2000/svg" xmlns:xlink="http://www.w3.org/1999/xlink" version="1.1">
<metadata>
Created by FontForge 20170731 at Tue Oct 25 21:52:20 2022
 By Aleksey,,,
copyright missing
</metadata>
<defs>
<font id="VCGaramondCondensed-Medium" horiz-adv-x="0" >
  <font-face 
    font-family="VC Garamond Condensed Medium"
    font-weight="500"
    font-stretch="normal"
    units-per-em="2048"
    panose-1="0 0 0 0 0 0 0 0 0 0"
    ascent="1638"
    descent="-410"
    x-height="1001"
    cap-height="1317"
    bbox="-248 -655.48 1708 1796"
    underline-thickness="102"
    underline-position="-358"
    unicode-range="U+0020-FB01"
  />
<missing-glyph horiz-adv-x="1024" 
d="M840 1638v-2048h-650v2048h650zM342 -268h340v67h-209l143 97h66v67h-340v-67h143l-143 -97v-67zM342 10h340v232h-340v-232zM342 365h340v231h-205v-115h70v47h67v-96h-204v164h-68v-231zM342 641h340v205h-68v-135h-272v-70zM342 758h205v143h135v68h-340v-68h135v-76
h-135v-67zM342 1024h340v70h-135v143h-205v-213zM342 1290h340v68h-135v76h135v67h-338v-67h133v-76h-135v-68zM410 78v96h204v-96h-204zM410 1094v73h67v-73h-67z" />
    <glyph glyph-name="fi" unicode="fi" horiz-adv-x="1052" 
d="M227 0l-159 -8q-43 -3 -43 26q0 21 34 37l21 8q51 23 51 87v675q0 40 -11.5 56.5t-41.5 17.5l-66 4q-37 3 -37 27q0 29 29 35l131 30v95q0 151 116.5 251.5t274.5 100.5q86 0 172.5 -34.5t143.5 -92.5t57 -119q0 -40 -29 -67t-67 -27q-47 0 -78.5 26.5t-81.5 96.5
q-39 55 -59.5 80t-51 46t-61.5 21q-58 0 -96.5 -55.5t-34.5 -157.5l4 -162h135q45 0 45 -43v-2q0 -45 -45 -45h-133v-757q0 -63 55 -87l21 -8q37 -16 37 -37q0 -29 -45 -26l-168 8h-19zM565 854q0 26 31 35q133 41 246 133q16 14 39 14q24 0 24 -41v-845q0 -62 51 -87l21 -8
q37 -18 37 -37q0 -29 -45 -26l-158 8h-25l-159 -8q-43 -3 -43 26q0 21 34 37l21 8q51 23 51 87v604q0 39 -11 53.5t-42 17.5l-35 4q-37 3 -37 25z" />
    <glyph glyph-name=".notdef" horiz-adv-x="1024" 
d="M840 1638v-2048h-650v2048h650zM342 -268h340v67h-209l143 97h66v67h-340v-67h143l-143 -97v-67zM342 10h340v232h-340v-232zM342 365h340v231h-205v-115h70v47h67v-96h-204v164h-68v-231zM342 641h340v205h-68v-135h-272v-70zM342 758h205v143h135v68h-340v-68h135v-76
h-135v-67zM342 1024h340v70h-135v143h-205v-213zM342 1290h340v68h-135v76h135v67h-338v-67h133v-76h-135v-68zM410 78v96h204v-96h-204zM410 1094v73h67v-73h-67z" />
    <glyph glyph-name=".null" 
 />
    <glyph glyph-name="nonmarkingreturn" horiz-adv-x="682" 
 />
    <glyph glyph-name="space" unicode=" " horiz-adv-x="315" 
 />
    <glyph glyph-name="space" unicode="&#xa0;" horiz-adv-x="315" 
 />
    <glyph glyph-name="exclam" unicode="!" horiz-adv-x="360" 
d="M182 354q-32 0 -32 45q-5 242 -56 551q-4 23 -16 81.5t-17.5 93.5t-5.5 61q0 65 36.5 105t94.5 40q55 0 90 -39.5t35 -101.5q0 -27 -5 -61.5t-16 -90.5t-16 -82q-54 -334 -61 -557q-3 -45 -31 -45zM53 129q0 57 37.5 98t91.5 41q52 0 88.5 -40t36.5 -97q0 -61 -38 -105
t-91 -44q-54 0 -89.5 42.5t-35.5 104.5z" />
    <glyph glyph-name="quotedbl" unicode="&#x22;" horiz-adv-x="346" 
d="M31 1253q-2 31 11.5 49.5t37.5 18.5q23 0 36 -18.5t11 -49.5l-14 -295q-6 -55 -33 -55q-30 0 -33 55zM219 1253q-2 31 11.5 49.5t37.5 18.5q23 0 36 -18.5t11 -49.5l-14 -295q-6 -55 -33 -55q-29 0 -32 55z" />
    <glyph glyph-name="numbersign" unicode="#" horiz-adv-x="1161" 
d="M205 29q-8 -25 -26.5 -31t-31 8.5t-4.5 40.5l113 344h-213q-26 0 -31 24q-6 25 18 38q12 6 27 6h219l127 387h-237q-26 0 -32 23q-5 24 19 37q11 5 25 5h246l117 361q7 22 24.5 28t29.5 -7.5t5 -39.5l-111 -342h336l115 361q8 21 26 26.5t29.5 -8t3.5 -37.5l-108 -342
h225q30 0 35 -24t-20 -36q-11 -5 -25 -5h-236l-122 -387h249q25 0 31 -24q5 -26 -19 -38q-11 -6 -26 -6h-258l-115 -362q-11 -34 -37 -34q-22 0 -26 22q-3 12 2 26l110 348h-337zM344 459h338l123 387h-336z" />
    <glyph glyph-name="dollar" unicode="$" horiz-adv-x="751" 
d="M246 -170q-38 3 -31 49l14 107q-42 5 -102 20q-45 14 -67.5 35.5t-22.5 56.5v336q0 39 31 39q23 0 41 -43l75 -184q27 -73 64 -119l59 459l-96 82q-90 76 -132 146.5t-42 160.5q0 103 55.5 182.5t137 119t171.5 40.5l7 78q4 52 38 49q39 -3 33 -53l-10 -76q57 -3 127 -21
q85 -23 82 -90l-8 -266q0 -13 -8 -21t-19 -8q-23 0 -35 31l-69 168q-38 90 -80 117l-51 -408l106 -86q107 -87 156 -178t49 -197q0 -169 -116.5 -271.5t-283.5 -102.5h-26l-12 -109q-1 -20 -11 -32.5t-24 -10.5zM215 1073q0 -96 115 -192l28 -25l35 389h-16
q-69 0 -115.5 -49.5t-46.5 -122.5zM303 78q35 -21 72 -21q73 0 121.5 56.5t48.5 138.5q0 137 -129 244l-64 53z" />
    <glyph glyph-name="percent" unicode="%" horiz-adv-x="1173" 
d="M156 4q-17 -22 -38 -22.5t-26 17t10 42.5l914 1253q22 31 49 24q23 -6 18 -31q-2 -11 -10 -23zM29 1024q0 126 90 215.5t215 89.5q126 0 215.5 -89.5t89.5 -215.5t-89.5 -216.5t-215.5 -90.5q-125 0 -215 90.5t-90 216.5zM180 1071q0 -109 48 -189.5t114 -80.5
q59 0 98 51t39 129q0 109 -46.5 189.5t-110.5 80.5q-62 0 -102 -51t-40 -129zM532 279q0 125 91 215t217 90q124 0 214.5 -90t90.5 -215q0 -127 -90 -218.5t-215 -91.5q-126 0 -217 91.5t-91 218.5zM684 326q0 -109 48 -190t114 -81q59 0 98 50t39 128q0 109 -47 190
t-111 81q-61 0 -101 -50.5t-40 -127.5z" />
    <glyph glyph-name="ampersand" unicode="&#x26;" horiz-adv-x="1003" 
d="M690 0q-29 0 -47 27l-47 84q-49 -64 -116 -102t-138 -38q-133 0 -232.5 102.5t-99.5 268.5q0 116 70 212t182 151q-62 111 -90 181.5t-29 137.5q-3 127 95 212t249 85q121 0 197 -68.5t76 -177.5q0 -97 -79 -181.5t-189 -129.5l219 -381l65 211q14 49 -1.5 73t-61.5 35
q-22 5 -29 21t3 29.5t30 11.5l131 -10l96 10q21 2 32 -12t4.5 -31t-28.5 -23q-40 -9 -59.5 -31t-40.5 -79l-100 -277l88 -153q26 -43 46 -61t44 -21q41 -6 41 -37q0 -39 -53 -39h-228zM248 377q0 -148 42.5 -226.5t115.5 -78.5q80 0 159 94l-262 465q-55 -91 -55 -254z
M338 1114q0 -56 23.5 -110.5t76.5 -145.5l23 -39q102 108 102 248q0 83 -33 134.5t-86 49.5q-47 0 -76.5 -39.5t-29.5 -97.5z" />
    <glyph glyph-name="quotesingle" unicode="'" horiz-adv-x="155" 
d="M31 1253q-2 31 11.5 49.5t37.5 18.5q23 0 36 -18.5t11 -49.5l-14 -295q-6 -55 -33 -55q-30 0 -33 55z" />
    <glyph glyph-name="parenleft" unicode="(" horiz-adv-x="555" 
d="M467 -281q-182 117 -293 336t-111 471q0 227 108 438.5t284 340.5q20 15 38.5 11t18.5 -22q0 -12 -14 -30q-90 -135 -141.5 -324.5t-51.5 -396.5q0 -224 53.5 -427t151.5 -347q16 -28 16 -37q0 -19 -16.5 -24t-42.5 11z" />
    <glyph glyph-name="parenright" unicode=")" horiz-adv-x="555" 
d="M88 1325q182 -117 293 -336t111 -471q0 -227 -108 -439t-284 -341q-13 -10 -26.5 -11.5t-22 4.5t-8.5 17q0 14 14 31q90 135 141.5 325.5t51.5 397.5q0 224 -53.5 427t-151.5 347q-16 28 -16 37q0 19 16.5 23.5t42.5 -11.5z" />
    <glyph glyph-name="asterisk" unicode="*" horiz-adv-x="497" 
d="M248 831q-39 0 -57 32t-3 65l45 94q8 16 -3 24.5t-23 -8.5l-68 -88q-20 -26 -51.5 -27t-54.5 31q-18 33 -1 63.5t48 35.5l108 14q18 3 18 16t-18 15l-108 16q-33 3 -50 34.5t3 65.5q21 29 53.5 27.5t52.5 -27.5l68 -88q8 -11 16.5 -10.5t11 9t-1.5 20.5l-45 94
q-16 32 2 63t58 31t57.5 -32t1.5 -64l-45 -92q-5 -11 -0.5 -20.5t12.5 -9.5t17 11l65 88q20 26 54 27.5t55 -27.5q20 -34 2 -65.5t-51 -34.5l-109 -16q-10 -1 -14 -8t-0.5 -14t14.5 -9l109 -14q33 -5 50 -35.5t-1 -61.5q-23 -33 -56 -33t-53 27l-65 88q-12 18 -24.5 10
t-4.5 -26l45 -94q16 -32 -1.5 -64.5t-57.5 -32.5z" />
    <glyph glyph-name="plus" unicode="+" horiz-adv-x="704" 
d="M61 655q-43 0 -43 39q0 37 43 37h256v268q0 43 39 43q37 0 37 -43v-268h254q43 0 43 -37q0 -39 -43 -39h-254v-268q0 -43 -37 -43q-39 0 -39 43v268h-256z" />
    <glyph glyph-name="comma" unicode="," horiz-adv-x="294" 
d="M266 78q0 -95 -53 -202.5t-123 -162.5q-23 -17 -36.5 0t3.5 39q41 47 65.5 97t24.5 88q0 28 -15 43.5t-54 27.5q-48 12 -51 62q-5 84 27.5 135t90.5 51q52 0 86.5 -51t34.5 -127z" />
    <glyph glyph-name="hyphen" unicode="-" horiz-adv-x="530" 
d="M53 588q-43 0 -43 41q0 19 11.5 30t31.5 11h424q20 0 31.5 -11t11.5 -30q0 -41 -43 -41h-424z" />
    <glyph glyph-name="period" unicode="." horiz-adv-x="307" 
d="M156 -25q-51 0 -87 42t-36 102q0 64 37 105.5t94 41.5q51 0 86 -42.5t35 -102.5q0 -64 -35.5 -105t-93.5 -41z" />
    <glyph glyph-name="slash" unicode="/" horiz-adv-x="598" 
d="M-90 -375q-10 -24 -30 -29t-31.5 11.5t-0.5 44.5l670 1642q9 22 29 26.5t32 -10.5t1 -40z" />
    <glyph glyph-name="zero" unicode="0" horiz-adv-x="1001" 
d="M489 -27q-199 0 -316.5 185t-117.5 487q0 192 61.5 351t166 249t229.5 90q200 0 316 -187t116 -493q0 -189 -60.5 -346t-165 -246.5t-229.5 -89.5zM303 672q0 -176 25.5 -319t72.5 -224.5t105 -81.5q93 0 141.5 151.5t48.5 430.5q0 273 -56 453t-144 180
q-93 0 -143 -154.5t-50 -435.5z" />
    <glyph glyph-name="one" unicode="1" horiz-adv-x="561" 
d="M291 0l-217 -10q-51 -3 -51 26q0 13 9 20t34 17l34 13q36 16 53 32t17 47v17l2 962q0 41 -15 47t-83 -16q-60 -21 -60 21q0 29 66 51l250 86q44 15 64 4.5t20 -49.5l-4 -1106v-17q0 -31 13.5 -47.5t43.5 -31.5l27 -13q34 -16 34 -37q0 -29 -41 -26l-176 10h-20z" />
    <glyph glyph-name="two" unicode="2" horiz-adv-x="794" 
d="M680 -63q-23 0 -39 32q-19 31 -45 31h-520q-40 0 -45.5 19.5t20.5 66.5q50 92 124.5 218t121 207.5t94.5 177.5t71 180.5t23 162.5q0 102 -37 158.5t-102 56.5q-97 0 -163 -95t-42 -261q6 -66 -30 -66q-22 -3 -32 14t-13 58q-6 106 20 190.5t74 135t108 76.5t127 26
q147 0 238.5 -91t91.5 -224q0 -73 -26.5 -139.5t-80.5 -136t-113.5 -134.5t-149.5 -170.5t-165 -210.5l371 2q34 0 52.5 16t39.5 58q6 13 18 39.5t18.5 39.5t16 28.5t18 22.5t17.5 7q29 0 23 -53l-55 -414q-3 -28 -29 -28z" />
    <glyph glyph-name="three" unicode="3" horiz-adv-x="747" 
d="M279 -229q58 0 106 76.5t74 206t24 282.5q-2 146 -50.5 226.5t-137.5 80.5q-38 0 -66.5 -14t-52 -34t-37.5 -26q-48 -20 -55 11q-4 23 16.5 42t104.5 74q51 30 87.5 59.5t70.5 70.5t51.5 95.5t17.5 120.5q0 95 -38.5 147t-106.5 52q-70 0 -119.5 -68t-42.5 -178
q1 -30 -15 -41.5t-33 0t-18 37.5q-3 80 22 146t69.5 108t100.5 65t118 23q134 0 218.5 -75t84.5 -193q0 -94 -75.5 -182.5t-186.5 -137.5q143 -3 228 -109t87 -269q1 -82 -21.5 -174.5t-67.5 -180.5t-104.5 -160t-138.5 -116t-162 -45q-113 0 -194.5 45t-81.5 108
q0 40 27.5 70.5t68.5 30.5q32 0 59 -18t45.5 -43.5t36 -51t39.5 -43.5t48 -18z" />
    <glyph glyph-name="four" unicode="4" horiz-adv-x="845" 
d="M53 281q-38 0 -46.5 27t18.5 61q137 174 286.5 460.5t202.5 503.5q7 27 27 35t34.5 -7t6.5 -44q-44 -181 -156 -411.5t-238 -428.5l226 2l4 250q0 39 24 66l136 172q22 26 39.5 18.5t17.5 -41.5l-6 -465h61q29 0 44.5 12.5t33.5 47.5q27 49 45 49q28 0 21 -51l-31 -234
q-2 -18 -9.5 -24.5t-27.5 -6.5l-139 2l-2 -112v-17q0 -31 14 -47t45 -32l29 -15q21 -9 29 -16t8 -19q0 -31 -43 -28l-187 12h-12l-186 -10q-46 -3 -46 26q0 13 8.5 20t30.5 17l29 13q31 16 45 32t14 47l5 17l2 114z" />
    <glyph glyph-name="five" unicode="5" horiz-adv-x="716" 
d="M10 -313q-47 -17 -60 5q-10 20 18 43q10 9 24 15q208 95 322 248.5t114 312.5q0 128 -90.5 212.5t-247.5 99.5q-47 3 -37 57l127 573q6 28 18.5 40t37.5 12h301q41 0 57.5 11t34.5 48l14.5 29t14 18.5t18.5 9.5q28 0 22 -53l-30 -264q-2 -19 -11 -27t-30 -8l-416 6
l-57 -231q499 -67 499 -451q0 -205 -180.5 -403.5t-462.5 -302.5z" />
    <glyph glyph-name="six" unicode="6" horiz-adv-x="892" 
d="M436 -29q-120 3 -211 74t-139.5 195.5t-48.5 285.5q0 187 83.5 360t219.5 290.5t293 158.5q41 11 49.5 -11.5t-33.5 -45.5q-126 -66 -222.5 -209.5t-131.5 -339.5q41 69 104 106t129 37q143 0 236.5 -119.5t93.5 -306.5q0 -199 -122.5 -338.5t-299.5 -136.5zM279 524
q1 -134 24 -244t66 -175t98 -64q66 2 105.5 93t39.5 255q0 169 -41.5 269t-117.5 106q-58 0 -110.5 -61t-63.5 -179z" />
    <glyph glyph-name="seven" unicode="7" horiz-adv-x="700" 
d="M4 991l35 281q2 19 11 27t30 8l582 -2q31 0 34.5 -23.5t-18.5 -52.5q-145 -183 -222 -503.5t-63 -627.5q4 -85 -51.5 -119t-112.5 1t-57 118q0 199 97 468t257 517h-366q-39 0 -53 -15.5t-35 -76.5q-18 -53 -45 -53q-29 0 -23 53z" />
    <glyph glyph-name="eight" unicode="8" horiz-adv-x="806" 
d="M385 -27q-146 0 -250 98.5t-104 237.5q0 105 63.5 202t163.5 142q-177 149 -180 326q-1 91 43.5 170.5t122.5 128t170 49.5q134 1 225.5 -85t91.5 -210q0 -78 -53 -152t-148 -126q128 -97 187 -192.5t59 -205.5q2 -101 -51 -189.5t-144 -141t-196 -52.5zM217 326
q0 -116 59 -198.5t142 -82.5t137.5 59t52.5 140q-3 163 -262 342l-35 24q-44 -52 -69 -129t-25 -155zM229 1090q0 -65 55.5 -132.5t182.5 -156.5q82 85 82 233q0 99 -45 160.5t-119 60.5q-67 -1 -111.5 -50t-44.5 -115z" />
    <glyph glyph-name="nine" unicode="9" horiz-adv-x="892" 
d="M457 1335q120 -3 211 -74t139.5 -195.5t48.5 -285.5q0 -187 -83.5 -360t-219.5 -290.5t-293 -158.5q-41 -11 -49.5 12t33.5 46q126 66 222.5 209.5t131.5 339.5q-41 -70 -104 -107t-129 -37q-143 0 -236.5 119.5t-93.5 306.5q0 199 122.5 338.5t299.5 136.5zM281 918
q0 -169 41.5 -269t117.5 -106q58 0 110.5 60.5t63.5 178.5q-1 134 -24 244t-66 175.5t-98 64.5q-66 -2 -105.5 -93t-39.5 -255z" />
    <glyph glyph-name="colon" unicode=":" horiz-adv-x="311" 
d="M143 -23q-47 0 -81.5 39.5t-34.5 94.5q0 60 35.5 97.5t89.5 37.5q49 0 81.5 -38.5t32.5 -94.5q0 -60 -33.5 -98t-89.5 -38zM31 705q0 60 35.5 97.5t89.5 37.5q49 0 81.5 -38.5t32.5 -94.5q0 -60 -33.5 -98t-89.5 -38q-47 0 -81.5 39.5t-34.5 94.5z" />
    <glyph glyph-name="semicolon" unicode=";" horiz-adv-x="309" 
d="M264 76q0 -87 -51 -186t-119 -150q-21 -17 -33.5 -1.5t2.5 36.5q87 97 87 172q0 25 -14.5 40t-51.5 25q-46 12 -49 58q-5 77 26 124.5t86 47.5q51 0 84 -47.5t33 -118.5zM29 705q0 60 35.5 97.5t89.5 37.5q49 0 82.5 -38.5t33.5 -94.5q0 -59 -34.5 -97.5t-90.5 -38.5
q-47 0 -81.5 39.5t-34.5 94.5z" />
    <glyph glyph-name="question" unicode="?" horiz-adv-x="638" 
d="M293 346q-32 0 -35 41l-12 162q-9 110 12.5 180.5t97.5 167.5q55 67 78 115t23 100q0 63 -29 107.5t-72 44.5q-39 0 -69.5 -34t-59.5 -112l-69 -170q-10 -33 -33 -33q-27 0 -27 29l-14 268q0 67 84 93q84 22 186 22q73 0 130 -23t91 -62t51 -85t17 -96q0 -129 -178 -322
q-84 -92 -111 -141t-30 -117l-5 -94q-2 -22 -7.5 -31.5t-18.5 -9.5zM168 129q0 57 37.5 98t91.5 41q52 0 87.5 -40t35.5 -97q0 -62 -37.5 -105.5t-89.5 -43.5q-54 0 -89.5 42.5t-35.5 104.5z" />
    <glyph glyph-name="at" unicode="@" horiz-adv-x="1748" 
d="M815 -401q-222 0 -400.5 101t-280 283.5t-101.5 413.5q0 216 72 403t197 317.5t299 205t372 74.5q149 0 284.5 -61.5t234.5 -165.5t157.5 -250t58.5 -308q0 -163 -71 -305t-183.5 -223.5t-234.5 -81.5q-114 0 -186 59.5t-93 165.5q-40 -109 -111 -172t-153 -63
q-122 0 -200.5 102.5t-78.5 257.5q0 136 41 260t109.5 212.5t160 142.5t189.5 57q44 1 78 -13t54 -34.5t34.5 -41.5t28.5 -35.5t28 -14.5q21 0 61 49t58 49q37 0 21 -68l-119 -571q-27 -122 10 -191t113 -69q85 0 168 73.5t136.5 196.5t53.5 254q0 193 -87 357.5t-240.5 262
t-338.5 97.5q-181 0 -335 -67t-263.5 -185.5t-171 -289t-61.5 -371.5q0 -332 195 -536t509 -204q220 0 410.5 83.5t316.5 230.5q21 25 44 17t12 -37q-4 -12 -15 -25q-139 -167 -342.5 -254.5t-439.5 -87.5zM627 352q0 -101 34 -169t82 -68q108 0 162 225l94 399
q22 100 -4 153.5t-86 53.5q-74 0 -139 -77.5t-104 -215t-39 -301.5z" />
    <glyph glyph-name="A" unicode="A" horiz-adv-x="1038" 
d="M35 -6q-16 -2 -25.5 9t-4.5 27t24 25q43 22 64 49t38 82l252 856q12 48 25 76l92 199q15 29 36 27.5t29 -27.5l357 -1129q20 -62 38 -90t48 -43q21 -11 25 -26t-7 -25.5t-29 -9.5l-182 12l-205 -12q-18 -1 -27 10.5t-2.5 26t27.5 22.5q59 20 72.5 49t-2.5 66l-74 238
h-321l-66 -238q-13 -49 6 -70.5t88 -42.5q30 -10 26 -36t-34 -23l-147 12zM305 483h277l-146 478z" />
    <glyph glyph-name="B" unicode="B" horiz-adv-x="964" 
d="M268 0l-186 -10q-45 -3 -45 26q0 13 8.5 20t30.5 17l28 13q31 16 45.5 32t14.5 47v1014q0 32 -15 49t-45 31l-28 14q-22 10 -30.5 17t-8.5 18q0 32 45 29l186 -10h252q171 0 269 -89t98 -237q0 -181 -228 -268q131 -26 204 -121.5t73 -241.5q0 -83 -41.5 -163
t-121 -133.5t-175.5 -53.5h-330zM399 729h43q102 0 151.5 60.5t49.5 183.5q0 110 -48 188t-114 78h-24q-28 0 -43 -19t-15 -51v-440zM401 143q0 -71 64 -71h24q203 0 203 276q0 145 -55 226t-150 81h-86v-512z" />
    <glyph glyph-name="C" unicode="C" horiz-adv-x="960" 
d="M510 -23q-211 0 -332 173t-121 481q0 195 67.5 352t191.5 247.5t282 90.5q101 0 219 -27q56 -10 76 -36t14 -76l-41 -326q-2 -24 -15.5 -33.5t-29 1t-22.5 34.5l-64 209q-28 96 -68.5 141t-97.5 45q-122 0 -195 -159.5t-73 -415.5q0 -267 75 -411t204 -144q164 0 278 272
q14 32 37 25t14 -41q-22 -82 -58 -152.5t-85 -127.5t-115 -89.5t-141 -32.5z" />
    <glyph glyph-name="D" unicode="D" horiz-adv-x="1110" 
d="M504 66q158 1 232.5 132.5t74.5 403.5q0 293 -89 467t-241 174h-71v-1180zM39 16q0 13 8 20.5t31 16.5l31 13q33 16 48 32t15 47v1014q0 32 -14.5 49t-44.5 31l-29 14q-22 10 -30.5 17t-8.5 18q0 32 45 29l186 -10h244q258 0 396.5 -177.5t138.5 -490.5q0 -291 -152 -465
t-411 -174h-209l-199 -10q-45 -3 -45 26z" />
    <glyph glyph-name="E" unicode="E" horiz-adv-x="919" 
d="M553 63q69 0 108 39.5t89 149.5q7 15 18 40t17 38t15 31.5t15 27.5t13.5 19t14 14t13.5 4q29 0 23 -53l-62 -408q-3 -28 -26 -28q-25 0 -41 32q-10 17 -18.5 24t-22.5 7h-441l-186 -10q-45 -3 -45 26q0 13 8.5 20t30.5 17l28 13q31 16 45.5 32t14.5 47v1014q0 32 -15 49
t-45 31l-28 14q-22 10 -30.5 17t-8.5 18q0 32 45 29l186 -10h455q35 0 74 43q22 30 41 30q29 0 26 -51l-22 -387q-3 -39 -31 -39q-14 0 -25 24.5t-32 92.5q-35 127 -68.5 175t-103.5 48h-183v-495h199q30 0 43.5 15t30.5 56q21 55 43 55q31 0 28 -51l-24 -364
q-3 -41 -29 -41q-5 0 -8.5 2t-7 8.5t-6 13.5t-6 20.5t-6.5 27t-8.5 36t-10.5 43.5q-16 67 -39 91t-84 24h-115v-621h154z" />
    <glyph glyph-name="F" unicode="F" horiz-adv-x="880" 
d="M268 0l-186 -10q-45 -3 -45 26q0 13 8.5 20t30.5 17l28 13q31 16 45.5 32t14.5 47v1014q0 32 -15 49t-45 31l-28 14q-22 10 -30.5 17t-8.5 18q0 32 45 29l186 -10h455q35 0 74 43q22 30 41 30q29 0 26 -51l-22 -399q-3 -37 -31 -37q-16 0 -25.5 22.5t-29.5 94.5
q-39 134 -72.5 183.5t-103.5 49.5h-177v-506h193q28 0 42.5 16t31.5 56q12 30 21.5 42.5t21.5 12.5q31 0 28 -49l-22 -366q-3 -41 -31 -41q-7 0 -11.5 4t-8.5 17t-7 26.5t-10 43t-14 56.5q-19 70 -40.5 94.5t-80.5 24.5h-115v-512v-17q0 -31 17 -47t53 -32l33 -13
q25 -10 34 -17t9 -20q0 -29 -51 -26l-211 10h-17z" />
    <glyph glyph-name="G" unicode="G" horiz-adv-x="997" 
d="M496 -23q-127 0 -227 80t-156 225.5t-56 331.5q0 196 71.5 358.5t197 255.5t276.5 93q106 0 225 -25q54 -12 75.5 -36t17.5 -72l-33 -275q-3 -24 -16.5 -33.5t-28.5 -0.5t-23 32l-57 158q-34 96 -81 138t-110 42q-123 0 -196.5 -155t-73.5 -420q0 -574 332 -574
q46 0 61 10.5t15 47.5l-2 352q0 74 -68 86l-59 8q-45 8 -45 37q0 27 55 27l164 -2l133 2q43 0 43 -35l-4 -428q0 -58 -45 -84q-14 -8 -50.5 -29.5t-47.5 -27.5t-40.5 -22t-41 -20.5t-36.5 -15t-40 -13.5t-38 -8t-44.5 -6.5t-46.5 -1.5z" />
    <glyph glyph-name="H" unicode="H" horiz-adv-x="1146" 
d="M268 0l-186 -10q-45 -3 -45 26q0 13 8.5 20t30.5 17l28 13q31 16 45.5 32t14.5 47v1014q0 32 -15 49t-45 31l-28 14q-22 10 -30.5 17t-8.5 18q0 32 45 29l186 -10h41l166 10q41 3 41 -29q0 -11 -7.5 -18t-27.5 -17l-24 -14q-29 -14 -42.5 -31t-13.5 -49v-430h344v430
q0 32 -13.5 49t-41.5 31l-26 14q-19 10 -26 17t-7 18q0 32 39 29l168 -10h41l186 10q43 3 43 -29q0 -12 -8 -19t-29 -16l-29 -14q-31 -14 -46 -31t-15 -49v-1014q0 -31 14.5 -47t46.5 -32l29 -13q21 -10 29 -17t8 -20q0 -29 -43 -26l-186 10h-41l-168 -10q-39 -3 -39 26
q0 13 7 20t26 17l26 13q19 11 29 19t18 23.5t8 36.5v510h-344v-510q0 -31 13.5 -47t42.5 -32l24 -13q20 -10 27.5 -17t7.5 -20q0 -29 -41 -26l-166 10h-41z" />
    <glyph glyph-name="I" unicode="I" horiz-adv-x="567" 
d="M268 0l-186 -10q-45 -3 -45 26q0 13 8.5 20t30.5 17l28 13q31 16 45.5 32t14.5 47v1014q0 32 -15 49t-45 31l-28 14q-22 10 -30.5 17t-8.5 18q0 32 45 29l186 -10h31l186 10q43 3 43 -29q0 -12 -7.5 -19t-28.5 -16l-29 -14q-31 -14 -46.5 -31t-15.5 -49v-1014
q0 -31 15 -47t47 -32l29 -13q21 -9 28.5 -16.5t7.5 -20.5q0 -29 -43 -26l-186 10h-31z" />
    <glyph glyph-name="J" unicode="J" horiz-adv-x="790" 
d="M408 229v914l-2 16q0 32 -16 49t-48 31l-31 14q-23 9 -31 16t-8 19q0 32 45 29l199 -10h27l182 10q43 3 43 -29q0 -12 -8 -19t-29 -16l-29 -14q-30 -14 -44.5 -31t-14.5 -49v-866q0 -145 -97 -231.5t-261 -86.5q-115 0 -200 50t-85 135q0 49 29.5 80.5t74.5 31.5
q82 0 132 -110q29 -61 49 -86t51 -25q72 0 72 178z" />
    <glyph glyph-name="K" unicode="K" horiz-adv-x="1087" 
d="M268 0l-186 -10q-45 -3 -45 26q0 13 8.5 20t30.5 17l28 13q31 16 45.5 32t14.5 47v1014q0 32 -15 49t-45 31l-28 14q-22 10 -30.5 17t-8.5 18q0 32 45 29l186 -10h31l186 10q43 3 43 -29q0 -12 -7.5 -19t-28.5 -16l-29 -14q-31 -14 -46.5 -31t-15.5 -49v-428l340 412
q29 35 30.5 54t-19 30.5t-76.5 27.5q-22 6 -28 20.5t5 26.5t33 11l176 -10l135 10q28 2 34 -19.5t-27 -38.5q-51 -24 -82.5 -47t-67.5 -63l-264 -299l368 -684q28 -47 49.5 -69t51.5 -36q34 -15 32 -40.5t-40 -22.5l-203 12l-197 -12q-17 -1 -27 9t-5 24.5t28 25.5
q49 20 57.5 43t-8.5 49l-295 555v-555q0 -31 14.5 -47t45.5 -32l26 -13q21 -10 29 -17t8 -20q0 -29 -43 -26l-178 10h-35z" />
    <glyph glyph-name="L" unicode="L" horiz-adv-x="851" 
d="M756 -63q-23 0 -39 32q-19 31 -43 31h-391l-199 -10q-45 -3 -45 26q0 13 8 20.5t31 16.5l31 13q33 16 48 32t15 47v1014q0 32 -14.5 49t-44.5 31l-29 14q-22 10 -30.5 17t-8.5 18q0 32 45 29l186 -10h21l205 10q47 3 47 -29q0 -12 -8.5 -19t-32.5 -16l-31 -14
q-34 -14 -50.5 -31t-16.5 -49v-1096h110q69 0 106 40.5t87 154.5q8 18 24 53.5t23.5 50.5t18.5 35t20 27.5t18 7.5q31 0 25 -53l-58 -414q-3 -28 -28 -28z" />
    <glyph glyph-name="M" unicode="M" horiz-adv-x="1288" 
d="M582 -33q-9 0 -18.5 9t-12.5 22l-299 1059l2 -895v-17q0 -31 15 -47t48 -32l29 -13q23 -9 31 -16t8 -19q0 -31 -45 -28l-131 6l-127 -6q-45 -3 -45 26q0 13 8.5 20t30.5 17l28 13q31 16 45.5 32t14.5 47v1014q0 32 -15 49t-45 31l-28 14q-22 10 -30.5 17t-8.5 18
q0 32 45 29l186 -10h103q58 0 73 -66l207 -801l219 830q9 37 41 37h111l186 10q43 3 43 -29q0 -12 -8 -19t-29 -16l-28 -14q-31 -14 -46.5 -31t-15.5 -49v-1014q0 -31 15 -47t47 -32l28 -13q21 -10 29 -17t8 -20q0 -29 -43 -26l-186 10h-39l-172 -10q-41 -3 -41 26
q0 13 7 20.5t28 16.5l26 13q29 16 42.5 32t13.5 47v887l-273 -1032q-7 -33 -32 -33z" />
    <glyph glyph-name="N" unicode="N" horiz-adv-x="1042" 
d="M854 -33q-31 0 -51 39l-549 979l2 -823v-17q0 -31 14.5 -47t46.5 -32l29 -13q21 -9 29 -16t8 -19q0 -31 -43 -28l-127 6l-129 -6q-45 -3 -45 26q0 13 8 20t29 17l30 13q31 16 45.5 32t14.5 47v1014q0 32 -15 49t-45 31l-30 14q-21 9 -29 16t-8 19q0 32 45 29l186 -10h23
q30 -1 48 -15.5t36 -46.5l428 -774l-2 672v16q0 32 -15.5 49t-46.5 31l-28 14q-21 9 -29 16t-8 19q0 32 43 29l129 -6l127 6q45 3 45 -29q0 -11 -8.5 -18t-30.5 -17l-29 -14q-30 -14 -44.5 -31t-14.5 -49v-1149q0 -19 -11.5 -31t-27.5 -12z" />
    <glyph glyph-name="O" unicode="O" horiz-adv-x="1085" 
d="M530 -27q-143 0 -251.5 84.5t-167 237t-58.5 350.5q0 143 42 272t111 220t161 144.5t190 53.5q214 0 343.5 -188t129.5 -492q0 -141 -41 -268.5t-109.5 -217.5t-160 -143t-189.5 -53zM301 672q0 -174 35.5 -318.5t93.5 -225.5t125 -81q103 0 165 154.5t62 427.5
q0 132 -20 250.5t-54 201.5t-80 132t-96 49q-104 0 -167.5 -157t-63.5 -433z" />
    <glyph glyph-name="P" unicode="P" horiz-adv-x="897" 
d="M268 0l-186 -10q-45 -3 -45 26q0 13 8.5 20t30.5 17l28 13q31 16 45.5 32t14.5 47v1014q0 32 -15 49t-45 31l-28 14q-22 10 -30.5 17t-8.5 18q0 32 45 29l186 -10h240q181 0 285 -105.5t104 -286.5q0 -170 -136 -281.5t-339 -111.5h-21v-377q0 -31 16 -46.5t50 -32.5
l31 -13q24 -10 32.5 -17t8.5 -20q0 -29 -47 -26l-201 10h-23zM401 598h27q225 0 225 293q0 148 -54.5 249t-133.5 101h-8q-27 0 -41.5 -18.5t-14.5 -48.5v-576z" />
    <glyph glyph-name="Q" unicode="Q" horiz-adv-x="1101" 
d="M530 -27q-143 0 -251.5 84.5t-167 237t-58.5 350.5q0 143 42 272t111 220t161 144.5t190 53.5q214 0 343.5 -188t129.5 -492q0 -255 -122.5 -444.5t-299.5 -228.5q23 -102 67 -155.5t103 -53.5q39 0 69 25t79 93q18 24 35.5 9.5t5.5 -39.5q-115 -223 -267 -223
q-86 0 -149.5 46t-73 120.5t63.5 168.5h-11zM301 672q0 -174 35.5 -318.5t93.5 -225.5t125 -81q103 0 165 154.5t62 427.5q0 132 -20 250.5t-54 201.5t-80 132t-96 49q-104 0 -167.5 -157t-63.5 -433z" />
    <glyph glyph-name="R" unicode="R" horiz-adv-x="970" 
d="M268 0l-186 -10q-45 -3 -45 26q0 13 8.5 20t30.5 17l28 13q31 16 45.5 32t14.5 47v1014q0 32 -15 49t-45 31l-28 14q-22 10 -30.5 17t-8.5 18q0 32 45 29l186 -10h244q182 0 282.5 -96t100.5 -259q0 -96 -61 -172.5t-175 -122.5l215 -499q21 -48 40.5 -69t50.5 -32
q34 -12 34 -32q0 -13 -13 -23t-30 -10l-219 8q-36 2 -53.5 14.5t-30.5 48.5l-182 457q-19 46 -31.5 63t-33.5 17h-5v-455q0 -31 14 -47t44 -32l26 -13q20 -10 27.5 -17t7.5 -20q0 -29 -41 -26l-174 10h-37zM401 680h43q102 0 154.5 68.5t52.5 199.5q0 123 -49.5 208
t-126.5 85h-18q-27 0 -41.5 -18.5t-14.5 -48.5v-494z" />
    <glyph glyph-name="S" unicode="S" horiz-adv-x="751" 
d="M319 -29q-109 0 -192 25q-45 14 -67.5 35.5t-22.5 58.5v340q0 39 31 39q23 0 41 -43l75 -186q71 -193 191 -193q73 0 121.5 57.5t48.5 141.5q0 139 -129 246l-205 174q-90 78 -132 149t-42 162q0 79 33 146t86.5 109.5t118.5 66.5t131 24q100 0 190 -23q85 -23 82 -92
l-8 -268q0 -13 -8 -21t-19 -8q-23 0 -35 31l-69 170q-31 76 -68 107.5t-94 31.5q-69 0 -115.5 -50t-46.5 -124q0 -96 115 -196l184 -152q106 -87 155.5 -179t49.5 -200q0 -171 -116.5 -275t-283.5 -104z" />
    <glyph glyph-name="T" unicode="T" horiz-adv-x="1005" 
d="M502 0l-199 -10q-45 -3 -45 26q0 13 8 20.5t31 16.5l31 13q33 16 48 32t15 47v1098h-53q-62 0 -103 -42.5t-85 -133.5q-6 -13 -15 -31.5t-14 -29.5t-12.5 -26t-12 -23.5t-11 -19.5t-11.5 -16.5t-11 -11t-12 -8t-12 -2.5q-25 0 -19 53l56 387q3 33 26 33q12 0 20 -9
t17 -28q15 -28 43 -28h668q38 0 70 32q2 3 6.5 8t7 8t6.5 6.5t6.5 5.5t6.5 3.5t8 1.5q31 0 28 -51l-22 -385q-3 -39 -29 -39q-17 0 -28 24.5t-31 94.5q-35 133 -65.5 180t-98.5 47h-86v-1098q0 -31 15.5 -47t49.5 -32l31 -13q22 -10 30.5 -17t8.5 -20q0 -29 -47 -26l-197 10
h-18z" />
    <glyph glyph-name="U" unicode="U" horiz-adv-x="1064" 
d="M561 -27q-193 0 -303.5 103.5t-110.5 271.5v811q0 32 -15 49t-46 31l-27 14q-21 9 -28.5 16t-7.5 19q0 32 43 29l182 -10h31l190 10q45 3 45 -29q0 -11 -8.5 -18t-30.5 -17l-29 -14q-32 -14 -47.5 -31t-15.5 -49v-807q0 -120 53.5 -185t163.5 -65q107 0 168 65.5
t61 182.5l-2 793v16q0 32 -15 49t-46 31l-31 14q-22 10 -30.5 17t-8.5 18q0 32 45 29l133 -6l127 6q43 3 43 -29q0 -12 -7.5 -19t-28.5 -16l-29 -14q-30 -14 -44.5 -31t-14.5 -49v-819q0 -156 -104 -261.5t-255 -105.5z" />
    <glyph glyph-name="V" unicode="V" horiz-adv-x="960" 
d="M113 1145q-18 57 -33 80t-45 35q-22 8 -28.5 23t4 27t32.5 11l164 -8l211 8q30 2 34.5 -22.5t-26.5 -34.5l-49 -15q-48 -15 -29 -84l223 -782l179 774q9 47 -13 68.5t-100 36.5q-20 5 -27 19.5t3 26.5t30 11l170 -8l111 6q31 2 33.5 -20.5t-29.5 -34.5q-35 -16 -54.5 -42
t-31.5 -77l-211 -821q-16 -61 -39 -134l-57 -192q-7 -28 -30 -28t-30 26z" />
    <glyph glyph-name="W" unicode="W" horiz-adv-x="1476" 
d="M1057 -39q-28 0 -35 31l-266 909l-238 -901q-9 -37 -37 -37q-10 0 -19.5 10t-12.5 21l-332 1175q-12 41 -28 56.5t-50 21.5q-45 9 -45 35q0 16 13.5 25.5t31.5 9.5l192 -8l199 8q45 3 45 -31q0 -25 -33 -31q-57 -11 -73.5 -29t-3.5 -63l192 -741l160 616l-41 140
q-10 39 -24.5 52t-51.5 21q-45 11 -45 33q0 31 41 31l203 -6l196 8q45 3 45 -31q0 -26 -34 -31q-64 -10 -80 -28.5t-4 -63.5l196 -712l133 647q10 50 12 82t-20.5 48.5t-79.5 20.5q-20 1 -29.5 11t-9.5 22q0 14 11 22.5t30 8.5l166 -4l113 6q39 3 39 -27q0 -27 -37 -35
q-47 -11 -71.5 -43t-41.5 -108l-235 -1096q-3 -17 -14 -31t-27 -14z" />
    <glyph glyph-name="X" unicode="X" horiz-adv-x="950" 
d="M537 -4q-32 -1 -36 24t27 33q58 13 67.5 36t-15.5 77l-179 414l-157 -398q-14 -36 -15 -62t23.5 -43t79.5 -24q22 -4 29 -18.5t-3 -27t-30 -11.5l-160 8l-131 -8q-19 -2 -28 9.5t-2.5 26t26.5 21.5q39 13 68 39.5t57 91.5l204 488l-231 510q-26 54 -74 71q-31 10 -25 36
t36 24l184 -8l188 8q22 1 32.5 -12t4 -27.5t-27.5 -18.5q-31 -5 -47.5 -14.5t-23 -28t8.5 -47.5l156 -346l143 322q26 49 11 75t-85 39q-22 3 -28.5 16.5t3 26t27.5 11.5l156 -4l113 6q29 1 33.5 -23t-23.5 -33q-40 -13 -64.5 -36.5t-52.5 -81.5l-194 -402l260 -610
q23 -54 73 -68q20 -8 27 -23t-2.5 -27t-30.5 -11l-186 8z" />
    <glyph glyph-name="Y" unicode="Y" horiz-adv-x="1028" 
d="M156 1137q-28 57 -51 81t-56 37q-22 7 -28.5 22t4 27t30.5 11l209 -10l217 8q20 1 29.5 -11.5t3 -27.5t-26.5 -21l-28 -8q-78 -21 -47 -92l190 -403l182 403q23 41 1.5 65t-103.5 35q-22 4 -29 19.5t4.5 29t36.5 11.5l162 -10l113 10q36 3 41.5 -23.5t-27.5 -38.5
q-39 -14 -60 -37.5t-44 -74.5l-226 -492v-502q0 -31 16 -46.5t50 -32.5l33 -13q23 -9 31 -16.5t8 -20.5q0 -29 -48 -26l-200 10h-15l-200 -10q-47 -3 -47 26q0 13 8 20.5t30 16.5l31 13q35 16 51.5 32t16.5 47v455z" />
    <glyph glyph-name="Z" unicode="Z" horiz-adv-x="815" 
d="M690 -63q-24 0 -39 34q-19 29 -43 29h-551q-20 0 -26.5 17t2.5 36l506 1190h-148q-69 0 -108 -40.5t-93 -155.5q-7 -15 -17.5 -39.5t-16.5 -38t-15 -32.5t-15 -29t-13.5 -20.5t-14.5 -15t-14 -4.5q-32 0 -25 56l64 415q3 29 29 29q22 0 38 -33q17 -28 41 -28h527
q22 0 28.5 -18.5t-2.5 -37.5l-505 -1188h167q69 0 109 40.5t92 152.5q59 130 78 156q17 23 31 24q18 0 22.5 -13t1.5 -40l-61 -416q-3 -30 -29 -30z" />
    <glyph glyph-name="bracketleft" unicode="[" horiz-adv-x="436" 
d="M145 -295q-42 0 -57.5 14t-15.5 48v1482q0 32 15.5 45t57.5 13h244q24 0 34 -17t0 -34t-34 -17h-88l-2 -1468h90q24 0 34 -16.5t0 -33t-34 -16.5h-244z" />
    <glyph glyph-name="backslash" unicode="\" horiz-adv-x="598" 
d="M18 1270q-11 25 1 40t32 10.5t29 -26.5l670 -1642q11 -28 -0.5 -44.5t-31.5 -11.5t-30 29z" />
    <glyph glyph-name="bracketright" unicode="]" horiz-adv-x="436" 
d="M291 1305q42 0 58 -14t16 -48v-1483q0 -31 -16 -44t-58 -13h-244q-24 0 -34 17t0 34t34 17h88l2 1468h-90q-24 0 -34 16.5t0 33t34 16.5h244z" />
    <glyph glyph-name="asciicircum" unicode="^" horiz-adv-x="645" 
d="M623 1040q26 -30 5.5 -50.5t-50.5 3.5l-252 207l-256 -201q-32 -25 -52 -3t9 53l231 258q34 35 71 34t68 -38z" />
    <glyph glyph-name="underscore" unicode="_" horiz-adv-x="714" 
d="M43 -86q-43 0 -43 43t43 43h629q43 0 43 -43t-43 -43h-629z" />
    <glyph glyph-name="grave" unicode="`" horiz-adv-x="421" 
d="M74 1180q-46 24 -57.5 79t26.5 97q41 41 92.5 29.5t83.5 -60.5l154 -238q18 -29 2 -45t-49 2z" />
    <glyph glyph-name="a" unicode="a" horiz-adv-x="833" 
d="M612 -29q-62 0 -100.5 35.5t-38.5 95.5v11q-102 -136 -246 -136q-95 0 -148.5 57t-53.5 148q0 105 105 200.5t345 209.5v258q0 94 -86 94q-50 0 -82.5 -52.5t-56.5 -164.5q-36 -143 -135 -143q-42 0 -66 25t-24 65q0 98 151 227q152 131 293 131q219 0 219 -237v-672
q0 -35 23 -35t73 72q17 26 35 15t6 -36q-34 -77 -91 -122.5t-122 -45.5zM250 217q0 -63 21 -96t59 -33q51 0 97 50.5t46 121.5l2 266q-119 -75 -172 -148t-53 -161z" />
    <glyph glyph-name="b" unicode="b" horiz-adv-x="983" 
d="M528 -25q-61 0 -144.5 28t-94.5 28q-26 0 -72 -25l-27 -18q-18 -15 -34 -15q-21 0 -21 29l-4 211v917q0 37 -11.5 51.5t-43.5 20.5l-25 6q-37 7 -37 27q0 24 31 33q70 22 123.5 52t114.5 77q19 14 39 14q22 0 22 -39v-463l45 37q97 82 203 82q160 0 252 -138.5t92 -375.5
q0 -230 -116 -384.5t-292 -154.5zM344 104q67 -45 160 -45q101 0 154 105.5t53 306.5t-51.5 326t-143.5 125q-70 0 -119.5 -62t-52.5 -155v-601z" />
    <glyph glyph-name="c" unicode="c" horiz-adv-x="802" 
d="M432 -29q-180 0 -282.5 135.5t-102.5 376.5q0 150 58.5 274.5t160.5 195.5t226 71q102 0 180 -18q87 -21 78 -91l-37 -284q-6 -35 -29 -35q-25 0 -33 33l-59 194q-39 133 -123 133q-86 0 -138 -120t-52 -310q0 -202 58 -314t155 -112q69 0 120.5 64.5t98.5 185.5
q11 29 33.5 22t15.5 -38q-108 -363 -328 -363z" />
    <glyph glyph-name="d" unicode="d" horiz-adv-x="989" 
d="M391 -33q-155 0 -249.5 139t-94.5 369q0 241 114.5 395t291.5 154q105 0 192 -84v190q0 39 -11.5 53t-43.5 19l-29 6q-35 7 -35 25q0 26 29 35q120 35 242 129q19 14 39 14q24 0 24 -39v-1177q0 -40 11.5 -56t43.5 -20l33 -4q35 -7 35 -27q0 -24 -29 -33
q-165 -40 -229 -69q-39 -17 -49 -17q-22 0 -25 39l-2 82l-55 -47q-92 -76 -203 -76zM274 528q0 -206 53 -330t146 -124q66 0 119 59.5t53 149.5v499q-12 67 -62.5 114.5t-109.5 47.5q-92 0 -145.5 -111.5t-53.5 -304.5z" />
    <glyph glyph-name="e" unicode="e" horiz-adv-x="843" 
d="M438 -31q-175 0 -283 139.5t-108 368.5q0 149 56 276t153.5 202t214.5 75q143 0 238 -115t96 -294q0 -60 -24.5 -87.5t-78.5 -27.5h-432v-10q0 -189 66.5 -298.5t173.5 -109.5q136 0 233 244q12 29 34 21.5t14 -36.5q-43 -165 -133.5 -256.5t-219.5 -91.5zM272 575h197
q68 0 99.5 33t31.5 109q-1 119 -36.5 183.5t-94.5 62.5q-80 -2 -133.5 -106t-63.5 -282z" />
    <glyph glyph-name="f" unicode="f" horiz-adv-x="542" 
d="M227 0l-159 -8q-43 -3 -43 26q0 21 34 37l21 8q51 23 51 87v677q0 40 -11.5 56.5t-41.5 17.5l-66 4q-37 3 -37 27q0 28 29 37l131 28v70q0 154 99 253t247 99q103 0 182.5 -46.5t79.5 -119.5q0 -36 -27 -62t-61 -26q-70 0 -135 92q-27 35 -39 49t-32.5 28t-40.5 14
q-36 0 -56.5 -52.5t-17.5 -152.5l10 -146h158q45 0 45 -43v-2q0 -45 -45 -45h-156v-757q0 -62 60 -87l24 -8q41 -18 41 -37q0 -29 -51 -26l-182 8h-11z" />
    <glyph glyph-name="g" unicode="g" horiz-adv-x="802" 
d="M375 -391q-162 5 -255 57t-93 150q0 55 47.5 111t118.5 93l-23 3q-58 6 -92.5 38t-34.5 80q0 55 46 114.5t151 139.5q-99 37 -161.5 118t-62.5 177q0 140 107.5 243t253.5 103q88 0 164 -39h262v-82l-158 5q92 -98 92 -226q0 -131 -108 -227t-256 -96q-37 0 -74 6
q-84 -84 -84 -125q0 -26 33 -29l305 -30q121 -10 186.5 -78t65.5 -170q0 -145 -128.5 -243t-301.5 -93zM217 -150q0 -79 49.5 -123t136.5 -46q89 -2 158.5 55.5t69.5 134.5q0 109 -146 121l-221 22q-47 -63 -47 -164zM242 707q0 -120 38.5 -193.5t100.5 -73.5q57 0 94 70.5
t37 183.5q0 123 -37.5 198t-97.5 75t-97.5 -71.5t-37.5 -188.5z" />
    <glyph glyph-name="h" unicode="h" horiz-adv-x="1007" 
d="M227 0l-157 -8q-45 -3 -45 26q0 20 36 37l21 8q51 25 51 87v978q0 38 -11.5 52t-43.5 20l-27 6q-35 7 -35 27q0 24 29 33q72 23 125 53.5t111 75.5q19 14 41 14t22 -39v-477l49 43q51 44 112 69t118 25q258 0 258 -325v-555q0 -63 53 -87l20 -8q35 -17 35 -37
q0 -29 -43 -26l-160 8h-28l-152 -8q-43 -3 -43 26q0 20 35 37l18 8q52 25 52 87v548q0 220 -150 220q-63 0 -116.5 -48t-53.5 -127v-593q0 -63 49 -87l19 -8q35 -17 35 -37q0 -29 -41 -26l-154 8h-29z" />
    <glyph glyph-name="i" unicode="i" horiz-adv-x="479" 
d="M227 1116q-53 0 -90 41.5t-37 99.5q0 65 37.5 106.5t95.5 41.5q54 0 90.5 -41t36.5 -100q0 -64 -37 -106t-96 -42zM8 854q0 26 31 35q133 41 246 133q16 14 39 14q24 0 24 -41v-845q0 -62 51 -87l21 -8q37 -18 37 -37q0 -29 -45 -26l-158 8h-25l-159 -8q-43 -3 -43 26
q0 21 34 37l21 8q51 23 51 87v604q0 39 -11 53.5t-42 17.5l-35 4q-37 3 -37 25z" />
    <glyph glyph-name="j" unicode="j" horiz-adv-x="458" 
d="M227 1116q-53 0 -90 41.5t-37 99.5q0 65 37.5 106.5t95.5 41.5q54 0 90.5 -41t36.5 -100q0 -64 -37 -106t-96 -42zM-248 -221q0 38 30 66t71 28q77 0 131 -94q16 -28 22.5 -38t19 -25.5t24.5 -21t28 -5.5q35 0 55.5 34t20.5 89q-1 27 -11 110t-10 160v672q0 39 -11 53.5
t-42 17.5l-35 4q-37 3 -37 25q0 26 31 35q123 38 246 133q19 14 39 14q24 0 24 -41v-1028q0 -156 -96 -253t-246 -97q-102 0 -178 44.5t-76 117.5z" />
    <glyph glyph-name="k" unicode="k" horiz-adv-x="915" 
d="M229 0l-159 -8q-43 -3 -43 26q0 21 34 37l21 8q53 24 53 87v978q0 39 -11.5 53.5t-43.5 20.5l-27 4q-37 6 -37 27q0 26 31 35q125 40 236 129q16 14 39 14q24 0 24 -39l2 -774l244 250q61 64 -27 88l-14 2q-33 9 -33 33q0 13 10.5 22t28.5 8l162 -8l147 11q17 1 27 -7
t10 -22q0 -21 -37 -33q-34 -14 -51.5 -22t-48.5 -28.5t-59 -47.5l-177 -176l289 -539q35 -59 68 -74q31 -17 31 -32q0 -34 -41 -31l-172 8l-154 -10q-19 -1 -29 7t-10 21q0 23 31 35q35 12 43 31t-11 55l-227 430v-411v-8q3 -63 49 -87l21 -8q33 -17 33 -37q3 -29 -41 -26
l-150 8h-31z" />
    <glyph glyph-name="l" unicode="l" horiz-adv-x="477" 
d="M227 0l-157 -8q-45 -3 -45 26q0 20 36 37l21 8q51 25 51 87v980q0 38 -12 52.5t-43 19.5l-25 4q-37 4 -37 27q0 26 31 35q68 20 120 49.5t118 79.5q19 14 39 14q24 0 24 -39v-1222q0 -62 51 -87l21 -8q35 -17 35 -37q0 -29 -43 -26l-160 8h-25z" />
    <glyph glyph-name="m" unicode="m" horiz-adv-x="1544" 
d="M229 0l-159 -8q-43 -3 -43 26q0 21 34 37l21 8q53 24 53 87v604q0 39 -12 53.5t-43 17.5l-35 4q-37 3 -37 27t29 33q78 23 131.5 54t114.5 81q19 12 39 12q24 0 24 -39v-104l49 43q112 94 230 94q182 0 237 -153l68 59q112 94 229 94q258 0 258 -325v-555q0 -62 51 -87
l21 -8q37 -18 37 -37q0 -29 -45 -26l-158 8h-29l-151 -8q-43 -3 -43 26q0 20 35 37l18 8q49 24 49 87v548q0 220 -149 220q-64 0 -117 -49.5t-53 -133.5v-585q0 -63 53 -87l20 -8q35 -17 35 -37q0 -29 -43 -26l-160 8h-28l-152 -8q-43 -3 -43 26q0 19 35 37l21 8
q49 25 49 87v548q0 220 -150 220q-63 0 -116.5 -48t-53.5 -127v-593q0 -63 49 -87l19 -8q35 -17 35 -37q0 -29 -43 -26l-152 8h-29z" />
    <glyph glyph-name="n" unicode="n" horiz-adv-x="1009" 
d="M229 0l-159 -8q-43 -3 -43 26q0 21 34 37l21 8q53 24 53 87v604q0 39 -12 53.5t-43 17.5l-35 4q-37 3 -37 27t29 33q77 23 131.5 54.5t114.5 80.5q19 12 39 12q24 0 24 -35v-108l49 43q112 94 230 94q258 0 258 -325v-555q0 -62 51 -87l20 -8q37 -18 37 -37
q0 -29 -45 -26l-158 8h-28l-152 -8q-43 -3 -43 26q0 20 35 37l18 8q50 24 50 87v548q0 220 -150 220q-63 0 -116.5 -48t-53.5 -127v-593q0 -62 51 -87l19 -8q35 -17 35 -37q0 -29 -43 -26l-152 8h-29z" />
    <glyph glyph-name="o" unicode="o" horiz-adv-x="927" 
d="M457 -33q-187 0 -298.5 147t-111.5 380q0 224 125 380t299 156q187 0 298.5 -146.5t111.5 -381.5q0 -147 -57.5 -270.5t-155 -194t-211.5 -70.5zM274 506q0 -201 58 -334t141 -133q85 0 132.5 119t47.5 331q0 203 -57.5 337.5t-140.5 134.5q-86 0 -133.5 -119.5
t-47.5 -335.5z" />
    <glyph glyph-name="p" unicode="p" horiz-adv-x="980" 
d="M223 -365l-157 -8q-46 -3 -46 27q0 19 37 37l21 8q51 25 51 88v969q0 39 -11.5 53.5t-43.5 19.5l-31 2q-37 6 -37 27q0 24 31 33q105 27 217 117q33 26 51 26q25 0 25 -41l2 -94l65 53q92 76 195 76q156 0 250 -138.5t94 -369.5q0 -151 -52 -273.5t-148 -193.5t-218 -71
q-97 0 -174 47v-242q0 -65 57 -88l23 -8q39 -17 39 -37q0 -30 -49 -27l-176 8h-15zM344 131q30 -30 72.5 -46.5t83.5 -16.5q209 0 209 409q0 213 -49.5 332t-143.5 119q-64 0 -118 -61t-54 -150v-586z" />
    <glyph glyph-name="q" unicode="q" horiz-adv-x="976" 
d="M743 -365l-182 -8q-51 -3 -51 27q0 12 9 20t32 17l22 8q60 25 60 88v293l-45 -33q-103 -76 -201 -76q-157 0 -248.5 138.5t-91.5 373.5q0 236 121 387.5t307 151.5q79 0 180 -49q30 -17 60 -10t78 47q17 14 34 14q21 0 21 -29v-1208q0 -63 51 -88l21 -8q36 -17 36 -37
q0 -30 -45 -27l-157 8h-11zM274 526q0 -198 51.5 -324t137.5 -126q65 0 117 58.5t53 148.5v514q0 75 -47 110q-43 31 -103 31q-100 0 -154.5 -108.5t-54.5 -303.5z" />
    <glyph glyph-name="r" unicode="r" horiz-adv-x="698" 
d="M229 0l-157 -8q-45 -3 -45 26q0 20 36 37l21 8q51 25 51 87v604q0 39 -12 53.5t-43 17.5l-35 4q-37 3 -37 27t29 33q77 26 128.5 55.5t110.5 75.5q19 14 41 14q23 0 23 -39v-127l33 41q93 121 186 121q64 0 101.5 -39.5t37.5 -105.5q0 -63 -34 -105.5t-84 -42.5
q-56 0 -85.5 36.5t-31.5 82.5q-1 8 -0.5 15t0.5 12t-1 8.5t-4 5.5t-9 2q-25 0 -62 -55t-37 -109v-585q0 -62 58 -87l22 -8q39 -17 39 -37q0 -29 -49 -26l-174 8h-17z" />
    <glyph glyph-name="s" unicode="s" horiz-adv-x="645" 
d="M276 -33q-61 0 -165 17q-80 16 -80 73l10 273q0 13 8.5 22.5t22.5 9.5q17 0 34 -34l68 -156q58 -137 150 -137q54 0 90.5 42.5t36.5 106.5q0 113 -121 197l-148 106q-145 105 -145 267q0 85 49 150t119.5 96.5t146.5 31.5q71 0 152 -16q43 -7 61.5 -25.5t18.5 -48.5
l-6 -211q-2 -11 -9.5 -18.5t-17.5 -7.5q-15 0 -31 26l-59 115q-34 67 -64.5 93t-77.5 26q-50 0 -84 -38.5t-34 -95.5q0 -79 104 -155l131 -90q178 -122 178 -303q0 -147 -98.5 -231.5t-239.5 -84.5z" />
    <glyph glyph-name="t" unicode="t" horiz-adv-x="581" 
d="M27 977q181 46 254 225q10 27 36 27q25 0 25 -39v-193h180q43 0 43 -43v-2q0 -43 -43 -43h-180v-739q0 -31 12.5 -48.5t34.5 -17.5q63 0 141 152q9 18 24 21.5t24 -7t4 -26.5q-101 -273 -267 -273q-89 0 -137.5 44t-48.5 120v709q0 39 -12.5 55t-42.5 16h-43
q-16 0 -26.5 6.5t-10.5 18.5q0 28 33 37z" />
    <glyph glyph-name="u" unicode="u" horiz-adv-x="983" 
d="M670 -39q-25 0 -25 39v102l-47 -41q-53 -45 -116.5 -69.5t-121.5 -24.5q-115 0 -176 68.5t-61 204.5v514q0 39 -11.5 53.5t-41.5 17.5l-37 4q-35 3 -35 27t29 33q77 23 132 54.5t115 80.5q19 12 39 12q25 0 25 -35v-770q0 -67 28 -110t93 -43q68 0 125 51t57 121l2 504
q0 39 -12 53.5t-43 17.5l-35 4q-37 4 -37 27q0 24 31 33q76 23 130.5 54t117.5 81q19 12 39 12q22 0 22 -35v-815q0 -39 11.5 -55.5t39.5 -19.5l27 -5q35 -4 35 -26q0 -24 -31 -33q-143 -35 -217 -70q-40 -16 -51 -16z" />
    <glyph glyph-name="v" unicode="v" horiz-adv-x="866" 
d="M442 -29q-25 -5 -36 25l-300 864q-16 45 -28.5 58.5t-38.5 19.5q-24 7 -30.5 22.5t4.5 28.5t30 12l164 -6l196 9q23 1 32.5 -12.5t2 -28.5t-27.5 -19q-47 -7 -66.5 -17t-19.5 -36q0 -14 6 -35l182 -543l145 473q15 58 15 91q0 55 -70 63l-29 6q-22 3 -29 17.5t2.5 28
t28.5 12.5l158 -9l90 6q31 1 35 -23.5t-24 -35.5q-32 -11 -54.5 -42t-44.5 -95l-260 -793q-14 -41 -33 -41z" />
    <glyph glyph-name="w" unicode="w" horiz-adv-x="1335" 
d="M936 -41q-22 0 -31 29l-209 604l-213 -596q-12 -35 -34 -35q-11 0 -20.5 9t-12.5 20l-307 866q-14 43 -27.5 59.5t-34.5 22.5q-24 6 -30.5 22.5t4.5 30.5t32 13l160 -11l182 11q23 1 34 -12t4.5 -27.5t-27.5 -18.5q-50 -11 -65.5 -29.5t-2.5 -60.5l186 -551l135 391
l-55 164q-15 43 -27 57.5t-38 22.5q-25 7 -31 22.5t5 27.5t30 11l172 -8l190 11q17 1 27.5 -6.5t11.5 -18t-6.5 -20t-22.5 -13.5q-67 -11 -83.5 -26t-0.5 -64l173 -524l129 471q8 27 10 46.5t-1 39.5t-19 33t-44 18l-30 6q-19 5 -25 19.5t3 27t28 11.5l131 -9l96 11
q34 3 40 -23t-26 -39q-35 -15 -54 -44t-36 -93l-233 -805q-14 -43 -37 -43z" />
    <glyph glyph-name="x" unicode="x" horiz-adv-x="829" 
d="M459 -6q-32 -1 -35.5 23.5t27.5 35.5q43 13 49.5 29.5t-13.5 56.5l-141 297l-133 -289q-18 -37 -8.5 -55.5t51.5 -28.5l35 -10q18 -5 24 -20t-3 -27.5t-27 -11.5l-127 6l-121 -6q-16 -1 -25 9.5t-3 25.5t28 26q20 10 29.5 16t27.5 26.5t35 54.5l180 358l-198 354
q-18 34 -32.5 50.5t-39.5 29.5q-30 17 -22 38t36 19l172 -8l164 8q23 1 33 -11.5t2.5 -27.5t-27.5 -20q-43 -11 -51.5 -29t12.5 -59l123 -221l129 221q33 55 -37 76l-36 12q-30 10 -23.5 35.5t37.5 23.5l115 -8l104 6q29 2 33 -19t-27 -40q-44 -27 -76 -78l-182 -297
l215 -434q23 -51 64 -72q19 -9 24 -25t-5 -28.5t-30 -11.5l-163 6z" />
    <glyph glyph-name="y" unicode="y" horiz-adv-x="870" 
d="M209 -401q-63 0 -110.5 37t-47.5 90q0 42 31.5 73t71.5 31q42 0 94 -30.5t69 -30.5q23 0 37 41l54 167l-302 879q-16 49 -29 62.5t-44 23.5q-21 7 -24.5 23t8 28t28.5 11l170 -9l191 11q14 1 24 -4.5t13 -14t2 -17t-9 -15.5t-20 -9q-50 -8 -70 -18.5t-20 -36.5
q0 -13 6 -37l182 -561l148 493q16 58 16 91q0 53 -66 65l-34 8q-21 5 -27.5 19t4 26t31.5 11l145 -9l103 9q19 2 28.5 -10.5t4 -27.5t-24.5 -20q-41 -11 -59.5 -41t-43.5 -112l-317 -1028q-28 -87 -79 -127.5t-134 -40.5z" />
    <glyph glyph-name="z" unicode="z" horiz-adv-x="759" 
d="M635 -63q-20 0 -39 32q-16 31 -41 31h-496q-22 0 -28.5 17.5t2.5 37.5l434 883h-111q-66 0 -102 -32.5t-70 -106.5q-12 -24 -28.5 -58.5t-25 -52t-19.5 -36.5t-19.5 -26.5t-17.5 -7.5q-31 0 -25 56l45 358q3 29 29 29q21 0 37 -33q19 -31 43 -31h481q22 0 28.5 -17
t-3.5 -36l-435 -883h129q65 0 103.5 37.5t83.5 134.5q57 131 74 156q18 25 34 25q30 0 23 -54l-59 -395q-3 -28 -27 -28z" />
    <glyph glyph-name="braceleft" unicode="{" horiz-adv-x="616" 
d="M555 -326q-349 24 -352 508q1 145 -33 208.5t-102 68.5q-34 2 -46 7t-12 19q0 18 10.5 23.5t45.5 5.5q134 0 131 281q-3 245 89 378.5t275 145.5q49 7 49 -23q0 -20 -37 -36q-72 -32 -99.5 -109.5t-27.5 -247.5q0 -356 -241 -411q123 -22 182 -115.5t59 -274.5
q0 -178 26.5 -255t98.5 -109q3 -2 8.5 -5t8 -4.5t6.5 -4.5t6 -5t4 -5t3 -6t1 -7q0 -33 -53 -27z" />
    <glyph glyph-name="braceright" unicode="}" horiz-adv-x="616" 
d="M61 1319q350 -24 353 -508q-1 -144 33 -207.5t102 -68.5q33 -2 45 -7t12 -20q0 -18 -10 -23.5t-45 -5.5q-67 0 -99.5 -67.5t-31.5 -212.5q3 -245 -89.5 -379t-275.5 -146q-49 -7 -49 23q0 21 37 37q72 32 99.5 109t27.5 247q0 357 242 412q-123 22 -182.5 115t-59.5 274
q0 178 -26.5 255t-98.5 109q-3 2 -8.5 5t-8 4.5t-6.5 4.5t-6 5t-4 5t-3 6t-1 7q0 33 53 27z" />
    <glyph glyph-name="exclamdown" unicode="&#xa1;" horiz-adv-x="350" 
d="M174 643q33 0 33 -45q5 -249 55 -551q4 -24 16 -81.5t17.5 -92.5t5.5 -61q0 -65 -36.5 -105.5t-94.5 -40.5q-55 0 -90 39.5t-35 101.5q0 27 5 61.5t16 90.5t16 82q54 334 61 557q3 45 31 45zM49 866q0 61 38 105.5t91 44.5q54 0 89.5 -43t35.5 -105q0 -57 -37.5 -98
t-91.5 -41q-52 0 -88.5 40t-36.5 97z" />
    <glyph glyph-name="cent" unicode="&#xa2;" horiz-adv-x="700" 
d="M389 -4q-21 -1 -31.5 13.5t-7.5 41.5l19 160q-154 3 -241 119.5t-87 318.5q0 187 100.5 318t253.5 145l-10 162q-3 57 37 57q43 3 37 -59l-17 -158q75 0 144 -14q73 -20 67 -78l-35 -246q-3 -28 -24 -28q-22 0 -29 28l-51 158q-19 60 -43.5 86.5t-62.5 26.5
q-70 0 -114 -100.5t-44 -260.5q0 -169 48.5 -263.5t129.5 -94.5q58 0 100.5 53.5t81.5 153.5q10 27 32.5 19.5t16.5 -34.5q-80 -275 -241 -305l8 -166q2 -22 -8.5 -37t-28.5 -16z" />
    <glyph glyph-name="sterling" unicode="&#xa3;" horiz-adv-x="839" 
d="M174 -16q-72 0 -121 41.5t-60.5 101t0.5 118.5t63 100.5t126 41.5q54 0 101 -18q-10 42 -28 87.5t-44.5 104t-38.5 88.5h-100q-41 0 -41 37q0 35 41 35h71q-34 100 -34 194q-1 185 116.5 299.5t288.5 114.5q90 0 178 -22q85 -23 82 -93l-8 -268q0 -28 -27 -28
q-19 0 -32 30l-72 170q-30 76 -65 107.5t-85 31.5q-67 0 -109 -60t-42 -161q0 -126 63 -288h363q41 0 41 -37t-41 -37h-332q29 -72 43 -110t28.5 -99t14.5 -113q0 -63 -20 -119q99 -63 178 -63q52 0 88.5 30.5t36.5 67.5t-23.5 61t-79.5 46q-76 33 -76 92q0 37 27 63.5
t66 26.5q69 0 108 -77t39 -210q0 -124 -62 -205t-157 -81q-117 0 -217 120q-48 -56 -112.5 -88t-135.5 -32zM168 317q-69 1 -96.5 -64.5t3 -131.5t99.5 -66q56 0 87 53.5t34 147.5q-61 61 -127 61z" />
    <glyph glyph-name="yen" unicode="&#xa5;" horiz-adv-x="1028" 
d="M139 389q-41 0 -41 37q0 35 41 35h279v114l-279 -2q-41 0 -41 37q0 35 41 35l256 2l-239 490q-28 57 -51 81t-56 37q-22 7 -28.5 22t4 27t30.5 11l209 -10l217 8q20 1 29.5 -11.5t3 -27.5t-26.5 -21l-28 -8q-78 -21 -47 -92l190 -403l182 403q23 41 1.5 65t-103.5 35
q-22 4 -29 19.5t4.5 29t36.5 11.5l162 -10l113 10q36 3 41.5 -23.5t-27.5 -38.5q-39 -14 -60 -37.5t-44 -74.5l-226 -492v-2h256q41 0 41 -35q0 -37 -41 -37h-256v-112h256q41 0 41 -35q0 -37 -41 -37h-256v-244q0 -31 16 -46.5t50 -32.5l33 -13q23 -9 31 -16.5t8 -20.5
q0 -29 -48 -26l-200 10h-15l-200 -10q-47 -3 -47 26q0 13 8 20.5t30 16.5l31 13q35 16 51.5 32t16.5 47v244h-279z" />
    <glyph glyph-name="dieresis" unicode="&#xa8;" horiz-adv-x="667" 
d="M494 1067q-51 0 -86 39t-35 96q0 61 40 103.5t97 42.5q52 0 86.5 -37.5t34.5 -91.5q0 -65 -39.5 -108.5t-97.5 -43.5zM39 1202q0 61 38.5 103.5t94.5 42.5q51 0 86 -37.5t35 -91.5q0 -64 -39 -108t-96 -44q-51 0 -85 39t-34 96z" />
    <glyph glyph-name="copyright" unicode="&#xa9;" horiz-adv-x="1316" 
d="M659 -47q-131 0 -250 53.5t-206.5 144.5t-139 219.5t-51.5 272.5q0 145 51.5 275t139 222t206.5 145.5t250 53.5q130 0 249 -53.5t206.5 -145.5t139 -222t51.5 -275q0 -144 -51.5 -272.5t-139 -219.5t-206.5 -144.5t-249 -53.5zM88 643q0 -175 75 -319.5t206 -227
t288 -82.5t289 82.5t208.5 227t76.5 319.5q0 177 -76.5 323t-208 229t-289.5 83q-157 0 -287.5 -83t-206 -229t-75.5 -323zM274 647q0 213 103.5 335t284.5 122q155 0 247.5 -90.5t114.5 -257.5q4 -26 -8.5 -40t-36.5 -14h-172q-45 0 -51 48q-25 149 -101 149
q-52 0 -83 -71.5t-31 -180.5t28 -182.5t78 -73.5q80 0 103 129q6 47 53 47h166q25 0 38 -14.5t9 -38.5q-22 -154 -115.5 -241t-249.5 -87q-175 0 -276 123t-101 338z" />
    <glyph glyph-name="guillemotleft" unicode="&#xab;" horiz-adv-x="755" 
d="M336 774q12 17 30 17t31 -15q15 -15 -12 -65l-199 -301l191 -336q24 -43 10 -60q-31 -35 -72 15l-266 311q-13 16 -17 22t-9 17t-5 22q0 7 1.5 13.5t3.5 11t6.5 11.5t7 10t8.5 10.5t8 9.5zM358 401q0 7 1.5 13.5t3.5 11t6.5 11.5t7 10t8.5 10.5t8 9.5l283 307
q12 17 30 17t31 -15q15 -15 -12 -65l-199 -301l191 -336q24 -43 10 -60q-31 -35 -72 15l-266 311q-13 16 -17 22t-9 17t-5 22z" />
    <glyph glyph-name="registered" unicode="&#xae;" horiz-adv-x="647" 
d="M328 657q-125 0 -219.5 97.5t-94.5 236.5q0 138 94.5 236t219.5 98t219 -98t94 -236q0 -139 -94 -236.5t-219 -97.5zM88 991q0 -118 69.5 -197t170.5 -79t169 79t68 197q0 120 -67.5 198.5t-169.5 78.5q-101 0 -170.5 -79t-69.5 -198zM203 829v322q0 17 10 27t25 10h81
q66 0 108 -33t42 -88q0 -59 -57 -88q24 -18 34 -68l9 -47q9 -28 6.5 -48.5t-33.5 -20.5h-33q-6 0 -11.5 0.5t-9.5 3t-6.5 4t-5 6t-4 6.5t-3 8.5t-2 9t-2 10.5t-1.5 11l-8 41q-9 41 -23 41h-12v-107q0 -15 -10 -24.5t-27 -9.5h-32q-15 0 -25 9.5t-10 24.5zM307 1020h6
q19 0 31 12t12 29q0 19 -12 32t-31 13h-6v-86z" />
    <glyph glyph-name="macron" unicode="&#xaf;" horiz-adv-x="628" 
d="M57 1278q-43 0 -43 41q0 18 11.5 28.5t31.5 10.5h420q20 0 31.5 -10.5t11.5 -28.5q0 -41 -43 -41h-420z" />
    <glyph glyph-name="acute" unicode="&#xb4;" horiz-adv-x="399" 
d="M47 1053q-6 7 -7.5 15t2 20.5t8 22.5l13.5 30l93 192q26 65 82.5 77.5t97.5 -36.5q31 -33 20.5 -84t-55.5 -80l-172 -131q-62 -46 -82 -26z" />
    <glyph glyph-name="periodcentered" unicode="&#xb7;" horiz-adv-x="368" 
d="M180 532q-58 0 -100.5 44t-42.5 104t45 104.5t106 44.5q59 0 101.5 -43.5t42.5 -103.5t-45.5 -105t-106.5 -45z" />
    <glyph glyph-name="cedilla" unicode="&#xb8;" horiz-adv-x="380" 
d="M178 -416q-76 0 -119 27q-19 13 -19.5 31t14.5 25t36 -1q35 -18 86 -18q38 0 63 24t25 60q0 43 -27.5 71.5t-82.5 34.5q-45 3 -29 45l59 146h66l-57 -138q68 -12 108.5 -52.5t40.5 -94.5q0 -71 -45.5 -115.5t-118.5 -44.5z" />
    <glyph glyph-name="guillemotright" unicode="&#xbb;" horiz-adv-x="833" 
d="M565 39q-12 -17 -30 -17t-31 15q-15 15 12 65l199 301l-191 336q-24 43 -10 60q31 35 72 -15l266 -311q13 -16 17 -22t9 -17t5 -22q0 -7 -1.5 -13.5t-3.5 -11t-6.5 -11.5t-7 -10t-8.5 -10.5t-8 -9.5zM164 37q-15 15 12 65l199 301l-191 336q-24 43 -10 60q31 35 72 -15
l266 -311q13 -16 17 -22t9 -17t5 -22q0 -7 -1.5 -13.5t-3.5 -11t-6.5 -11.5t-7 -10t-8.5 -10.5t-8 -9.5l-283 -307q-12 -17 -30 -17t-31 15z" />
    <glyph glyph-name="questiondown" unicode="&#xbf;" horiz-adv-x="638" 
d="M346 651q32 0 35 -41l12 -161q9 -110 -13 -181t-97 -168q-55 -67 -78 -115t-23 -100q0 -63 29 -107t72 -44q39 0 69.5 33.5t59.5 111.5l69 170q10 33 33 33q27 0 27 -29l14 -268q0 -66 -84 -92q-87 -23 -186 -23q-73 0 -130.5 23.5t-91 62t-50.5 85t-17 96.5
q0 128 178 321q84 92 111 141t30 117l4 94q3 41 27 41zM219 866q0 62 37.5 106t89.5 44q54 0 89.5 -43t35.5 -105q0 -57 -37.5 -98t-91.5 -41q-52 0 -87.5 40t-35.5 97z" />
    <glyph glyph-name="Agrave" unicode="&#xc0;" horiz-adv-x="1038" 
d="M35 -6q-16 -2 -25.5 9t-4.5 27t24 25q43 22 64 49t38 82l252 856q12 48 25 76l92 199q15 29 36 27.5t29 -27.5l357 -1129q20 -62 38 -90t48 -43q21 -11 25 -26t-7 -25.5t-29 -9.5l-182 12l-205 -12q-18 -1 -27 10.5t-2.5 26t27.5 22.5q59 20 72.5 49t-2.5 66l-74 238
h-321l-66 -238q-13 -49 6 -70.5t88 -42.5q30 -10 26 -36t-34 -23l-147 12zM305 483h277l-146 478zM319 1645q18 32 49.5 44.5t63 4.5t53.5 -31l189 -197q24 -26 13.5 -44.5t-40.5 -10.5l-262 78q-48 14 -69.5 63t3.5 93z" />
    <glyph glyph-name="Aacute" unicode="&#xc1;" horiz-adv-x="1038" 
d="M35 -6q-16 -2 -25.5 9t-4.5 27t24 25q43 22 64 49t38 82l252 856q12 48 25 76l92 199q15 29 36 27.5t29 -27.5l357 -1129q20 -62 38 -90t48 -43q21 -11 25 -26t-7 -25.5t-29 -9.5l-182 12l-205 -12q-18 -1 -27 10.5t-2.5 26t27.5 22.5q59 20 72.5 49t-2.5 66l-74 238
h-321l-66 -238q-13 -49 6 -70.5t88 -42.5q30 -10 26 -36t-34 -23l-147 12zM305 483h277l-146 478zM397 1481l135 174q30 40 78 40t78 -44q24 -49 6.5 -91.5t-57.5 -58.5l-197 -86q-39 -17 -54.5 6t11.5 60z" />
    <glyph glyph-name="Acircumflex" unicode="&#xc2;" horiz-adv-x="1038" 
d="M35 -6q-16 -2 -25.5 9t-4.5 27t24 25q43 22 64 49t38 82l252 856q12 48 25 76l92 199q15 29 36 27.5t29 -27.5l357 -1129q20 -62 38 -90t48 -43q21 -11 25 -26t-7 -25.5t-29 -9.5l-182 12l-205 -12q-18 -1 -27 10.5t-2.5 26t27.5 22.5q59 20 72.5 49t-2.5 66l-74 238
h-321l-66 -238q-13 -49 6 -70.5t88 -42.5q30 -10 26 -36t-34 -23l-147 12zM268 1450l178 172q37 35 83.5 35t80.5 -37l170 -178q32 -34 16 -58t-57 -4l-215 111l-219 -102q-40 -22 -55.5 3.5t18.5 57.5zM305 483h277l-146 478z" />
    <glyph glyph-name="Atilde" unicode="&#xc3;" horiz-adv-x="1038" 
d="M35 -6q-16 -2 -25.5 9t-4.5 27t24 25q43 22 64 49t38 82l252 856q12 48 25 76l92 199q15 29 36 27.5t29 -27.5l357 -1129q20 -62 38 -90t48 -43q21 -11 25 -26t-7 -25.5t-29 -9.5l-182 12l-205 -12q-18 -1 -27 10.5t-2.5 26t27.5 22.5q59 20 72.5 49t-2.5 66l-74 238
h-321l-66 -238q-13 -49 6 -70.5t88 -42.5q30 -10 26 -36t-34 -23l-147 12zM209 1475l51 98q31 61 60.5 84.5t76.5 23.5q53 0 122.5 -30.5t130.5 -61t93 -30.5q27 0 46 16.5t45 58.5q20 29 42 15t5 -45l-50 -95q-34 -63 -63.5 -86.5t-75.5 -23.5q-48 0 -113 31.5t-127.5 62.5
t-105.5 31q-26 0 -43.5 -17t-46.5 -63q-11 -18 -27.5 -18t-22.5 14t3 35zM305 483h277l-146 478z" />
    <glyph glyph-name="Adieresis" unicode="&#xc4;" horiz-adv-x="1038" 
d="M35 -6q-16 -2 -25.5 9t-4.5 27t24 25q43 22 64 49t38 82l252 856q12 48 25 76l92 199q15 29 36 27.5t29 -27.5l357 -1129q20 -62 38 -90t48 -43q21 -11 25 -26t-7 -25.5t-29 -9.5l-182 12l-205 -12q-18 -1 -27 10.5t-2.5 26t27.5 22.5q59 20 72.5 49t-2.5 66l-74 238
h-321l-66 -238q-13 -49 6 -70.5t88 -42.5q30 -10 26 -36t-34 -23l-147 12zM250 1528q0 57 37.5 96t91.5 39q46 0 78 -34t32 -81q0 -57 -37.5 -96t-91.5 -39q-46 0 -78 34t-32 81zM305 483h277l-146 478zM559 1524q0 57 37.5 96t91.5 39q46 0 78.5 -34t32.5 -81
q0 -57 -37.5 -96t-91.5 -39q-46 0 -78.5 34t-32.5 81z" />
    <glyph glyph-name="Aring" unicode="&#xc5;" horiz-adv-x="1038" 
d="M35 -6q-16 -2 -25.5 9t-4.5 27t24 25q43 22 64 49t38 82l252 856q12 48 25 76l92 199q15 29 36 27.5t29 -27.5l357 -1129q20 -62 38 -90t48 -43q21 -11 25 -26t-7 -25.5t-29 -9.5l-182 12l-205 -12q-18 -1 -27 10.5t-2.5 26t27.5 22.5q59 20 72.5 49t-2.5 66l-74 238
h-321l-66 -238q-13 -49 6 -70.5t88 -42.5q30 -10 26 -36t-34 -23l-147 12zM305 483h277l-146 478zM330 1610q0 75 56.5 130.5t133.5 55.5q76 0 132.5 -55.5t56.5 -130.5q0 -76 -56 -131.5t-133 -55.5t-133.5 55.5t-56.5 131.5zM416 1610q0 -46 30.5 -78.5t73.5 -32.5
t74 32.5t31 78.5t-31 78t-74 32t-73.5 -32t-30.5 -78z" />
    <glyph glyph-name="AE" unicode="&#xc6;" horiz-adv-x="1413" 
d="M35 -6q-16 -2 -25.5 9t-4.5 27t24 25q37 19 54.5 43t49.5 88l504 1031q-17 13 -37 22l-29 14q-22 10 -30.5 17t-8.5 18q0 32 46 29l186 -10h455q16 0 31 7.5t22 14.5t20 21q22 30 41 30q30 0 27 -51l-23 -387q-3 -39 -30 -39q-14 0 -25.5 25t-32.5 92q-35 127 -68.5 175
t-103.5 48h-182v-495h199q21 0 34.5 9.5t20 21t18.5 40.5q21 55 43 55q32 0 29 -51l-25 -364q-3 -41 -28 -41q-5 0 -8.5 2t-7 8.5t-6 13.5t-6 20.5t-6.5 27t-8.5 36t-10.5 43.5q-16 67 -39 91t-84 24h-115v-621h154q69 0 107.5 39.5t88.5 149.5q6 13 14.5 31.5t13.5 30
t12.5 27t12 24.5t11 20.5t11.5 17.5t10.5 12t11 8.5t10.5 2.5q28 0 22 -53l-61 -408q-3 -28 -27 -28q-25 0 -41 32q-10 17 -18.5 24t-22.5 7h-440l-186 -10q-46 -3 -46 26q0 13 8.5 20t30.5 17l29 13q31 16 45 32t14 47v365h-280l-164 -342q-22 -47 -1 -69.5t97 -43.5
q30 -10 26 -36t-34 -23l-147 12zM410 573h249v523z" />
    <glyph glyph-name="Ccedilla" unicode="&#xc7;" horiz-adv-x="960" 
d="M457 -432q-77 0 -119 26q-19 13 -19.5 31t14.5 25.5t36 -0.5q36 -19 86 -19q38 0 63 24t25 60q0 43 -28 72t-83 35q-45 3 -29 45l48 115q-185 25 -289.5 194.5t-104.5 454.5q0 195 67.5 352t191.5 247.5t282 90.5q101 0 219 -27q56 -10 76 -36t14 -76l-41 -326
q-2 -24 -15.5 -33.5t-29 1t-22.5 34.5l-64 209q-28 96 -68.5 141t-97.5 45q-122 0 -195 -159.5t-73 -415.5q0 -267 75 -411t204 -144q164 0 278 272q14 32 37 25t14 -41q-22 -81 -57.5 -151t-84 -127t-114 -90t-139.5 -34l-43 -102q69 -12 109.5 -52.5t40.5 -94.5
q0 -71 -45.5 -115.5t-118.5 -44.5z" />
    <glyph glyph-name="Egrave" unicode="&#xc8;" horiz-adv-x="919" 
d="M553 63q69 0 108 39.5t89 149.5q7 15 18 40t17 38t15 31.5t15 27.5t13.5 19t14 14t13.5 4q29 0 23 -53l-62 -408q-3 -28 -26 -28q-25 0 -41 32q-10 17 -18.5 24t-22.5 7h-441l-186 -10q-45 -3 -45 26q0 13 8.5 20t30.5 17l28 13q31 16 45.5 32t14.5 47v1014q0 32 -15 49
t-45 31l-28 14q-22 10 -30.5 17t-8.5 18q0 32 45 29l186 -10h455q35 0 74 43q22 30 41 30q29 0 26 -51l-22 -387q-3 -39 -31 -39q-14 0 -25 24.5t-32 92.5q-35 127 -68.5 175t-103.5 48h-183v-495h199q30 0 43.5 15t30.5 56q21 55 43 55q31 0 28 -51l-24 -364
q-3 -41 -29 -41q-5 0 -8.5 2t-7 8.5t-6 13.5t-6 20.5t-6.5 27t-8.5 36t-10.5 43.5q-16 67 -39 91t-84 24h-115v-621h154zM256 1645q18 32 49.5 44.5t63 4.5t53.5 -31l188 -197q24 -26 14 -44.5t-40 -10.5l-262 78q-48 14 -69.5 63t3.5 93z" />
    <glyph glyph-name="Eacute" unicode="&#xc9;" horiz-adv-x="919" 
d="M553 63q69 0 108 39.5t89 149.5q7 15 18 40t17 38t15 31.5t15 27.5t13.5 19t14 14t13.5 4q29 0 23 -53l-62 -408q-3 -28 -26 -28q-25 0 -41 32q-10 17 -18.5 24t-22.5 7h-441l-186 -10q-45 -3 -45 26q0 13 8.5 20t30.5 17l28 13q31 16 45.5 32t14.5 47v1014q0 32 -15 49
t-45 31l-28 14q-22 10 -30.5 17t-8.5 18q0 32 45 29l186 -10h455q35 0 74 43q22 30 41 30q29 0 26 -51l-22 -387q-3 -39 -31 -39q-14 0 -25 24.5t-32 92.5q-35 127 -68.5 175t-103.5 48h-183v-495h199q30 0 43.5 15t30.5 56q21 55 43 55q31 0 28 -51l-24 -364
q-3 -41 -29 -41q-5 0 -8.5 2t-7 8.5t-6 13.5t-6 20.5t-6.5 27t-8.5 36t-10.5 43.5q-16 67 -39 91t-84 24h-115v-621h154zM336 1481l135 174q30 40 78 40t78 -44q24 -49 6 -91.5t-58 -58.5l-196 -86q-39 -17 -54.5 6t11.5 60z" />
    <glyph glyph-name="Ecircumflex" unicode="&#xca;" horiz-adv-x="919" 
d="M553 63q69 0 108 39.5t89 149.5q7 15 18 40t17 38t15 31.5t15 27.5t13.5 19t14 14t13.5 4q29 0 23 -53l-62 -408q-3 -28 -26 -28q-25 0 -41 32q-10 17 -18.5 24t-22.5 7h-441l-186 -10q-45 -3 -45 26q0 13 8.5 20t30.5 17l28 13q31 16 45.5 32t14.5 47v1014q0 32 -15 49
t-45 31l-28 14q-22 10 -30.5 17t-8.5 18q0 32 45 29l186 -10h455q35 0 74 43q22 30 41 30q29 0 26 -51l-22 -387q-3 -39 -31 -39q-14 0 -25 24.5t-32 92.5q-35 127 -68.5 175t-103.5 48h-183v-495h199q30 0 43.5 15t30.5 56q21 55 43 55q31 0 28 -51l-24 -364
q-3 -41 -29 -41q-5 0 -8.5 2t-7 8.5t-6 13.5t-6 20.5t-6.5 27t-8.5 36t-10.5 43.5q-16 67 -39 91t-84 24h-115v-621h154zM207 1450l178 172q37 35 83.5 35t80.5 -37l170 -178q32 -34 16 -58t-57 -4l-215 111l-219 -102q-40 -22 -55.5 3.5t18.5 57.5z" />
    <glyph glyph-name="Edieresis" unicode="&#xcb;" horiz-adv-x="919" 
d="M553 63q69 0 108 39.5t89 149.5q7 15 18 40t17 38t15 31.5t15 27.5t13.5 19t14 14t13.5 4q29 0 23 -53l-62 -408q-3 -28 -26 -28q-25 0 -41 32q-10 17 -18.5 24t-22.5 7h-441l-186 -10q-45 -3 -45 26q0 13 8.5 20t30.5 17l28 13q31 16 45.5 32t14.5 47v1014q0 32 -15 49
t-45 31l-28 14q-22 10 -30.5 17t-8.5 18q0 32 45 29l186 -10h455q35 0 74 43q22 30 41 30q29 0 26 -51l-22 -387q-3 -39 -31 -39q-14 0 -25 24.5t-32 92.5q-35 127 -68.5 175t-103.5 48h-183v-495h199q30 0 43.5 15t30.5 56q21 55 43 55q31 0 28 -51l-24 -364
q-3 -41 -29 -41q-5 0 -8.5 2t-7 8.5t-6 13.5t-6 20.5t-6.5 27t-8.5 36t-10.5 43.5q-16 67 -39 91t-84 24h-115v-621h154zM188 1528q0 57 37.5 96t91.5 39q46 0 78.5 -34t32.5 -81q0 -57 -37.5 -96t-91.5 -39q-46 0 -78.5 34t-32.5 81zM498 1524q0 57 37.5 96t91.5 39
q46 0 78 -34t32 -81q0 -57 -37.5 -96t-91.5 -39q-46 0 -78 34t-32 81z" />
    <glyph glyph-name="Igrave" unicode="&#xcc;" horiz-adv-x="567" 
d="M268 0l-186 -10q-45 -3 -45 26q0 13 8.5 20t30.5 17l28 13q31 16 45.5 32t14.5 47v1014q0 32 -15 49t-45 31l-28 14q-22 10 -30.5 17t-8.5 18q0 32 45 29l186 -10h31l186 10q43 3 43 -29q0 -12 -7.5 -19t-28.5 -16l-29 -14q-31 -14 -46.5 -31t-15.5 -49v-1014
q0 -31 15 -47t47 -32l29 -13q21 -9 28.5 -16.5t7.5 -20.5q0 -29 -43 -26l-186 10h-31zM80 1645q18 32 49.5 44.5t63 4.5t53.5 -31l188 -197q24 -26 14 -44.5t-40 -10.5l-263 78q-48 14 -69 63t4 93z" />
    <glyph glyph-name="Iacute" unicode="&#xcd;" horiz-adv-x="567" 
d="M268 0l-186 -10q-45 -3 -45 26q0 13 8.5 20t30.5 17l28 13q31 16 45.5 32t14.5 47v1014q0 32 -15 49t-45 31l-28 14q-22 10 -30.5 17t-8.5 18q0 32 45 29l186 -10h31l186 10q43 3 43 -29q0 -12 -7.5 -19t-28.5 -16l-29 -14q-31 -14 -46.5 -31t-15.5 -49v-1014
q0 -31 15 -47t47 -32l29 -13q21 -9 28.5 -16.5t7.5 -20.5q0 -29 -43 -26l-186 10h-31zM160 1481l135 174q30 40 78 40t78 -44q24 -49 6 -91.5t-58 -58.5l-196 -86q-39 -17 -54.5 6t11.5 60z" />
    <glyph glyph-name="Icircumflex" unicode="&#xce;" horiz-adv-x="567" 
d="M268 0l-186 -10q-45 -3 -45 26q0 13 8.5 20t30.5 17l28 13q31 16 45.5 32t14.5 47v1014q0 32 -15 49t-45 31l-28 14q-22 10 -30.5 17t-8.5 18q0 32 45 29l186 -10h31l186 10q43 3 43 -29q0 -12 -7.5 -19t-28.5 -16l-29 -14q-31 -14 -46.5 -31t-15.5 -49v-1014
q0 -31 15 -47t47 -32l29 -13q21 -9 28.5 -16.5t7.5 -20.5q0 -29 -43 -26l-186 10h-31zM31 1450l178 172q37 35 83.5 35t80.5 -37l170 -178q32 -34 16 -58t-57 -4l-215 111l-219 -102q-40 -22 -55.5 3.5t18.5 57.5z" />
    <glyph glyph-name="Idieresis" unicode="&#xcf;" horiz-adv-x="567" 
d="M268 0l-186 -10q-45 -3 -45 26q0 13 8.5 20t30.5 17l28 13q31 16 45.5 32t14.5 47v1014q0 32 -15 49t-45 31l-28 14q-22 10 -30.5 17t-8.5 18q0 32 45 29l186 -10h31l186 10q43 3 43 -29q0 -12 -7.5 -19t-28.5 -16l-29 -14q-31 -14 -46.5 -31t-15.5 -49v-1014
q0 -31 15 -47t47 -32l29 -13q21 -9 28.5 -16.5t7.5 -20.5q0 -29 -43 -26l-186 10h-31zM12 1528q0 57 37.5 96t91.5 39q46 0 78.5 -34t32.5 -81q0 -57 -37.5 -96t-91.5 -39q-46 0 -78.5 34t-32.5 81zM322 1524q0 57 37.5 96t91.5 39q46 0 78 -34t32 -81q0 -57 -37.5 -96
t-91.5 -39q-46 0 -78 34t-32 81z" />
    <glyph glyph-name="Eth" unicode="&#xd0;" horiz-adv-x="1110" 
d="M504 66q158 1 232.5 132.5t74.5 403.5q0 293 -89 467t-241 174h-71v-551h196q43 0 43 -39v-2q0 -39 -43 -39h-196v-549zM-33 651v2q0 39 43 39h162v467q0 32 -14.5 49t-44.5 31l-29 14q-22 10 -30.5 17t-8.5 18q0 32 45 29l186 -10h244q258 0 396.5 -177.5t138.5 -490.5
q0 -291 -152 -465t-411 -174h-209l-199 -10q-45 -3 -45 26q0 13 8 20.5t31 16.5l31 13q33 16 48 32t15 47v467h-162q-43 0 -43 39z" />
    <glyph glyph-name="Ntilde" unicode="&#xd1;" horiz-adv-x="1042" 
d="M854 -33q-31 0 -51 39l-549 979l2 -823v-17q0 -31 14.5 -47t46.5 -32l29 -13q21 -9 29 -16t8 -19q0 -31 -43 -28l-127 6l-129 -6q-45 -3 -45 26q0 13 8 20t29 17l30 13q31 16 45.5 32t14.5 47v1014q0 32 -15 49t-45 31l-30 14q-21 9 -29 16t-8 19q0 32 45 29l186 -10h23
q30 -1 48 -15.5t36 -46.5l428 -774l-2 672v16q0 32 -15.5 49t-46.5 31l-28 14q-21 9 -29 16t-8 19q0 32 43 29l129 -6l127 6q45 3 45 -29q0 -11 -8.5 -18t-30.5 -17l-29 -14q-30 -14 -44.5 -31t-14.5 -49v-1149q0 -19 -11.5 -31t-27.5 -12zM209 1475l51 98q31 61 60.5 84.5
t76.5 23.5q53 0 122.5 -30.5t130.5 -61t93 -30.5q27 0 46 16.5t45 58.5q20 29 42 15t5 -45l-50 -95q-34 -63 -63.5 -86.5t-75.5 -23.5q-48 0 -113 31.5t-127.5 62.5t-105.5 31q-26 0 -43.5 -17t-46.5 -63q-11 -18 -27.5 -18t-22.5 14t3 35z" />
    <glyph glyph-name="Ograve" unicode="&#xd2;" horiz-adv-x="1085" 
d="M530 -27q-143 0 -251.5 84.5t-167 237t-58.5 350.5q0 143 42 272t111 220t161 144.5t190 53.5q214 0 343.5 -188t129.5 -492q0 -141 -41 -268.5t-109.5 -217.5t-160 -143t-189.5 -53zM301 672q0 -174 35.5 -318.5t93.5 -225.5t125 -81q103 0 165 154.5t62 427.5
q0 132 -20 250.5t-54 201.5t-80 132t-96 49q-104 0 -167.5 -157t-63.5 -433zM340 1645q18 32 49.5 44.5t63 4.5t53.5 -31l188 -197q24 -26 14 -44.5t-40 -10.5l-262 78q-48 14 -69.5 63t3.5 93z" />
    <glyph glyph-name="Oacute" unicode="&#xd3;" horiz-adv-x="1085" 
d="M530 -27q-143 0 -251.5 84.5t-167 237t-58.5 350.5q0 143 42 272t111 220t161 144.5t190 53.5q214 0 343.5 -188t129.5 -492q0 -141 -41 -268.5t-109.5 -217.5t-160 -143t-189.5 -53zM301 672q0 -174 35.5 -318.5t93.5 -225.5t125 -81q103 0 165 154.5t62 427.5
q0 132 -20 250.5t-54 201.5t-80 132t-96 49q-104 0 -167.5 -157t-63.5 -433zM420 1481l135 174q30 40 78 40t78 -44q24 -49 6 -91.5t-58 -58.5l-196 -86q-39 -17 -54.5 6t11.5 60z" />
    <glyph glyph-name="Ocircumflex" unicode="&#xd4;" horiz-adv-x="1085" 
d="M530 -27q-143 0 -251.5 84.5t-167 237t-58.5 350.5q0 143 42 272t111 220t161 144.5t190 53.5q214 0 343.5 -188t129.5 -492q0 -141 -41 -268.5t-109.5 -217.5t-160 -143t-189.5 -53zM291 1450l178 172q37 35 83.5 35t80.5 -37l170 -178q32 -34 16 -58t-57 -4l-215 111
l-219 -102q-40 -22 -55.5 3.5t18.5 57.5zM301 672q0 -174 35.5 -318.5t93.5 -225.5t125 -81q103 0 165 154.5t62 427.5q0 132 -20 250.5t-54 201.5t-80 132t-96 49q-104 0 -167.5 -157t-63.5 -433z" />
    <glyph glyph-name="Otilde" unicode="&#xd5;" horiz-adv-x="1085" 
d="M530 -27q-143 0 -251.5 84.5t-167 237t-58.5 350.5q0 143 42 272t111 220t161 144.5t190 53.5q214 0 343.5 -188t129.5 -492q0 -141 -41 -268.5t-109.5 -217.5t-160 -143t-189.5 -53zM229 1475l52 98q31 61 60.5 84.5t76.5 23.5q53 0 122.5 -30.5t130.5 -61t93 -30.5
q27 0 45.5 16.5t44.5 58.5q20 29 42 15t5 -45l-49 -95q-34 -63 -63.5 -86.5t-75.5 -23.5q-48 0 -113 31.5t-127.5 62.5t-105.5 31q-26 0 -44 -17t-47 -63q-11 -18 -27.5 -18t-22.5 14t3 35zM301 672q0 -174 35.5 -318.5t93.5 -225.5t125 -81q103 0 165 154.5t62 427.5
q0 132 -20 250.5t-54 201.5t-80 132t-96 49q-104 0 -167.5 -157t-63.5 -433z" />
    <glyph glyph-name="Odieresis" unicode="&#xd6;" horiz-adv-x="1085" 
d="M530 -27q-143 0 -251.5 84.5t-167 237t-58.5 350.5q0 143 42 272t111 220t161 144.5t190 53.5q214 0 343.5 -188t129.5 -492q0 -141 -41 -268.5t-109.5 -217.5t-160 -143t-189.5 -53zM272 1528q0 57 37.5 96t91.5 39q46 0 78.5 -34t32.5 -81q0 -57 -37.5 -96t-91.5 -39
q-46 0 -78.5 34t-32.5 81zM301 672q0 -174 35.5 -318.5t93.5 -225.5t125 -81q103 0 165 154.5t62 427.5q0 132 -20 250.5t-54 201.5t-80 132t-96 49q-104 0 -167.5 -157t-63.5 -433zM582 1524q0 57 37.5 96t91.5 39q46 0 78 -34t32 -81q0 -57 -37.5 -96t-91.5 -39
q-46 0 -78 34t-32 81z" />
    <glyph glyph-name="Oslash" unicode="&#xd8;" horiz-adv-x="1085" 
d="M530 -27q-109 0 -198 50l-51 -138q-6 -16 -16 -24.5t-20 -7.5t-18.5 6.5t-10.5 19t3 29.5l57 151q-105 86 -164 238t-59 348q0 143 42 272t111 220t161 144.5t190 53.5q100 0 182 -43l37 99q9 27 28.5 33.5t31 -9.5t2.5 -43l-43 -115q111 -82 173 -239.5t62 -362.5
q0 -141 -41 -268.5t-109.5 -217.5t-160 -143t-189.5 -53zM301 672q0 -224 57 -393l324 860q-68 123 -150 123q-104 0 -167.5 -157t-63.5 -433zM395 188q33 -67 74.5 -104t85.5 -37q103 0 165 154.5t62 427.5q0 245 -63 424z" />
    <glyph glyph-name="Ugrave" unicode="&#xd9;" horiz-adv-x="1064" 
d="M561 -27q-193 0 -303.5 103.5t-110.5 271.5v811q0 32 -15 49t-46 31l-27 14q-21 9 -28.5 16t-7.5 19q0 32 43 29l182 -10h31l190 10q45 3 45 -29q0 -11 -8.5 -18t-30.5 -17l-29 -14q-32 -14 -47.5 -31t-15.5 -49v-807q0 -120 53.5 -185t163.5 -65q107 0 168 65.5
t61 182.5l-2 793v16q0 32 -15 49t-46 31l-31 14q-22 10 -30.5 17t-8.5 18q0 32 45 29l133 -6l127 6q43 3 43 -29q0 -12 -7.5 -19t-28.5 -16l-29 -14q-30 -14 -44.5 -31t-14.5 -49v-819q0 -156 -104 -261.5t-255 -105.5zM330 1645q18 32 49.5 44.5t63 4.5t53.5 -31l188 -197
q24 -26 13.5 -44.5t-40.5 -10.5l-262 78q-48 14 -69 63t4 93z" />
    <glyph glyph-name="Uacute" unicode="&#xda;" horiz-adv-x="1064" 
d="M561 -27q-193 0 -303.5 103.5t-110.5 271.5v811q0 32 -15 49t-46 31l-27 14q-21 9 -28.5 16t-7.5 19q0 32 43 29l182 -10h31l190 10q45 3 45 -29q0 -11 -8.5 -18t-30.5 -17l-29 -14q-32 -14 -47.5 -31t-15.5 -49v-807q0 -120 53.5 -185t163.5 -65q107 0 168 65.5
t61 182.5l-2 793v16q0 32 -15 49t-46 31l-31 14q-22 10 -30.5 17t-8.5 18q0 32 45 29l133 -6l127 6q43 3 43 -29q0 -12 -7.5 -19t-28.5 -16l-29 -14q-30 -14 -44.5 -31t-14.5 -49v-819q0 -156 -104 -261.5t-255 -105.5zM410 1481l135 174q30 40 77.5 40t77.5 -44
q24 -49 6.5 -91.5t-57.5 -58.5l-196 -86q-39 -17 -54.5 6t11.5 60z" />
    <glyph glyph-name="Ucircumflex" unicode="&#xdb;" horiz-adv-x="1064" 
d="M561 -27q-193 0 -303.5 103.5t-110.5 271.5v811q0 32 -15 49t-46 31l-27 14q-21 9 -28.5 16t-7.5 19q0 32 43 29l182 -10h31l190 10q45 3 45 -29q0 -11 -8.5 -18t-30.5 -17l-29 -14q-32 -14 -47.5 -31t-15.5 -49v-807q0 -120 53.5 -185t163.5 -65q107 0 168 65.5
t61 182.5l-2 793v16q0 32 -15 49t-46 31l-31 14q-22 10 -30.5 17t-8.5 18q0 32 45 29l133 -6l127 6q43 3 43 -29q0 -12 -7.5 -19t-28.5 -16l-29 -14q-30 -14 -44.5 -31t-14.5 -49v-819q0 -156 -104 -261.5t-255 -105.5zM281 1450l178 172q37 35 83.5 35t80.5 -37l170 -178
q32 -34 16 -58t-57 -4l-215 111l-220 -102q-40 -22 -55 3.5t19 57.5z" />
    <glyph glyph-name="Udieresis" unicode="&#xdc;" horiz-adv-x="1064" 
d="M561 -27q-193 0 -303.5 103.5t-110.5 271.5v811q0 32 -15 49t-46 31l-27 14q-21 9 -28.5 16t-7.5 19q0 32 43 29l182 -10h31l190 10q45 3 45 -29q0 -11 -8.5 -18t-30.5 -17l-29 -14q-32 -14 -47.5 -31t-15.5 -49v-807q0 -120 53.5 -185t163.5 -65q107 0 168 65.5
t61 182.5l-2 793v16q0 32 -15 49t-46 31l-31 14q-22 10 -30.5 17t-8.5 18q0 32 45 29l133 -6l127 6q43 3 43 -29q0 -12 -7.5 -19t-28.5 -16l-29 -14q-30 -14 -44.5 -31t-14.5 -49v-819q0 -156 -104 -261.5t-255 -105.5zM262 1528q0 57 37.5 96t91.5 39q46 0 78.5 -34
t32.5 -81q0 -57 -37.5 -96t-91.5 -39q-46 0 -78.5 34t-32.5 81zM571 1524q0 57 37.5 96t91.5 39q46 0 78.5 -34t32.5 -81q0 -57 -37.5 -96t-91.5 -39q-46 0 -78.5 34t-32.5 81z" />
    <glyph glyph-name="Yacute" unicode="&#xdd;" horiz-adv-x="1028" 
d="M156 1137q-28 57 -51 81t-56 37q-22 7 -28.5 22t4 27t30.5 11l209 -10l217 8q20 1 29.5 -11.5t3 -27.5t-26.5 -21l-28 -8q-78 -21 -47 -92l190 -403l182 403q23 41 1.5 65t-103.5 35q-22 4 -29 19.5t4.5 29t36.5 11.5l162 -10l113 10q36 3 41.5 -23.5t-27.5 -38.5
q-39 -14 -60 -37.5t-44 -74.5l-226 -492v-502q0 -31 16 -46.5t50 -32.5l33 -13q23 -9 31 -16.5t8 -20.5q0 -29 -48 -26l-200 10h-15l-200 -10q-47 -3 -47 26q0 13 8 20.5t30 16.5l31 13q35 16 51.5 32t16.5 47v455zM391 1481l135 174q30 40 78 40t78 -44q24 -49 6.5 -91.5
t-57.5 -58.5l-197 -86q-39 -17 -54.5 6t11.5 60z" />
    <glyph glyph-name="Thorn" unicode="&#xde;" horiz-adv-x="897" 
d="M268 0l-186 -10q-45 -3 -45 26q0 13 8.5 20t30.5 17l28 13q31 16 45.5 32t14.5 47v1014q0 32 -15 49t-45 31l-28 14q-22 10 -30.5 17t-8.5 18q0 32 45 29l186 -10h31l186 10q43 3 43 -29q0 -12 -7.5 -19t-28.5 -16l-29 -14q-31 -14 -46.5 -31t-15.5 -49v-78h107
q180 0 284.5 -105.5t104.5 -285.5q0 -170 -136 -281.5t-339 -111.5h-21v-152q0 -31 15 -47t47 -32l29 -13q21 -9 28.5 -16.5t7.5 -20.5q0 -29 -43 -26l-186 10h-31zM401 373h27q225 0 225 293q0 148 -54.5 249t-133.5 101h-8q-27 0 -41.5 -19t-14.5 -49v-575z" />
    <glyph glyph-name="germandbls" unicode="&#xdf;" horiz-adv-x="1009" 
d="M659 -35q-50 0 -133 17q-71 17 -71 75l4 258q0 33 28 33q25 0 35 -35l51 -143q49 -135 129 -135q50 0 84.5 42t34.5 107q0 108 -108 193l-121 100q-141 118 -141 244q0 60 20 108.5t49 80.5t58 63t49 72.5t20 91.5q0 85 -54.5 149t-131.5 64q-66 0 -99 -53t-30 -150
l6 -193v-804q0 -62 45 -87l16 -8q31 -16 31 -37q0 -29 -37 -26l-137 8h-37l-160 -8q-43 -3 -43 26q0 20 35 37l21 8q51 23 51 87l2 8l2 903q0 156 106.5 257t258.5 101q93 0 177 -40t134.5 -106t50.5 -138q0 -45 -24.5 -83.5t-60 -66t-71 -53.5t-60 -58.5t-24.5 -68.5
q0 -35 25.5 -66.5t73.5 -70.5l108 -80q162 -123 162 -305q0 -147 -95 -232.5t-229 -85.5z" />
    <glyph glyph-name="agrave" unicode="&#xe0;" horiz-adv-x="833" 
d="M612 -29q-62 0 -100.5 35.5t-38.5 95.5v11q-102 -136 -246 -136q-95 0 -148.5 57t-53.5 148q0 105 105 200.5t345 209.5v258q0 94 -86 94q-50 0 -82.5 -52.5t-56.5 -164.5q-36 -143 -135 -143q-42 0 -66 25t-24 65q0 98 151 227q152 131 293 131q219 0 219 -237v-672
q0 -35 23 -35t73 72q17 26 35 15t6 -36q-34 -77 -91 -122.5t-122 -45.5zM240 1466q41 41 92.5 30t83.5 -60l153 -238q18 -29 2 -45t-49 2l-252 135q-46 24 -57 79t27 97zM250 217q0 -63 21 -96t59 -33q51 0 97 50.5t46 121.5l2 266q-119 -75 -172 -148t-53 -161z" />
    <glyph glyph-name="aacute" unicode="&#xe1;" horiz-adv-x="833" 
d="M612 -29q-62 0 -100.5 35.5t-38.5 95.5v11q-102 -136 -246 -136q-95 0 -148.5 57t-53.5 148q0 105 105 200.5t345 209.5v258q0 94 -86 94q-50 0 -82.5 -52.5t-56.5 -164.5q-36 -143 -135 -143q-42 0 -66 25t-24 65q0 98 151 227q152 131 293 131q219 0 219 -237v-672
q0 -35 23 -35t73 72q17 26 35 15t6 -36q-34 -77 -91 -122.5t-122 -45.5zM250 217q0 -63 21 -96t59 -33q51 0 97 50.5t46 121.5l2 266q-119 -75 -172 -148t-53 -161zM305 1135q-6 7 -7.5 14.5t2.5 21t8 22.5t14 30l92 192q26 65 82.5 77.5t97.5 -36.5q31 -33 20.5 -84
t-55.5 -80l-172 -131q-62 -46 -82 -26z" />
    <glyph glyph-name="acircumflex" unicode="&#xe2;" horiz-adv-x="833" 
d="M612 -29q-62 0 -100.5 35.5t-38.5 95.5v11q-102 -136 -246 -136q-95 0 -148.5 57t-53.5 148q0 105 105 200.5t345 209.5v258q0 94 -86 94q-50 0 -82.5 -52.5t-56.5 -164.5q-36 -143 -135 -143q-42 0 -66 25t-24 65q0 98 151 227q152 131 293 131q219 0 219 -237v-672
q0 -35 23 -35t73 72q17 26 35 15t6 -36q-34 -77 -91 -122.5t-122 -45.5zM147 1237l181 188q35 37 83 36t81 -40l170 -192q31 -35 14 -61.5t-58 -4.5l-212 121l-222 -113q-26 -12 -42.5 -6t-16 28t21.5 44zM250 217q0 -63 21 -96t59 -33q51 0 97 50.5t46 121.5l2 266
q-119 -75 -172 -148t-53 -161z" />
    <glyph glyph-name="atilde" unicode="&#xe3;" horiz-adv-x="833" 
d="M612 -29q-62 0 -100.5 35.5t-38.5 95.5v11q-102 -136 -246 -136q-95 0 -148.5 57t-53.5 148q0 105 105 200.5t345 209.5v258q0 94 -86 94q-50 0 -82.5 -52.5t-56.5 -164.5q-36 -143 -135 -143q-42 0 -66 25t-24 65q0 98 151 227q152 131 293 131q219 0 219 -237v-672
q0 -35 23 -35t73 72q17 26 35 15t6 -36q-34 -77 -91 -122.5t-122 -45.5zM74 1247l51 105q31 61 60.5 84.5t76.5 23.5q42 0 95.5 -20.5t94.5 -45t85.5 -45t70.5 -20.5t44.5 17t45.5 61q13 19 29.5 19t21.5 -14.5t-4 -35.5l-49 -96q-32 -63 -61.5 -87t-75.5 -24
q-49 0 -114.5 32.5t-128 64.5t-105.5 32q-26 0 -44 -16.5t-46 -62.5q-11 -19 -27.5 -20t-22.5 13.5t3 34.5zM250 217q0 -63 21 -96t59 -33q51 0 97 50.5t46 121.5l2 266q-119 -75 -172 -148t-53 -161z" />
    <glyph glyph-name="adieresis" unicode="&#xe4;" horiz-adv-x="833" 
d="M612 -29q-62 0 -100.5 35.5t-38.5 95.5v11q-102 -136 -246 -136q-95 0 -148.5 57t-53.5 148q0 105 105 200.5t345 209.5v258q0 94 -86 94q-50 0 -82.5 -52.5t-56.5 -164.5q-36 -143 -135 -143q-42 0 -66 25t-24 65q0 98 151 227q152 131 293 131q219 0 219 -237v-672
q0 -35 23 -35t73 72q17 26 35 15t6 -36q-34 -77 -91 -122.5t-122 -45.5zM109 1309q0 61 38.5 103t94.5 42q51 0 85.5 -37.5t34.5 -91.5q0 -64 -39 -107.5t-96 -43.5q-51 0 -84.5 39t-33.5 96zM250 217q0 -63 21 -96t59 -33q51 0 97 50.5t46 121.5l2 266q-119 -75 -172 -148
t-53 -161zM442 1309q0 61 40.5 103t97.5 42q52 0 86 -37t34 -92q0 -64 -39 -107.5t-98 -43.5q-51 0 -86 39t-35 96z" />
    <glyph glyph-name="aring" unicode="&#xe5;" horiz-adv-x="833" 
d="M612 -29q-62 0 -100.5 35.5t-38.5 95.5v11q-102 -136 -246 -136q-95 0 -148.5 57t-53.5 148q0 105 105 200.5t345 209.5v258q0 94 -86 94q-50 0 -82.5 -52.5t-56.5 -164.5q-36 -143 -135 -143q-42 0 -66 25t-24 65q0 98 151 227q152 131 293 131q219 0 219 -237v-672
q0 -35 23 -35t73 72q17 26 35 15t6 -36q-34 -77 -91 -122.5t-122 -45.5zM229 1343q0 72 50 124.5t122 52.5q70 0 120 -53.5t50 -127.5q0 -72 -49.5 -125t-118.5 -53q-72 0 -123 54t-51 128zM250 217q0 -63 21 -96t59 -33q51 0 97 50.5t46 121.5l2 266q-119 -75 -172 -148
t-53 -161zM289 1343q0 -52 34 -89t80 -37q45 0 78 36t33 86q0 52 -33.5 88.5t-79.5 36.5t-79 -35t-33 -86z" />
    <glyph glyph-name="ae" unicode="&#xe6;" horiz-adv-x="1271" 
d="M475 850q0 94 -86 94q-50 0 -82.5 -52.5t-56.5 -164.5q-36 -143 -135 -143q-42 0 -66 25t-24 65q0 98 151 227q152 131 289 131q139 0 188 -104q110 102 246 102q143 0 238 -115t96 -294q0 -60 -24.5 -87.5t-78.5 -27.5h-432v-10q0 -189 66.5 -298.5t173.5 -109.5
q136 0 233 244q12 29 34 21.5t14 -36.5q-43 -165 -133.5 -256.5t-219.5 -91.5q-109 0 -194 56.5t-137 160.5q-54 -105 -125.5 -157t-169.5 -52q-103 0 -159 56.5t-56 148.5q0 105 105 200.5t345 209.5v258zM250 217q0 -63 21 -96t59 -33q51 0 97 50.5t46 121.5v266
q-118 -75 -170.5 -148t-52.5 -161zM700 575h197q68 0 99.5 33t31.5 109q-1 119 -36.5 183.5t-94.5 62.5q-80 -2 -133.5 -106t-63.5 -282z" />
    <glyph glyph-name="ccedilla" unicode="&#xe7;" horiz-adv-x="802" 
d="M412 -416q-76 0 -119 27q-19 13 -19.5 31t14.5 25t36 -1q34 -18 86 -18q38 0 63 24t25 60q0 43 -28 71.5t-83 34.5q-45 3 -29 45l37 90q-163 14 -255.5 148t-92.5 362q0 150 58.5 274.5t160.5 195.5t226 71q102 0 180 -18q87 -21 78 -91l-37 -284q-6 -35 -29 -35
q-25 0 -33 33l-59 194q-39 133 -123 133q-86 0 -138 -120t-52 -310q0 -202 58 -314t155 -112q69 0 120.5 64.5t98.5 185.5q11 29 33.5 22t15.5 -38q-100 -340 -301 -361l-33 -82q68 -12 108.5 -52.5t40.5 -94.5q0 -71 -45 -115.5t-118 -44.5z" />
    <glyph glyph-name="egrave" unicode="&#xe8;" horiz-adv-x="843" 
d="M438 -31q-175 0 -283 139.5t-108 368.5q0 149 56 276t153.5 202t214.5 75q143 0 238 -115t96 -294q0 -60 -24.5 -87.5t-78.5 -27.5h-432v-10q0 -189 66.5 -298.5t173.5 -109.5q136 0 233 244q12 29 34 21.5t14 -36.5q-43 -165 -133.5 -256.5t-219.5 -91.5zM272 575h197
q68 0 99.5 33t31.5 109q-1 119 -36.5 183.5t-94.5 62.5q-80 -2 -133.5 -106t-63.5 -282zM309 1466q41 41 92.5 30t83.5 -60l154 -238q18 -29 2 -45t-49 2l-252 135q-46 24 -57.5 79t26.5 97z" />
    <glyph glyph-name="eacute" unicode="&#xe9;" horiz-adv-x="843" 
d="M438 -31q-175 0 -283 139.5t-108 368.5q0 149 56 276t153.5 202t214.5 75q143 0 238 -115t96 -294q0 -60 -24.5 -87.5t-78.5 -27.5h-432v-10q0 -189 66.5 -298.5t173.5 -109.5q136 0 233 244q12 29 34 21.5t14 -36.5q-43 -165 -133.5 -256.5t-219.5 -91.5zM272 575h197
q68 0 99.5 33t31.5 109q-1 119 -36.5 183.5t-94.5 62.5q-80 -2 -133.5 -106t-63.5 -282zM375 1135q-6 7 -7.5 15t2 20.5t8 22.5l13.5 30l92 192q26 65 83 77.5t98 -36.5q31 -33 20.5 -84t-55.5 -80l-172 -131q-62 -46 -82 -26z" />
    <glyph glyph-name="ecircumflex" unicode="&#xea;" horiz-adv-x="843" 
d="M438 -31q-175 0 -283 139.5t-108 368.5q0 149 56 276t153.5 202t214.5 75q143 0 238 -115t96 -294q0 -60 -24.5 -87.5t-78.5 -27.5h-432v-10q0 -189 66.5 -298.5t173.5 -109.5q136 0 233 244q12 29 34 21.5t14 -36.5q-43 -165 -133.5 -256.5t-219.5 -91.5zM217 1237
l180 188q35 37 83 36t81 -40l170 -192q31 -35 14.5 -61.5t-57.5 -4.5l-213 121l-221 -113q-26 -12 -42.5 -6t-16 28t21.5 44zM272 575h197q68 0 99.5 33t31.5 109q-1 119 -36.5 183.5t-94.5 62.5q-80 -2 -133.5 -106t-63.5 -282z" />
    <glyph glyph-name="edieresis" unicode="&#xeb;" horiz-adv-x="843" 
d="M438 -31q-175 0 -283 139.5t-108 368.5q0 149 56 276t153.5 202t214.5 75q143 0 238 -115t96 -294q0 -60 -24.5 -87.5t-78.5 -27.5h-432v-10q0 -189 66.5 -298.5t173.5 -109.5q136 0 233 244q12 29 34 21.5t14 -36.5q-43 -165 -133.5 -256.5t-219.5 -91.5zM178 1309
q0 61 38.5 103t94.5 42q51 0 86 -37.5t35 -91.5q0 -64 -39 -107.5t-96 -43.5q-51 0 -85 39t-34 96zM272 575h197q68 0 99.5 33t31.5 109q-1 119 -36.5 183.5t-94.5 62.5q-80 -2 -133.5 -106t-63.5 -282zM512 1309q0 61 40 103t97 42q52 0 86.5 -37.5t34.5 -91.5
q0 -64 -39 -107.5t-98 -43.5q-51 0 -86 39t-35 96z" />
    <glyph glyph-name="igrave" unicode="&#xec;" horiz-adv-x="481" 
d="M229 0l-159 -8q-43 -3 -43 26q0 21 34 37l21 8q51 23 51 87v604q0 39 -11 53.5t-42 17.5l-35 4q-37 3 -37 25q0 26 31 35q133 41 246 133q16 14 39 14q24 0 24 -41v-845q0 -62 51 -87l21 -8q37 -18 37 -37q0 -29 -45 -26l-158 8h-25zM78 1466q41 41 92.5 30t83.5 -60
l154 -238q18 -29 1.5 -45t-49.5 2l-251 135q-46 24 -57.5 79t26.5 97z" />
    <glyph glyph-name="iacute" unicode="&#xed;" horiz-adv-x="481" 
d="M229 0l-159 -8q-43 -3 -43 26q0 21 34 37l21 8q51 23 51 87v604q0 39 -11 53.5t-42 17.5l-35 4q-37 3 -37 25q0 26 31 35q133 41 246 133q16 14 39 14q24 0 24 -41v-845q0 -62 51 -87l21 -8q37 -18 37 -37q0 -29 -45 -26l-158 8h-25zM143 1135q-6 7 -7.5 14.5t2.5 21
t8 22.5t14 30l92 192q26 65 82.5 77.5t97.5 -36.5q31 -33 20.5 -84t-55.5 -80l-172 -131q-62 -46 -82 -26z" />
    <glyph glyph-name="icircumflex" unicode="&#xee;" horiz-adv-x="481" 
d="M229 0l-159 -8q-43 -3 -43 26q0 21 34 37l21 8q51 23 51 87v604q0 39 -11 53.5t-42 17.5l-35 4q-37 3 -37 25q0 26 31 35q133 41 246 133q16 14 39 14q24 0 24 -41v-845q0 -62 51 -87l21 -8q37 -18 37 -37q0 -29 -45 -26l-158 8h-25zM-14 1237l180 188q35 37 83 36
t81 -40l170 -192q31 -35 14.5 -61.5t-57.5 -4.5l-213 121l-221 -113q-26 -12 -42.5 -6t-16 28t21.5 44z" />
    <glyph glyph-name="idieresis" unicode="&#xef;" horiz-adv-x="481" 
d="M229 0l-159 -8q-43 -3 -43 26q0 21 34 37l21 8q51 23 51 87v604q0 39 -11 53.5t-42 17.5l-35 4q-37 3 -37 25q0 26 31 35q133 41 246 133q16 14 39 14q24 0 24 -41v-845q0 -62 51 -87l21 -8q37 -18 37 -37q0 -29 -45 -26l-158 8h-25zM-53 1309q0 61 38.5 103t94.5 42
q51 0 86 -37.5t35 -91.5q0 -64 -39 -107.5t-96 -43.5q-51 0 -85 39t-34 96zM281 1309q0 61 40 103t97 42q52 0 86.5 -37.5t34.5 -91.5q0 -64 -39.5 -107.5t-98.5 -43.5q-51 0 -85.5 39t-34.5 96z" />
    <glyph glyph-name="eth" unicode="&#xf0;" horiz-adv-x="962" 
d="M475 -29q-195 -3 -311.5 131.5t-116.5 360.5q0 206 110 346.5t271 140.5q111 0 188 -92q-68 200 -217 340l-184 -68q-17 -7 -32 -1.5t-19 22.5v2q-14 39 24 51l142 53q-64 48 -131 84q-39 22 -27.5 46t51.5 10q115 -40 215 -99l148 56q37 12 55 -23q6 -18 -1.5 -32.5
t-25.5 -20.5l-94 -35q187 -135 292.5 -328.5t105.5 -400.5q0 -147 -58 -271t-160 -196.5t-225 -75.5zM291 453q0 -180 51 -293t133 -113q91 -1 144 130.5t53 330.5v35q-6 155 -71 235t-142 80q-79 0 -123.5 -108t-44.5 -297z" />
    <glyph glyph-name="ntilde" unicode="&#xf1;" horiz-adv-x="1009" 
d="M229 0l-159 -8q-43 -3 -43 26q0 21 34 37l21 8q53 24 53 87v604q0 39 -12 53.5t-43 17.5l-35 4q-37 3 -37 27t29 33q77 23 131.5 54.5t114.5 80.5q19 12 39 12q24 0 24 -35v-108l49 43q112 94 230 94q258 0 258 -325v-555q0 -62 51 -87l20 -8q37 -18 37 -37
q0 -29 -45 -26l-158 8h-28l-152 -8q-43 -3 -43 26q0 20 35 37l18 8q50 24 50 87v548q0 220 -150 220q-63 0 -116.5 -48t-53.5 -127v-593q0 -62 51 -87l19 -8q35 -17 35 -37q0 -29 -43 -26l-152 8h-29zM178 1247l51 105q31 60 61 84t77 24q42 0 95.5 -20.5t94.5 -45t85.5 -45
t70.5 -20.5t44.5 17t45.5 61q13 19 29.5 19t21.5 -14.5t-4 -35.5l-49 -96q-32 -63 -61.5 -87t-75.5 -24q-39 0 -89 20t-90.5 44.5t-87.5 44.5t-82 20q-26 0 -44 -16.5t-46 -62.5q-11 -19 -27.5 -20t-22.5 13.5t3 34.5z" />
    <glyph glyph-name="ograve" unicode="&#xf2;" horiz-adv-x="927" 
d="M457 -33q-187 0 -298.5 147t-111.5 380q0 224 125 380t299 156q187 0 298.5 -146.5t111.5 -381.5q0 -147 -57.5 -270.5t-155 -194t-211.5 -70.5zM274 506q0 -201 58 -334t141 -133q85 0 132.5 119t47.5 331q0 203 -57.5 337.5t-140.5 134.5q-86 0 -133.5 -119.5
t-47.5 -335.5zM301 1466q41 41 92.5 30t83.5 -60l154 -238q18 -29 2 -45t-49 2l-252 135q-46 24 -57.5 79t26.5 97z" />
    <glyph glyph-name="oacute" unicode="&#xf3;" horiz-adv-x="927" 
d="M457 -33q-187 0 -298.5 147t-111.5 380q0 224 125 380t299 156q187 0 298.5 -146.5t111.5 -381.5q0 -147 -57.5 -270.5t-155 -194t-211.5 -70.5zM274 506q0 -201 58 -334t141 -133q85 0 132.5 119t47.5 331q0 203 -57.5 337.5t-140.5 134.5q-86 0 -133.5 -119.5
t-47.5 -335.5zM367 1135q-6 7 -7.5 15t2 20.5t8 22.5l13.5 30l92 192q26 65 82.5 77.5t97.5 -36.5q31 -33 21 -84t-55 -80l-172 -131q-62 -46 -82 -26z" />
    <glyph glyph-name="ocircumflex" unicode="&#xf4;" horiz-adv-x="927" 
d="M457 -33q-187 0 -298.5 147t-111.5 380q0 224 125 380t299 156q187 0 298.5 -146.5t111.5 -381.5q0 -147 -57.5 -270.5t-155 -194t-211.5 -70.5zM209 1237l180 188q35 37 83 36t81 -40l170 -192q31 -35 14.5 -61.5t-57.5 -4.5l-213 121l-221 -113q-26 -12 -42.5 -6
t-16 28t21.5 44zM274 506q0 -201 58 -334t141 -133q85 0 132.5 119t47.5 331q0 203 -57.5 337.5t-140.5 134.5q-86 0 -133.5 -119.5t-47.5 -335.5z" />
    <glyph glyph-name="otilde" unicode="&#xf5;" horiz-adv-x="927" 
d="M457 -33q-187 0 -298.5 147t-111.5 380q0 224 125 380t299 156q187 0 298.5 -146.5t111.5 -381.5q0 -147 -57.5 -270.5t-155 -194t-211.5 -70.5zM135 1247l51 105q31 60 61 84t77 24q42 0 95.5 -20.5t94.5 -45t85.5 -45t70.5 -20.5t44.5 17t45.5 61q13 19 29.5 19
t21.5 -14.5t-4 -35.5l-49 -96q-32 -63 -61.5 -87t-75.5 -24q-39 0 -89 20t-90.5 44.5t-87.5 44.5t-82 20q-26 0 -44 -16.5t-46 -62.5q-11 -19 -27.5 -20t-22.5 13.5t3 34.5zM274 506q0 -201 58 -334t141 -133q85 0 132.5 119t47.5 331q0 203 -57.5 337.5t-140.5 134.5
q-86 0 -133.5 -119.5t-47.5 -335.5z" />
    <glyph glyph-name="odieresis" unicode="&#xf6;" horiz-adv-x="927" 
d="M457 -33q-187 0 -298.5 147t-111.5 380q0 224 125 380t299 156q187 0 298.5 -146.5t111.5 -381.5q0 -147 -57.5 -270.5t-155 -194t-211.5 -70.5zM170 1309q0 61 38.5 103t94.5 42q51 0 86 -37.5t35 -91.5q0 -64 -39 -107.5t-96 -43.5q-51 0 -85 39t-34 96zM274 506
q0 -201 58 -334t141 -133q85 0 132.5 119t47.5 331q0 203 -57.5 337.5t-140.5 134.5q-86 0 -133.5 -119.5t-47.5 -335.5zM504 1309q0 61 40 103t97 42q52 0 86.5 -37.5t34.5 -91.5q0 -64 -39 -107.5t-98 -43.5q-51 0 -86 39t-35 96z" />
    <glyph glyph-name="oslash" unicode="&#xf8;" horiz-adv-x="927" 
d="M457 -33q-102 0 -178 43l-39 -86q-23 -41 -56 -24q-34 18 -12 63l43 90q-80 70 -124 183.5t-44 257.5q0 224 125 380t299 156q104 0 184 -47l37 86q10 24 26.5 32.5t29.5 -1.5q35 -18 8 -74l-41 -84q79 -70 122.5 -183.5t43.5 -256.5q0 -147 -57.5 -270.5t-155 -194
t-211.5 -70.5zM274 506q0 -140 33 -262q162 339 283 598q-60 119 -135 119q-86 0 -133.5 -119.5t-47.5 -335.5zM342 150q56 -111 131 -111q85 0 132.5 119t47.5 331q0 138 -30 261q-64 -135 -281 -600z" />
    <glyph glyph-name="ugrave" unicode="&#xf9;" horiz-adv-x="983" 
d="M670 -39q-25 0 -25 39v102l-47 -41q-53 -45 -116.5 -69.5t-121.5 -24.5q-115 0 -176 68.5t-61 204.5v514q0 39 -11.5 53.5t-41.5 17.5l-37 4q-35 3 -35 27t29 33q77 23 132 54.5t115 80.5q19 12 39 12q25 0 25 -35v-770q0 -67 28 -110t93 -43q68 0 125 51t57 121l2 504
q0 39 -12 53.5t-43 17.5l-35 4q-37 4 -37 27q0 24 31 33q76 23 130.5 54t117.5 81q19 12 39 12q22 0 22 -35v-815q0 -39 11.5 -55.5t39.5 -19.5l27 -5q35 -4 35 -26q0 -24 -31 -33q-143 -35 -217 -70q-40 -16 -51 -16zM330 1466q41 41 92.5 30t83.5 -60l153 -238
q18 -29 2 -45t-49 2l-252 135q-46 24 -57 79t27 97z" />
    <glyph glyph-name="uacute" unicode="&#xfa;" horiz-adv-x="983" 
d="M670 -39q-25 0 -25 39v102l-47 -41q-53 -45 -116.5 -69.5t-121.5 -24.5q-115 0 -176 68.5t-61 204.5v514q0 39 -11.5 53.5t-41.5 17.5l-37 4q-35 3 -35 27t29 33q77 23 132 54.5t115 80.5q19 12 39 12q25 0 25 -35v-770q0 -67 28 -110t93 -43q68 0 125 51t57 121l2 504
q0 39 -12 53.5t-43 17.5l-35 4q-37 4 -37 27q0 24 31 33q76 23 130.5 54t117.5 81q19 12 39 12q22 0 22 -35v-815q0 -39 11.5 -55.5t39.5 -19.5l27 -5q35 -4 35 -26q0 -24 -31 -33q-143 -35 -217 -70q-40 -16 -51 -16zM395 1135q-6 7 -7.5 14.5t2.5 21t8 22.5t14 30l92 192
q26 65 82.5 77.5t97.5 -36.5q31 -33 20.5 -84t-55.5 -80l-172 -131q-62 -46 -82 -26z" />
    <glyph glyph-name="ucircumflex" unicode="&#xfb;" horiz-adv-x="983" 
d="M670 -39q-25 0 -25 39v102l-47 -41q-53 -45 -116.5 -69.5t-121.5 -24.5q-115 0 -176 68.5t-61 204.5v514q0 39 -11.5 53.5t-41.5 17.5l-37 4q-35 3 -35 27t29 33q77 23 132 54.5t115 80.5q19 12 39 12q25 0 25 -35v-770q0 -67 28 -110t93 -43q68 0 125 51t57 121l2 504
q0 39 -12 53.5t-43 17.5l-35 4q-37 4 -37 27q0 24 31 33q76 23 130.5 54t117.5 81q19 12 39 12q22 0 22 -35v-815q0 -39 11.5 -55.5t39.5 -19.5l27 -5q35 -4 35 -26q0 -24 -31 -33q-143 -35 -217 -70q-40 -16 -51 -16zM238 1237l180 188q35 37 83 36t81 -40l170 -192
q31 -35 14.5 -61.5t-57.5 -4.5l-213 121l-222 -113q-26 -12 -42 -6t-15.5 28t21.5 44z" />
    <glyph glyph-name="udieresis" unicode="&#xfc;" horiz-adv-x="983" 
d="M670 -39q-25 0 -25 39v102l-47 -41q-53 -45 -116.5 -69.5t-121.5 -24.5q-115 0 -176 68.5t-61 204.5v514q0 39 -11.5 53.5t-41.5 17.5l-37 4q-35 3 -35 27t29 33q77 23 132 54.5t115 80.5q19 12 39 12q25 0 25 -35v-770q0 -67 28 -110t93 -43q68 0 125 51t57 121l2 504
q0 39 -12 53.5t-43 17.5l-35 4q-37 4 -37 27q0 24 31 33q76 23 130.5 54t117.5 81q19 12 39 12q22 0 22 -35v-815q0 -39 11.5 -55.5t39.5 -19.5l27 -5q35 -4 35 -26q0 -24 -31 -33q-143 -35 -217 -70q-40 -16 -51 -16zM199 1309q0 61 38.5 103t94.5 42q51 0 86 -37.5
t35 -91.5q0 -64 -39.5 -107.5t-96.5 -43.5q-51 0 -84.5 39t-33.5 96zM532 1309q0 61 40.5 103t97.5 42q52 0 86.5 -37.5t34.5 -91.5q0 -64 -39.5 -107.5t-98.5 -43.5q-51 0 -86 39t-35 96z" />
    <glyph glyph-name="yacute" unicode="&#xfd;" horiz-adv-x="870" 
d="M209 -401q-63 0 -110.5 37t-47.5 90q0 42 31.5 73t71.5 31q42 0 94 -30.5t69 -30.5q23 0 37 41l54 167l-302 879q-16 49 -29 62.5t-44 23.5q-21 7 -24.5 23t8 28t28.5 11l170 -9l191 11q14 1 24 -4.5t13 -14t2 -17t-9 -15.5t-20 -9q-50 -8 -70 -18.5t-20 -36.5
q0 -13 6 -37l182 -561l148 493q16 58 16 91q0 53 -66 65l-34 8q-21 5 -27.5 19t4 26t31.5 11l145 -9l103 9q19 2 28.5 -10.5t4 -27.5t-24.5 -20q-41 -11 -59.5 -41t-43.5 -112l-317 -1028q-28 -87 -79 -127.5t-134 -40.5zM377 1135q-6 7 -7.5 15t2 20.5t8 22.5l13.5 30
l92 192q26 65 83 77.5t98 -36.5q31 -33 20.5 -84t-55.5 -80l-172 -131q-62 -46 -82 -26z" />
    <glyph glyph-name="thorn" unicode="&#xfe;" horiz-adv-x="980" 
d="M223 -365l-157 -8q-46 -3 -46 27q0 19 37 37l21 8q51 25 51 88v1341q0 38 -12 53.5t-43 18.5l-31 4q-37 3 -37 27t31 33q123 31 227 116q32 25 49 25q25 0 25 -39v-461l59 47q92 76 195 76q156 0 250 -138.5t94 -369.5q0 -151 -52 -273.5t-148 -193.5t-218 -71
q-97 0 -174 47v-242q0 -65 57 -88l23 -8q39 -17 39 -37q0 -30 -49 -27l-176 8h-15zM344 131q30 -30 72.5 -46.5t83.5 -16.5q209 0 209 409q0 213 -49.5 332t-143.5 119q-64 0 -118 -61t-54 -150v-586z" />
    <glyph glyph-name="ydieresis" unicode="&#xff;" horiz-adv-x="870" 
d="M209 -401q-63 0 -110.5 37t-47.5 90q0 42 31.5 73t71.5 31q42 0 94 -30.5t69 -30.5q23 0 37 41l54 167l-302 879q-16 49 -29 62.5t-44 23.5q-21 7 -24.5 23t8 28t28.5 11l170 -9l191 11q14 1 24 -4.5t13 -14t2 -17t-9 -15.5t-20 -9q-50 -8 -70 -18.5t-20 -36.5
q0 -13 6 -37l182 -561l148 493q16 58 16 91q0 53 -66 65l-34 8q-21 5 -27.5 19t4 26t31.5 11l145 -9l103 9q19 2 28.5 -10.5t4 -27.5t-24.5 -20q-41 -11 -59.5 -41t-43.5 -112l-317 -1028q-28 -87 -79 -127.5t-134 -40.5zM180 1309q0 61 38.5 103t94.5 42q51 0 86 -37.5
t35 -91.5q0 -64 -39 -107.5t-96 -43.5q-51 0 -85 39t-34 96zM514 1309q0 61 40 103t97 42q52 0 86.5 -37.5t34.5 -91.5q0 -64 -39 -107.5t-98 -43.5q-51 0 -86 39t-35 96z" />
    <glyph glyph-name="dcaron" unicode="&#x10f;" horiz-adv-x="989" 
d="M391 -33q-155 0 -249.5 139t-94.5 369q0 241 114.5 395t291.5 154q105 0 192 -84v190q0 39 -11.5 53t-43.5 19l-29 6q-35 7 -35 25q0 26 29 35q120 35 242 129q19 14 39 14q24 0 24 -39v-1177q0 -40 11.5 -56t43.5 -20l33 -4q35 -7 35 -27q0 -24 -29 -33
q-165 -40 -229 -69q-39 -17 -49 -17q-22 0 -25 39l-2 82l-55 -47q-92 -76 -203 -76zM274 528q0 -206 53 -330t146 -124q66 0 119 59.5t53 149.5v499q-12 67 -62.5 114.5t-109.5 47.5q-92 0 -145.5 -111.5t-53.5 -304.5zM950 1235q-5 80 26 130t85 50q47 0 80 -50t33 -122
q0 -92 -49 -196.5t-115 -157.5q-21 -17 -33.5 -0.5t2.5 37.5q84 100 84 180q0 26 -15 42t-51 28q-44 12 -47 59z" />
    <glyph glyph-name="Dcroat" unicode="&#x110;" horiz-adv-x="1110" 
d="M504 66q158 1 232.5 132.5t74.5 403.5q0 293 -89 467t-241 174h-71v-551h196q43 0 43 -39v-2q0 -39 -43 -39h-196v-549zM-33 651v2q0 39 43 39h162v467q0 32 -14.5 49t-44.5 31l-29 14q-22 10 -30.5 17t-8.5 18q0 32 45 29l186 -10h244q258 0 396.5 -177.5t138.5 -490.5
q0 -291 -152 -465t-411 -174h-209l-199 -10q-45 -3 -45 26q0 13 8 20.5t31 16.5l31 13q33 16 48 32t15 47v467h-162q-43 0 -43 39z" />
    <glyph glyph-name="dcroat" unicode="&#x111;" horiz-adv-x="989" 
d="M391 -33q-155 0 -249.5 139t-94.5 369q0 241 114.5 395t291.5 154q105 0 192 -84v135h-190q-27 0 -38 18t0 36t38 18h190q-3 28 -14.5 39t-40.5 16l-29 6q-35 7 -35 25q0 26 29 35q120 35 242 129q19 14 39 14q24 0 24 -39v-225h96q27 0 38 -18t0 -36t-38 -18h-96v-880
q0 -40 11.5 -56t43.5 -20l33 -4q35 -7 35 -27q0 -24 -29 -33q-165 -40 -229 -69q-39 -17 -49 -17q-22 0 -25 39l-2 82l-55 -47q-92 -76 -203 -76zM274 528q0 -206 53 -330t146 -124q66 0 119 59.5t53 149.5v499q-12 67 -62.5 114.5t-109.5 47.5q-92 0 -145.5 -111.5
t-53.5 -304.5z" />
    <glyph glyph-name="hbar" unicode="&#x127;" horiz-adv-x="1007" 
d="M227 0l-157 -8q-45 -3 -45 26q0 20 36 37l21 8q51 25 51 87v925h-90q-30 0 -42 18t0 36t42 18h90q-3 27 -15 37.5t-40 15.5l-27 6q-35 7 -35 27q0 24 29 33q72 23 125 53.5t111 75.5q19 14 41 14t22 -39v-223h256q31 0 44 -18t0 -36t-44 -18h-256v-182l49 43
q51 44 112 69t118 25q258 0 258 -325v-555q0 -63 53 -87l20 -8q35 -17 35 -37q0 -29 -43 -26l-160 8h-28l-152 -8q-43 -3 -43 26q0 20 35 37l18 8q52 25 52 87v548q0 220 -150 220q-63 0 -116.5 -48t-53.5 -127v-593q0 -63 49 -87l19 -8q35 -17 35 -37q0 -29 -41 -26l-154 8
h-29z" />
    <glyph glyph-name="dotlessi" unicode="&#x131;" horiz-adv-x="481" 
d="M229 0l-159 -8q-43 -3 -43 26q0 21 34 37l21 8q51 23 51 87v604q0 39 -11 53.5t-42 17.5l-35 4q-37 3 -37 25q0 26 31 35q133 41 246 133q16 14 39 14q24 0 24 -41v-845q0 -62 51 -87l21 -8q37 -18 37 -37q0 -29 -45 -26l-158 8h-25z" />
    <glyph glyph-name="IJ" unicode="&#x132;" horiz-adv-x="1353" 
d="M268 0l-186 -10q-45 -3 -45 26q0 13 8.5 20t30.5 17l28 13q31 16 45.5 32t14.5 47v1014q0 32 -15 49t-45 31l-28 14q-22 10 -30.5 17t-8.5 18q0 32 45 29l186 -10h31l186 10q43 3 43 -29q0 -12 -7.5 -19t-28.5 -16l-29 -14q-31 -14 -46.5 -31t-15.5 -49v-1014
q0 -31 15 -47t47 -32l29 -13q21 -9 28.5 -16.5t7.5 -20.5q0 -29 -43 -26l-186 10h-31zM565 160q0 49 30 80.5t75 31.5q81 0 131 -110q29 -61 49 -86t51 -25q72 0 72 178v914l-2 16q0 32 -16 49t-48 31l-30 14q-23 9 -31 16t-8 19q0 32 45 29l198 -10h27l182 10q43 3 43 -29
q0 -12 -8 -19t-29 -16l-28 -14q-30 -14 -45 -31t-15 -49v-866q0 -145 -97 -231.5t-261 -86.5q-115 0 -200 50t-85 135z" />
    <glyph glyph-name="ij" unicode="&#x133;" horiz-adv-x="903" 
d="M227 1116q-53 0 -90 41.5t-37 99.5q0 65 37.5 106.5t95.5 41.5q54 0 90.5 -41t36.5 -100q0 -64 -37 -106t-96 -42zM8 854q0 26 31 35q133 41 246 133q16 14 39 14q24 0 24 -41v-845q0 -62 51 -87l21 -8q37 -18 37 -37q0 -29 -45 -26l-158 8h-25l-159 -8q-43 -3 -43 26
q0 21 34 37l21 8q51 23 51 87v604q0 39 -11 53.5t-42 17.5l-35 4q-37 3 -37 25zM197 -221q0 38 29.5 66t70.5 28q77 0 131 -94q16 -28 22.5 -38t19 -25.5t24.5 -21t28 -5.5q35 0 55.5 34t20.5 89q-1 27 -10.5 110t-9.5 160v672q0 39 -11.5 53.5t-42.5 17.5l-35 4
q-36 3 -36 25q0 26 30 35q123 38 246 133q19 14 39 14q25 0 25 -41v-1028q0 -156 -96 -253t-246 -97q-102 0 -178 44.5t-76 117.5zM545 1257q0 65 37.5 106.5t95.5 41.5q54 0 90.5 -41t36.5 -100q0 -64 -37 -106t-96 -42q-53 0 -90 41.5t-37 99.5z" />
    <glyph glyph-name="Lslash" unicode="&#x141;" horiz-adv-x="851" 
d="M756 -63q-23 0 -39 32q-19 31 -43 31h-391l-199 -10q-45 -3 -45 26q0 13 8 20.5t31 16.5l31 13q33 16 48 32t15 47v414l-82 -27q-31 -9 -48 5t-10.5 35t31.5 30l109 35v522q0 32 -14.5 49t-44.5 31l-29 14q-22 10 -30.5 17t-8.5 18q0 32 45 29l186 -10h21l205 10
q47 3 47 -29q0 -12 -8.5 -19t-32.5 -16l-31 -14q-34 -14 -50.5 -31t-16.5 -49v-442l127 41q16 5 29.5 1.5t19.5 -13.5t6.5 -21t-9 -22t-26.5 -17l-147 -49v-574h110q69 0 106 40.5t87 154.5q8 18 24 53.5t23.5 50.5t18.5 35t20 27.5t18 7.5q31 0 25 -53l-58 -414
q-3 -28 -28 -28z" />
    <glyph glyph-name="lslash" unicode="&#x142;" horiz-adv-x="477" 
d="M227 0l-157 -8q-45 -3 -45 26q0 20 36 37l21 8q51 25 51 87v501l-88 -35q-26 -9 -40 5t-9 35t27 30l110 43v401q0 38 -12 52.5t-43 19.5l-25 4q-37 4 -37 27q0 26 31 35q68 20 120 49.5t118 79.5q19 14 39 14q24 0 24 -39v-559l72 29q30 11 43 -15q13 -25 -9 -46
q-8 -7 -18 -11l-88 -35v-585q0 -62 51 -87l21 -8q35 -17 35 -37q0 -29 -43 -26l-160 8h-25z" />
    <glyph glyph-name="OE" unicode="&#x152;" horiz-adv-x="1550" 
d="M530 -27q-143 0 -251.5 84.5t-167 237t-58.5 350.5q0 143 42 272t111 220t161 144.5t190 53.5q63 0 131 -20q6 2 27 2l186 -10h455q35 0 74 43q22 30 40 30q30 0 27 -51l-22 -387q-3 -39 -31 -39q-14 0 -25.5 25t-32.5 92q-35 127 -68.5 175t-103.5 48h-182v-495h199
q30 0 43.5 15t30.5 56q21 55 43 55q31 0 28 -51l-24 -364q-3 -41 -29 -41q-5 0 -8.5 2t-7 8.5t-6 13.5t-6 20.5t-6.5 27t-8.5 36t-10.5 43.5q-16 67 -39 91t-84 24h-115v-621h154q69 0 107.5 39.5t88.5 149.5q6 13 14.5 31.5t13.5 30t12.5 27t12 24.5t11 20.5t11.5 17.5
t10.5 12t11 8.5t10.5 2.5q28 0 22 -53l-61 -408q-3 -28 -27 -28q-25 0 -41 32q-10 17 -18.5 24t-22.5 7h-440l-186 -10q-32 -3 -41 12q-76 -29 -144 -29zM301 672q0 -174 35.5 -318.5t93.5 -225.5t125 -81q103 0 165 154.5t62 427.5q0 132 -20 250.5t-54 201.5t-80 132
t-96 49q-104 0 -167.5 -157t-63.5 -433z" />
    <glyph glyph-name="oe" unicode="&#x153;" horiz-adv-x="1449" 
d="M457 -33q-187 0 -298.5 147t-111.5 380q0 224 125 380t299 156q195 0 307 -160q58 75 135.5 117.5t163.5 42.5q143 0 238 -115t96 -294q0 -60 -24 -87.5t-78 -27.5h-428v-4q0 -42 -2 -60q9 -165 73.5 -259.5t163.5 -94.5q137 0 234 244q12 29 33.5 21.5t13.5 -36.5
q-43 -165 -133.5 -256.5t-219.5 -91.5q-181 0 -290 150q-126 -152 -297 -152zM274 506q0 -201 58 -334t141 -133q85 0 132.5 119t47.5 331q0 203 -57.5 337.5t-140.5 134.5q-86 0 -133.5 -119.5t-47.5 -335.5zM879 575h196q68 0 99.5 33t31.5 109q-1 119 -36.5 183.5
t-94.5 62.5q-80 -2 -133 -106t-63 -282z" />
    <glyph glyph-name="tcaron" unicode="&#x165;" horiz-adv-x="581" 
d="M27 977q181 46 254 225q10 27 36 27q25 0 25 -39v-193h180q43 0 43 -43v-2q0 -43 -43 -43h-180v-739q0 -31 12.5 -48.5t34.5 -17.5q63 0 141 152q9 18 24 21.5t24 -7t4 -26.5q-101 -273 -267 -273q-89 0 -137.5 44t-48.5 120v709q0 39 -12.5 55t-42.5 16h-43
q-16 0 -26.5 6.5t-10.5 18.5q0 28 33 37zM428 1444q-5 80 26 130t85 50q47 0 79.5 -50t32.5 -122q0 -92 -49 -196.5t-115 -157.5q-21 -17 -33 -0.5t3 37.5q84 100 84 180q0 26 -14.5 41.5t-51.5 27.5q-44 12 -47 60z" />
    <glyph glyph-name="Tbar" unicode="&#x166;" horiz-adv-x="1005" 
d="M502 0l-199 -10q-45 -3 -45 26q0 13 8 20.5t31 16.5l31 13q33 16 48 32t15 47v467h-186q-43 0 -43 39v2q0 39 43 39h186v551h-53q-62 0 -103 -42.5t-85 -133.5q-6 -13 -15 -31.5t-14 -29.5t-12.5 -26t-12 -23.5t-11 -19.5t-11.5 -16.5t-11 -11t-12 -8t-12 -2.5
q-25 0 -19 53l56 387q3 33 26 33q12 0 20 -9t17 -28q15 -28 43 -28h668q38 0 70 32q2 3 6.5 8t7 8t6.5 6.5t6.5 5.5t6.5 3.5t8 1.5q31 0 28 -51l-22 -385q-3 -39 -29 -39q-17 0 -28 24.5t-31 94.5q-35 133 -65.5 180t-98.5 47h-86v-551h172q43 0 43 -39v-2q0 -39 -43 -39
h-172v-467q0 -31 15.5 -47t49.5 -32l31 -13q22 -10 30.5 -17t8.5 -20q0 -29 -47 -26l-197 10h-18z" />
    <glyph glyph-name="tbar" unicode="&#x167;" horiz-adv-x="581" 
d="M27 977q181 46 254 225q10 27 36 27q25 0 25 -39v-193h180q43 0 43 -43v-2q0 -43 -43 -43h-180v-295h170q26 0 36.5 -18t0 -35.5t-36.5 -17.5h-170v-373q0 -31 12.5 -48.5t34.5 -17.5q63 0 141 152q9 18 24 21.5t24 -7t4 -26.5q-101 -273 -267 -273q-89 0 -137.5 44
t-48.5 120v408h-92q-25 0 -35.5 17.5t0 35.5t35.5 18h92v230q0 39 -12.5 55t-42.5 16h-43q-16 0 -26.5 6.5t-10.5 18.5q0 28 33 37z" />
    <glyph glyph-name="Wcircumflex" unicode="&#x174;" horiz-adv-x="1476" 
d="M1057 -39q-28 0 -35 31l-266 909l-238 -901q-9 -37 -37 -37q-10 0 -19.5 10t-12.5 21l-332 1175q-12 41 -28 56.5t-50 21.5q-45 9 -45 35q0 16 13.5 25.5t31.5 9.5l192 -8l199 8q45 3 45 -31q0 -25 -33 -31q-57 -11 -73.5 -29t-3.5 -63l192 -741l160 616l-41 140
q-10 39 -24.5 52t-51.5 21q-45 11 -45 33q0 31 41 31l203 -6l196 8q45 3 45 -31q0 -26 -34 -31q-64 -10 -80 -28.5t-4 -63.5l196 -712l133 647q10 50 12 82t-20.5 48.5t-79.5 20.5q-20 1 -29.5 11t-9.5 22q0 14 11 22.5t30 8.5l166 -4l113 6q39 3 39 -27q0 -27 -37 -35
q-47 -11 -71.5 -43t-41.5 -108l-235 -1096q-3 -17 -14 -31t-27 -14zM487 1450l179 172q37 35 83 35t80 -37l170 -178q32 -34 16 -58t-57 -4l-215 111l-219 -102q-40 -22 -55.5 3.5t18.5 57.5z" />
    <glyph glyph-name="wcircumflex" unicode="&#x175;" horiz-adv-x="1335" 
d="M936 -41q-22 0 -31 29l-209 604l-213 -596q-12 -35 -34 -35q-11 0 -20.5 9t-12.5 20l-307 866q-14 43 -27.5 59.5t-34.5 22.5q-24 6 -30.5 22.5t4.5 30.5t32 13l160 -11l182 11q23 1 34 -12t4.5 -27.5t-27.5 -18.5q-50 -11 -65.5 -29.5t-2.5 -60.5l186 -551l135 391
l-55 164q-15 43 -27 57.5t-38 22.5q-25 7 -31 22.5t5 27.5t30 11l172 -8l190 11q17 1 27.5 -6.5t11.5 -18t-6.5 -20t-22.5 -13.5q-67 -11 -83.5 -26t-0.5 -64l173 -524l129 471q8 27 10 46.5t-1 39.5t-19 33t-44 18l-30 6q-19 5 -25 19.5t3 27t28 11.5l131 -9l96 11
q34 3 40 -23t-26 -39q-35 -15 -54 -44t-36 -93l-233 -805q-14 -43 -37 -43zM449 1237l180 188q35 37 83 36t81 -40l170 -192q31 -35 14.5 -61.5t-57.5 -4.5l-213 121l-222 -113q-26 -12 -42 -6t-15.5 28t21.5 44z" />
    <glyph glyph-name="Ycircumflex" unicode="&#x176;" horiz-adv-x="1028" 
d="M156 1137q-28 57 -51 81t-56 37q-22 7 -28.5 22t4 27t30.5 11l209 -10l217 8q20 1 29.5 -11.5t3 -27.5t-26.5 -21l-28 -8q-78 -21 -47 -92l190 -403l182 403q23 41 1.5 65t-103.5 35q-22 4 -29 19.5t4.5 29t36.5 11.5l162 -10l113 10q36 3 41.5 -23.5t-27.5 -38.5
q-39 -14 -60 -37.5t-44 -74.5l-226 -492v-502q0 -31 16 -46.5t50 -32.5l33 -13q23 -9 31 -16.5t8 -20.5q0 -29 -48 -26l-200 10h-15l-200 -10q-47 -3 -47 26q0 13 8 20.5t30 16.5l31 13q35 16 51.5 32t16.5 47v455zM262 1450l178 172q37 35 83.5 35t80.5 -37l170 -178
q32 -34 16 -58t-57 -4l-215 111l-219 -102q-40 -22 -55.5 3.5t18.5 57.5z" />
    <glyph glyph-name="ycircumflex" unicode="&#x177;" horiz-adv-x="870" 
d="M209 -401q-63 0 -110.5 37t-47.5 90q0 42 31.5 73t71.5 31q42 0 94 -30.5t69 -30.5q23 0 37 41l54 167l-302 879q-16 49 -29 62.5t-44 23.5q-21 7 -24.5 23t8 28t28.5 11l170 -9l191 11q14 1 24 -4.5t13 -14t2 -17t-9 -15.5t-20 -9q-50 -8 -70 -18.5t-20 -36.5
q0 -13 6 -37l182 -561l148 493q16 58 16 91q0 53 -66 65l-34 8q-21 5 -27.5 19t4 26t31.5 11l145 -9l103 9q19 2 28.5 -10.5t4 -27.5t-24.5 -20q-41 -11 -59.5 -41t-43.5 -112l-317 -1028q-28 -87 -79 -127.5t-134 -40.5zM219 1237l180 188q35 37 83 36t81 -40l170 -192
q31 -35 14.5 -61.5t-57.5 -4.5l-213 121l-221 -113q-26 -12 -42.5 -6t-16 28t21.5 44z" />
    <glyph glyph-name="Ydieresis" unicode="&#x178;" horiz-adv-x="1028" 
d="M156 1137q-28 57 -51 81t-56 37q-22 7 -28.5 22t4 27t30.5 11l209 -10l217 8q20 1 29.5 -11.5t3 -27.5t-26.5 -21l-28 -8q-78 -21 -47 -92l190 -403l182 403q23 41 1.5 65t-103.5 35q-22 4 -29 19.5t4.5 29t36.5 11.5l162 -10l113 10q36 3 41.5 -23.5t-27.5 -38.5
q-39 -14 -60 -37.5t-44 -74.5l-226 -492v-502q0 -31 16 -46.5t50 -32.5l33 -13q23 -9 31 -16.5t8 -20.5q0 -29 -48 -26l-200 10h-15l-200 -10q-47 -3 -47 26q0 13 8 20.5t30 16.5l31 13q35 16 51.5 32t16.5 47v455zM244 1528q0 57 37.5 96t91.5 39q46 0 78 -34t32 -81
q0 -57 -37.5 -96t-91.5 -39q-46 0 -78 34t-32 81zM553 1524q0 57 37.5 96t91.5 39q46 0 78.5 -34t32.5 -81q0 -57 -37.5 -96t-91.5 -39q-46 0 -78.5 34t-32.5 81z" />
    <glyph glyph-name="uni0237" unicode="&#x237;" horiz-adv-x="454" 
d="M6 -383q-102 0 -178 44.5t-76 117.5q0 38 30 66t71 28q77 0 131 -94q16 -28 22.5 -38t19 -25.5t24.5 -21t28 -5.5q35 0 55.5 34t20.5 89q-1 27 -11 110t-10 160v672q0 39 -11 53.5t-42 17.5l-35 4q-37 3 -37 25q0 26 31 35q123 38 246 133q19 14 39 14q24 0 24 -41v-1028
q0 -156 -96 -253t-246 -97z" />
    <glyph glyph-name="circumflex" unicode="&#x2c6;" horiz-adv-x="595" 
d="M573 1208q34 -37 16.5 -63.5t-61.5 -3.5l-229 123l-238 -115q-43 -23 -58 5t20 63l192 192q38 39 89 38t87 -42z" />
    <glyph glyph-name="caron" unicode="&#x2c7;" horiz-adv-x="595" 
d="M371 1118q-74 -74 -152 4l-196 209q-21 21 -20 43.5t20 29t51 -8.5l225 -119l227 110q40 20 58 -6t-13 -57z" />
    <glyph glyph-name="breve" unicode="&#x2d8;" horiz-adv-x="552" 
d="M266 1069q-105 0 -186 61q-45 33 -51.5 83.5t20.5 76.5q20 25 51.5 26.5t63.5 -20.5q97 -77 178 -77q68 0 123 38q30 21 46 -1t-5 -52q-100 -132 -240 -135z" />
    <glyph glyph-name="dotaccent" unicode="&#x2d9;" horiz-adv-x="335" 
d="M172 1075q-53 0 -89 41t-36 103q-1 66 39.5 112.5t97.5 46.5q54 0 90.5 -41.5t38.5 -101.5q0 -67 -41 -113.5t-100 -46.5z" />
    <glyph glyph-name="ring" unicode="&#x2da;" horiz-adv-x="407" 
d="M211 1044q-72 0 -123 54.5t-51 128.5q0 72 50 124t122 52q70 0 120 -53t50 -127q0 -72 -49.5 -125.5t-118.5 -53.5zM96 1227q0 -52 34.5 -89.5t80.5 -37.5q45 0 78 36t33 87q0 52 -33.5 88.5t-79.5 36.5t-79.5 -35t-33.5 -86z" />
    <glyph glyph-name="ogonek" unicode="&#x2db;" horiz-adv-x="399" 
d="M201 -326q-75 0 -121.5 46t-46.5 116q0 76 62 131.5t153 55.5q17 0 37 -5v-4h-19q-40 -2 -63 -35t-23 -92q0 -112 88 -112q31 0 62 16q28 16 28 -14q0 -21 -30 -51q-56 -52 -127 -52z" />
    <glyph glyph-name="tilde" unicode="&#x2dc;" horiz-adv-x="661" 
d="M473 1059q-49 0 -114.5 32.5t-128 64.5t-105.5 32q-26 0 -44 -17t-46 -63q-11 -19 -27.5 -19.5t-22.5 14t3 34.5l51 104q31 61 60.5 85t76.5 24q42 0 95.5 -20.5t94.5 -45t85.5 -45t70.5 -20.5t44.5 17t45.5 60q13 19 29.5 19.5t21.5 -14.5t-4 -35l-49 -97
q-32 -63 -61.5 -86.5t-75.5 -23.5z" />
    <glyph glyph-name="hungarumlaut" unicode="&#x2dd;" horiz-adv-x="669" 
d="M51 1053q-22 22 2 73l107 236q24 53 59 73.5t74 -1.5q44 -32 42.5 -76t-42.5 -90l-172 -187q-24 -26 -37 -31.5t-33 3.5zM322 1053q-6 5 -7.5 11.5t2 18t7 19.5t12.5 26l123 240q26 49 69 60t78 -23q61 -64 -35 -160l-182 -176q-39 -42 -67 -16z" />
    <glyph glyph-name="gravecomb" unicode="&#x300;" 
d="M74 1180q-46 24 -57.5 79t26.5 97q41 41 92.5 29.5t83.5 -60.5l154 -238q18 -29 2 -45t-49 2z" />
    <glyph glyph-name="acutecomb" unicode="&#x301;" 
d="M29 1024q-6 7 -7.5 15t2 20.5t8 22.5l13.5 30l92 193q26 65 82.5 77.5t97.5 -36.5q31 -33 21 -84t-55 -80l-172 -131q-63 -46 -82 -27z" />
    <glyph glyph-name="uni0302" unicode="&#x302;" 
d="M573 1155q31 -35 14.5 -61t-57.5 -4l-213 120l-221 -112q-40 -22 -54.5 4.5t17.5 60.5l181 189q35 37 82.5 36t80.5 -40z" />
    <glyph glyph-name="tildecomb" unicode="&#x303;" 
d="M492 1059q-39 0 -89 20t-90.5 44.5t-87.5 44.5t-82 20q-26 0 -44 -17t-46 -63q-11 -19 -27.5 -19.5t-22.5 14t3 34.5l51 104q31 61 61 85t77 24q42 0 95.5 -20.5t94.5 -45t85.5 -45t70.5 -20.5t44.5 17t45.5 60q13 19 29.5 19.5t21.5 -14.5t-4 -35l-49 -97
q-32 -63 -61.5 -86.5t-75.5 -23.5z" />
    <glyph glyph-name="uni0304" unicode="&#x304;" 
d="M35 1102q-43 0 -43 39q0 19 11.5 30t31.5 11h420q20 0 31.5 -11t11.5 -30q0 -39 -43 -39h-420z" />
    <glyph glyph-name="uni0306" unicode="&#x306;" 
d="M262 1004q-105 0 -186 61q-45 33 -51.5 83.5t20.5 76.5q20 25 51.5 26.5t63.5 -20.5q98 -78 178 -78q67 0 123 39q30 21 46 -1t-5 -52q-100 -132 -240 -135z" />
    <glyph glyph-name="uni0307" unicode="&#x307;" 
d="M141 1065q-54 0 -89.5 37.5t-35.5 97.5q0 64 41.5 108t100.5 44q57 0 91 -36.5t34 -96.5q0 -66 -41 -110t-101 -44z" />
    <glyph glyph-name="uni0308" unicode="&#x308;" 
d="M483 1063q-51 0 -86 39t-35 96q0 61 40.5 103t97.5 42q52 0 86.5 -37.5t34.5 -91.5q0 -64 -39.5 -107.5t-98.5 -43.5zM29 1198q0 61 38.5 103t94.5 42q51 0 86 -37.5t35 -91.5q0 -64 -39.5 -107.5t-96.5 -43.5q-51 0 -84.5 39t-33.5 96z" />
    <glyph glyph-name="uni030A" unicode="&#x30a;" 
d="M211 1051q-72 0 -123 54t-51 128q0 72 50 124t122 52q70 0 120 -53t50 -127q0 -72 -49.5 -125t-118.5 -53zM96 1233q0 -52 34.5 -89.5t80.5 -37.5q45 0 78 36t33 87q0 52 -33.5 88.5t-79.5 36.5t-79.5 -35t-33.5 -86z" />
    <glyph glyph-name="uni030B" unicode="&#x30b;" 
d="M51 1083q-22 22 2 74l107 236q24 53 59 73.5t74 -2.5q44 -32 42.5 -76t-42.5 -90l-172 -186q-25 -26 -37.5 -32t-32.5 3zM322 1083q-6 5 -7.5 12t2 18t7 19.5t12.5 26.5l123 240q26 49 69 60t78 -23q61 -64 -35 -160l-182 -176q-39 -42 -67 -17z" />
    <glyph glyph-name="uni030C" unicode="&#x30c;" 
d="M344 1130q-67 -73 -139 5l-185 202q-30 31 -12 58.5t60 3.5l211 -117l210 109q37 19 53.5 -7t-12.5 -55z" />
    <glyph glyph-name="uni0312" unicode="&#x312;" 
d="M27 1311q0 87 49.5 187t113.5 151q22 15 35 -0.5t-4 -34.5q-84 -97 -84 -172q0 -26 14.5 -41t51.5 -25q44 -12 47 -57q5 -77 -25.5 -125.5t-85.5 -48.5q-47 0 -79.5 48.5t-32.5 117.5z" />
    <glyph glyph-name="uni0326" unicode="&#x326;" 
d="M240 -342q0 -82 -42.5 -172t-99.5 -135q-12 -9 -22 -5.5t-11 14.5t7 24q71 84 71 153q0 25 -11.5 38.5t-43.5 23.5q-38 9 -41 51q-4 70 22.5 113.5t73.5 43.5q41 0 69 -43t28 -106z" />
    <glyph glyph-name="uni0327" unicode="&#x327;" 
d="M178 -416q-76 0 -119 27q-19 13 -19.5 31t14.5 25t36 -1q35 -18 86 -18q38 0 63 24t25 60q0 43 -27.5 71.5t-82.5 34.5q-45 3 -29 45l59 146h66l-57 -138q68 -12 108.5 -52.5t40.5 -94.5q0 -71 -45.5 -115.5t-118.5 -44.5z" />
    <glyph glyph-name="uni0328" unicode="&#x328;" 
d="M201 -326q-75 0 -121.5 46t-46.5 116q0 76 62 131.5t153 55.5q17 0 37 -5v-4h-19q-40 -2 -63 -35t-23 -92q0 -112 88 -112q31 0 62 16q28 16 28 -14q0 -21 -30 -51q-56 -52 -127 -52z" />
    <glyph glyph-name="uni0335" unicode="&#x335;" 
d="M70 530q-30 0 -42 18t0 36t42 18h557q31 0 44 -18t0 -36t-44 -18h-557z" />
    <glyph glyph-name="uni0337" unicode="&#x337;" 
d="M487 793q16 5 29.5 1.5t20 -13.5t7 -21t-9 -22t-26.5 -17l-467 -154q-31 -9 -48 5t-10.5 35t31.5 30z" />
    <glyph glyph-name="uni0338" unicode="&#x338;" 
d="M492 1047q10 24 26 32t29 -2q35 -18 8 -73q-85 -169 -261.5 -547.5t-254.5 -554.5q-23 -42 -55 -25q-35 18 -13 64q79 161 269.5 563t251.5 543z" />
    <glyph glyph-name="Wgrave" unicode="&#x1e80;" horiz-adv-x="1476" 
d="M1057 -39q-28 0 -35 31l-266 909l-238 -901q-9 -37 -37 -37q-10 0 -19.5 10t-12.5 21l-332 1175q-12 41 -28 56.5t-50 21.5q-45 9 -45 35q0 16 13.5 25.5t31.5 9.5l192 -8l199 8q45 3 45 -31q0 -25 -33 -31q-57 -11 -73.5 -29t-3.5 -63l192 -741l160 616l-41 140
q-10 39 -24.5 52t-51.5 21q-45 11 -45 33q0 31 41 31l203 -6l196 8q45 3 45 -31q0 -26 -34 -31q-64 -10 -80 -28.5t-4 -63.5l196 -712l133 647q10 50 12 82t-20.5 48.5t-79.5 20.5q-20 1 -29.5 11t-9.5 22q0 14 11 22.5t30 8.5l166 -4l113 6q39 3 39 -27q0 -27 -37 -35
q-47 -11 -71.5 -43t-41.5 -108l-235 -1096q-3 -17 -14 -31t-27 -14zM537 1645q18 32 49.5 44.5t62.5 4.5t53 -31l189 -197q24 -26 13.5 -44.5t-40.5 -10.5l-262 78q-48 14 -69 63t4 93z" />
    <glyph glyph-name="wgrave" unicode="&#x1e81;" horiz-adv-x="1335" 
d="M936 -41q-22 0 -31 29l-209 604l-213 -596q-12 -35 -34 -35q-11 0 -20.5 9t-12.5 20l-307 866q-14 43 -27.5 59.5t-34.5 22.5q-24 6 -30.5 22.5t4.5 30.5t32 13l160 -11l182 11q23 1 34 -12t4.5 -27.5t-27.5 -18.5q-50 -11 -65.5 -29.5t-2.5 -60.5l186 -551l135 391
l-55 164q-15 43 -27 57.5t-38 22.5q-25 7 -31 22.5t5 27.5t30 11l172 -8l190 11q17 1 27.5 -6.5t11.5 -18t-6.5 -20t-22.5 -13.5q-67 -11 -83.5 -26t-0.5 -64l173 -524l129 471q8 27 10 46.5t-1 39.5t-19 33t-44 18l-30 6q-19 5 -25 19.5t3 27t28 11.5l131 -9l96 11
q34 3 40 -23t-26 -39q-35 -15 -54 -44t-36 -93l-233 -805q-14 -43 -37 -43zM541 1466q41 41 92.5 30t83.5 -60l153 -238q18 -29 2 -45t-49 2l-252 135q-46 24 -57 79t27 97z" />
    <glyph glyph-name="Wacute" unicode="&#x1e82;" horiz-adv-x="1476" 
d="M1057 -39q-28 0 -35 31l-266 909l-238 -901q-9 -37 -37 -37q-10 0 -19.5 10t-12.5 21l-332 1175q-12 41 -28 56.5t-50 21.5q-45 9 -45 35q0 16 13.5 25.5t31.5 9.5l192 -8l199 8q45 3 45 -31q0 -25 -33 -31q-57 -11 -73.5 -29t-3.5 -63l192 -741l160 616l-41 140
q-10 39 -24.5 52t-51.5 21q-45 11 -45 33q0 31 41 31l203 -6l196 8q45 3 45 -31q0 -26 -34 -31q-64 -10 -80 -28.5t-4 -63.5l196 -712l133 647q10 50 12 82t-20.5 48.5t-79.5 20.5q-20 1 -29.5 11t-9.5 22q0 14 11 22.5t30 8.5l166 -4l113 6q39 3 39 -27q0 -27 -37 -35
q-47 -11 -71.5 -43t-41.5 -108l-235 -1096q-3 -17 -14 -31t-27 -14zM616 1481l136 174q30 40 77.5 40t77.5 -44q24 -49 6.5 -91.5t-57.5 -58.5l-197 -86q-39 -17 -54.5 6t11.5 60z" />
    <glyph glyph-name="wacute" unicode="&#x1e83;" horiz-adv-x="1335" 
d="M936 -41q-22 0 -31 29l-209 604l-213 -596q-12 -35 -34 -35q-11 0 -20.5 9t-12.5 20l-307 866q-14 43 -27.5 59.5t-34.5 22.5q-24 6 -30.5 22.5t4.5 30.5t32 13l160 -11l182 11q23 1 34 -12t4.5 -27.5t-27.5 -18.5q-50 -11 -65.5 -29.5t-2.5 -60.5l186 -551l135 391
l-55 164q-15 43 -27 57.5t-38 22.5q-25 7 -31 22.5t5 27.5t30 11l172 -8l190 11q17 1 27.5 -6.5t11.5 -18t-6.5 -20t-22.5 -13.5q-67 -11 -83.5 -26t-0.5 -64l173 -524l129 471q8 27 10 46.5t-1 39.5t-19 33t-44 18l-30 6q-19 5 -25 19.5t3 27t28 11.5l131 -9l96 11
q34 3 40 -23t-26 -39q-35 -15 -54 -44t-36 -93l-233 -805q-14 -43 -37 -43zM604 1135q-6 7 -7.5 14.5t2.5 21t8 22.5t14 30l92 192q26 65 82.5 77.5t97.5 -36.5q31 -33 20.5 -84t-55.5 -80l-172 -131q-62 -46 -82 -26z" />
    <glyph glyph-name="Wdieresis" unicode="&#x1e84;" horiz-adv-x="1476" 
d="M1057 -39q-28 0 -35 31l-266 909l-238 -901q-9 -37 -37 -37q-10 0 -19.5 10t-12.5 21l-332 1175q-12 41 -28 56.5t-50 21.5q-45 9 -45 35q0 16 13.5 25.5t31.5 9.5l192 -8l199 8q45 3 45 -31q0 -25 -33 -31q-57 -11 -73.5 -29t-3.5 -63l192 -741l160 616l-41 140
q-10 39 -24.5 52t-51.5 21q-45 11 -45 33q0 31 41 31l203 -6l196 8q45 3 45 -31q0 -26 -34 -31q-64 -10 -80 -28.5t-4 -63.5l196 -712l133 647q10 50 12 82t-20.5 48.5t-79.5 20.5q-20 1 -29.5 11t-9.5 22q0 14 11 22.5t30 8.5l166 -4l113 6q39 3 39 -27q0 -27 -37 -35
q-47 -11 -71.5 -43t-41.5 -108l-235 -1096q-3 -17 -14 -31t-27 -14zM469 1528q0 57 37.5 96t91.5 39q46 0 78.5 -34t32.5 -81q0 -57 -37.5 -96t-91.5 -39q-46 0 -78.5 34t-32.5 81zM778 1524q0 57 37.5 96t91.5 39q46 0 78.5 -34t32.5 -81q0 -57 -37.5 -96t-91.5 -39
q-46 0 -78.5 34t-32.5 81z" />
    <glyph glyph-name="wdieresis" unicode="&#x1e85;" horiz-adv-x="1335" 
d="M936 -41q-22 0 -31 29l-209 604l-213 -596q-12 -35 -34 -35q-11 0 -20.5 9t-12.5 20l-307 866q-14 43 -27.5 59.5t-34.5 22.5q-24 6 -30.5 22.5t4.5 30.5t32 13l160 -11l182 11q23 1 34 -12t4.5 -27.5t-27.5 -18.5q-50 -11 -65.5 -29.5t-2.5 -60.5l186 -551l135 391
l-55 164q-15 43 -27 57.5t-38 22.5q-25 7 -31 22.5t5 27.5t30 11l172 -8l190 11q17 1 27.5 -6.5t11.5 -18t-6.5 -20t-22.5 -13.5q-67 -11 -83.5 -26t-0.5 -64l173 -524l129 471q8 27 10 46.5t-1 39.5t-19 33t-44 18l-30 6q-19 5 -25 19.5t3 27t28 11.5l131 -9l96 11
q34 3 40 -23t-26 -39q-35 -15 -54 -44t-36 -93l-233 -805q-14 -43 -37 -43zM410 1309q0 61 38.5 103t94.5 42q51 0 86 -37.5t35 -91.5q0 -64 -39.5 -107.5t-96.5 -43.5q-51 0 -84.5 39t-33.5 96zM743 1309q0 61 40.5 103t97.5 42q52 0 86 -37t34 -92q0 -64 -39 -107.5
t-98 -43.5q-51 0 -86 39t-35 96z" />
    <glyph glyph-name="uni1E9E" unicode="&#x1e9e;" horiz-adv-x="1538" 
d="M319 -29q-109 0 -192 25q-45 14 -67.5 35.5t-22.5 58.5v340q0 39 31 39q23 0 41 -43l75 -186q71 -193 191 -193q73 0 121.5 57.5t48.5 141.5q0 139 -129 246l-205 174q-90 78 -132 149t-42 162q0 79 33 146t86.5 109.5t118.5 66.5t131 24q100 0 190 -23q85 -23 82 -92
l-8 -268q0 -13 -8 -21t-19 -8q-23 0 -35 31l-69 170q-31 76 -68 107.5t-94 31.5q-69 0 -115.5 -50t-46.5 -124q0 -96 115 -196l184 -152q106 -87 155.5 -179t49.5 -200q0 -171 -116.5 -275t-283.5 -104zM823 90v340q0 39 31 39q23 0 41 -43l76 -186q71 -193 190 -193
q73 0 121.5 57.5t48.5 141.5q0 139 -129 246l-205 174q-90 78 -132 149t-42 162q0 79 33 146t86.5 109.5t118.5 66.5t131 24q100 0 190 -23q85 -23 82 -92l-8 -268q0 -13 -7.5 -21t-18.5 -8q-23 0 -35 31l-70 170q-31 76 -68 107.5t-94 31.5q-69 0 -115.5 -50t-46.5 -124
q0 -96 115 -196l184 -152q106 -87 155.5 -179t49.5 -200q0 -86 -32 -158.5t-87 -120t-127 -74t-153 -26.5q-110 0 -193 25q-45 14 -67.5 35.5t-22.5 58.5z" />
    <glyph glyph-name="Ygrave" unicode="&#x1ef2;" horiz-adv-x="1028" 
d="M156 1137q-28 57 -51 81t-56 37q-22 7 -28.5 22t4 27t30.5 11l209 -10l217 8q20 1 29.5 -11.5t3 -27.5t-26.5 -21l-28 -8q-78 -21 -47 -92l190 -403l182 403q23 41 1.5 65t-103.5 35q-22 4 -29 19.5t4.5 29t36.5 11.5l162 -10l113 10q36 3 41.5 -23.5t-27.5 -38.5
q-39 -14 -60 -37.5t-44 -74.5l-226 -492v-502q0 -31 16 -46.5t50 -32.5l33 -13q23 -9 31 -16.5t8 -20.5q0 -29 -48 -26l-200 10h-15l-200 -10q-47 -3 -47 26q0 13 8 20.5t30 16.5l31 13q35 16 51.5 32t16.5 47v455zM311 1645q18 32 49.5 44.5t63 4.5t53.5 -31l189 -197
q24 -26 13.5 -44.5t-40.5 -10.5l-262 78q-48 14 -69.5 63t3.5 93z" />
    <glyph glyph-name="ygrave" unicode="&#x1ef3;" horiz-adv-x="870" 
d="M209 -401q-63 0 -110.5 37t-47.5 90q0 42 31.5 73t71.5 31q42 0 94 -30.5t69 -30.5q23 0 37 41l54 167l-302 879q-16 49 -29 62.5t-44 23.5q-21 7 -24.5 23t8 28t28.5 11l170 -9l191 11q14 1 24 -4.5t13 -14t2 -17t-9 -15.5t-20 -9q-50 -8 -70 -18.5t-20 -36.5
q0 -13 6 -37l182 -561l148 493q16 58 16 91q0 53 -66 65l-34 8q-21 5 -27.5 19t4 26t31.5 11l145 -9l103 9q19 2 28.5 -10.5t4 -27.5t-24.5 -20q-41 -11 -59.5 -41t-43.5 -112l-317 -1028q-28 -87 -79 -127.5t-134 -40.5zM311 1466q41 41 92.5 30t83.5 -60l154 -238
q18 -29 2 -45t-49 2l-252 135q-46 24 -57.5 79t26.5 97z" />
    <glyph glyph-name="endash" unicode="&#x2013;" horiz-adv-x="702" 
d="M53 690q-43 0 -43 41q0 19 11.5 30t31.5 11h596q20 0 31.5 -11t11.5 -30q0 -41 -43 -41h-596z" />
    <glyph glyph-name="emdash" unicode="&#x2014;" horiz-adv-x="1144" 
d="M53 604q-43 0 -43 39v2q0 39 43 39h1039q43 0 43 -39v-2q0 -39 -43 -39h-1039z" />
    <glyph glyph-name="quoteleft" unicode="&#x2018;" horiz-adv-x="296" 
d="M27 950q0 95 53 202.5t123 162.5q23 17 36.5 0t-3.5 -39q-91 -104 -91 -184q0 -28 15.5 -44t54.5 -28q48 -12 51 -62q5 -84 -28 -135t-91 -51q-52 0 -86 51t-34 127z" />
    <glyph glyph-name="quoteright" unicode="&#x2019;" horiz-adv-x="294" 
d="M266 1151q0 -95 -53 -202.5t-123 -162.5q-23 -17 -36.5 0t3.5 39q41 47 65.5 97t24.5 88q0 28 -15 43.5t-54 27.5q-48 12 -51 62q-5 84 27.5 135t90.5 51q52 0 86.5 -51t34.5 -127z" />
    <glyph glyph-name="quotesinglbase" unicode="&#x201a;" horiz-adv-x="294" 
d="M266 78q0 -95 -53 -202.5t-123 -162.5q-23 -17 -36.5 0t3.5 39q41 47 65.5 97t24.5 88q0 28 -15 43.5t-54 27.5q-48 12 -51 62q-5 84 27.5 135t90.5 51q52 0 86.5 -51t34.5 -127z" />
    <glyph glyph-name="quotedblleft" unicode="&#x201c;" horiz-adv-x="577" 
d="M311 948q0 95 53 202.5t123 162.5q23 17 36.5 0t-3.5 -39q-90 -103 -90 -184q0 -28 15.5 -44t54.5 -28q48 -12 51 -62q5 -84 -28 -135t-91 -51q-52 0 -86.5 51t-34.5 127zM29 948q0 95 53 202.5t123 162.5q23 17 36.5 0t-3.5 -39q-91 -104 -91 -184q0 -28 15.5 -44
t54.5 -28q48 -12 51 -62q5 -84 -27.5 -135t-90.5 -51q-52 0 -86.5 51t-34.5 127z" />
    <glyph glyph-name="quotedblright" unicode="&#x201d;" horiz-adv-x="577" 
d="M266 1151q0 -95 -53 -202.5t-123 -162.5q-23 -17 -36.5 0t3.5 39q41 47 65.5 97t24.5 88q0 28 -15 43.5t-54 27.5q-48 12 -51 62q-5 84 27.5 135t90.5 51q52 0 86.5 -51t34.5 -127zM309 1143q-5 84 28 135t91 51q52 0 86.5 -51t34.5 -127q0 -95 -53 -202.5t-123 -162.5
q-23 -17 -36.5 0t3.5 39q41 47 65.5 97t24.5 88q0 28 -15 43.5t-55 27.5q-48 12 -51 62z" />
    <glyph glyph-name="quotedblbase" unicode="&#x201e;" horiz-adv-x="575" 
d="M549 78q0 -95 -53 -202.5t-123 -162.5q-23 -17 -36.5 0t3.5 39q41 47 65.5 97t24.5 88q0 28 -15 43.5t-55 27.5q-48 12 -51 62q-5 84 28 135t91 51q52 0 86.5 -51t34.5 -127zM27 70q-5 84 27.5 135t90.5 51q52 0 86.5 -51t34.5 -127q0 -95 -53 -202.5t-123 -162.5
q-23 -17 -36.5 0t3.5 39q41 47 65.5 97t24.5 88q0 28 -15 43.5t-54 27.5q-48 12 -51 62z" />
    <glyph glyph-name="bullet" unicode="&#x2022;" horiz-adv-x="307" 
d="M156 516q-51 0 -87 41.5t-36 101.5q0 64 37 106t94 42q51 0 86 -42.5t35 -102.5q0 -64 -35.5 -105t-93.5 -41z" />
    <glyph glyph-name="guilsinglleft" unicode="&#x2039;" horiz-adv-x="425" 
d="M336 774q12 17 30 17t31 -15q15 -15 -12 -65l-199 -301l191 -336q24 -43 10 -60q-31 -35 -72 15l-266 311q-13 16 -17 22t-9 17t-5 22q0 7 1.5 13.5t3.5 11t6.5 11.5t7 10t8.5 10.5t8 9.5z" />
    <glyph glyph-name="guilsinglright" unicode="&#x203a;" horiz-adv-x="425" 
d="M123 41q-12 -17 -30.5 -17t-31.5 15q-15 15 13 65l198 302l-190 335q-24 43 -10 60q30 35 71 -15l267 -311q30 -38 30 -61q0 -24 -34 -66z" />
    <glyph glyph-name="Euro" unicode="&#x20ac;" horiz-adv-x="1052" 
d="M602 -23q-191 0 -308.5 143t-139.5 402h-113q-41 0 -41 37q0 35 41 35h109v37q0 44 2 67h-111q-41 0 -41 37q0 35 41 35h119q34 246 177.5 398.5t352.5 152.5q108 0 223 -27q57 -10 78 -36t13 -76l-39 -256q-6 -38 -32.5 -38.5t-39.5 36.5l-64 170q-29 80 -68.5 119.5
t-98.5 39.5q-111 0 -182 -131.5t-85 -351.5h498q41 0 41 -35q0 -37 -41 -37h-500v-20q0 -57 2 -84h498q41 0 41 -35q0 -37 -41 -37h-492q20 -193 91.5 -296t179.5 -103q46 0 86.5 21.5t72 61t54.5 82.5t45 99q12 31 35 23.5t16 -39.5q-19 -79 -52 -147.5t-79.5 -125
t-110.5 -89t-137 -32.5z" />
    <glyph glyph-name="trademark" unicode="&#x2122;" horiz-adv-x="878" 
d="M440 637q-113 0 -213.5 46t-162.5 127.5t-62 178.5q0 96 62 177t162.5 127t213.5 46q114 0 214.5 -46t161.5 -127t61 -177q0 -97 -61 -178.5t-161 -127.5t-215 -46zM78 989q0 -124 105.5 -208.5t256.5 -84.5q153 0 257 84.5t104 208.5t-104 207.5t-257 83.5
q-152 0 -257 -83.5t-105 -207.5zM154 1110v10q0 35 34 35h164q37 0 37 -35v-10q0 -35 -35 -35h-37v-221q0 -37 -36 -37h-21q-15 0 -25 10t-10 27v221h-37q-34 0 -34 35zM406 854v264q0 37 36 37h56q14 0 25 -9t14 -24l41 -168l38 168q7 33 41 33h29q35 0 35 -37v-264
q0 -37 -35 -37h-16q-37 0 -37 37v129l-41 -135q-9 -31 -33 -31t-33 31l-41 151v-145q0 -37 -30 -37h-17q-32 0 -32 37z" />
    <glyph glyph-name="uni274B" unicode="&#x274b;" horiz-adv-x="1333" 
d="M684 -31q-57 0 -89 47t-20 103l82 438q3 17 -8 20.5t-20 -10.5l-236 -350q-31 -46 -86.5 -57t-95.5 28q-40 44 -28.5 97t59.5 84l352 237q13 9 8 18.5t-20 6.5l-439 -82q-56 -11 -102.5 21t-46.5 87q0 58 46 88t103 17l439 -80q15 -2 20 8t-8 19l-352 235
q-46 31 -57 85.5t30 94.5q43 41 95 30t83 -58l240 -355q9 -12 17.5 -7.5t6.5 18.5l-82 442q-12 56 20 102.5t89 46.5t86 -46t18 -103l-79 -438q-3 -15 5.5 -19t16.5 8l238 351q31 47 83 58t97 -30q39 -40 28 -94.5t-57 -85.5l-350 -235q-14 -9 -10 -19.5t22 -7.5l437 80
q57 13 103 -17t46 -88q0 -55 -46.5 -87t-102.5 -21l-441 82q-15 3 -18 -6.5t10 -18.5l352 -237q46 -31 57.5 -83.5t-28.5 -97.5q-40 -39 -95.5 -28t-86.5 57l-234 350q-11 14 -20.5 10.5t-5.5 -20.5l79 -438q11 -57 -18 -103.5t-86 -46.5z" />
    <glyph glyph-name="uni004A0301" horiz-adv-x="790" 
d="M408 229v914l-2 16q0 32 -16 49t-48 31l-31 14q-23 9 -31 16t-8 19q0 32 45 29l199 -10h27l182 10q43 3 43 -29q0 -12 -8 -19t-29 -16l-29 -14q-30 -14 -44.5 -31t-14.5 -49v-866q0 -145 -97 -231.5t-261 -86.5q-115 0 -200 50t-85 135q0 49 29.5 80.5t74.5 31.5
q82 0 132 -110q29 -61 49 -86t51 -25q72 0 72 178zM164 1481l135 174q30 40 78 40t78 -44q24 -49 6 -91.5t-58 -58.5l-196 -86q-39 -17 -54.5 6t11.5 60z" />
    <glyph glyph-name="uni006A0301" horiz-adv-x="454" 
d="M6 -383q-102 0 -178 44.5t-76 117.5q0 38 30 66t71 28q77 0 131 -94q16 -28 22.5 -38t19 -25.5t24.5 -21t28 -5.5q35 0 55.5 34t20.5 89q-1 27 -11 110t-10 160v672q0 39 -11 53.5t-42 17.5l-35 4q-37 3 -37 25q0 26 31 35q123 38 246 133q19 14 39 14q24 0 24 -41v-1028
q0 -156 -96 -253t-246 -97zM131 1135q-6 7 -7.5 15t2 20.5t8 22.5l13.5 30l93 192q26 65 82.5 77.5t97.5 -36.5q31 -33 20.5 -84t-55.5 -80l-172 -131q-62 -46 -82 -26z" />
    <glyph glyph-name="f.ss01" horiz-adv-x="563" 
d="M227 0l-159 -8q-43 -3 -43 26q0 21 34 37l21 8q51 23 51 87v677q0 40 -11.5 56.5t-41.5 17.5l-66 4q-37 3 -37 27q0 28 29 37l129 28v115q0 149 82.5 237.5t218.5 88.5q91 0 164.5 -51t73.5 -117q0 -35 -27.5 -61.5t-62.5 -26.5t-64.5 23t-64.5 75q-32 48 -52 66t-45 18
q-38 0 -54.5 -47t-4.5 -121l41 -199h184q45 0 45 -43v-2q0 -45 -45 -45h-176v-757q0 -62 64 -87l22 -8q24 -9 33.5 -17t9.5 -20q0 -29 -51 -26l-193 8h-4z" />
    <glyph glyph-name="k.ss02" horiz-adv-x="913" 
d="M227 0l-157 -8q-45 -3 -45 26q0 20 36 37l21 8q51 25 51 87v978q0 39 -11.5 53.5t-43.5 20.5l-27 4q-35 7 -35 27q0 26 29 35q130 42 236 129q16 14 38 14q25 0 25 -39l2 -776l246 252q59 64 -29 88l-12 2q-35 8 -35 33q0 13 11 22t28 8l162 -8l147 11q37 3 37 -29
q0 -22 -35 -33q-38 -15 -53.5 -21.5t-47.5 -27.5t-60 -49l-179 -180l273 -535q18 -34 36.5 -51t51.5 -27q31 -10 31 -28q0 -34 -44 -31l-180 8q-47 3 -67 20t-49 74l-232 469l2 -405v-8q0 -63 49 -87l19 -8q35 -17 35 -37q0 -29 -43 -26l-150 8h-31z" />
    <glyph glyph-name="zero.lf" horiz-adv-x="1001" 
d="M489 -27q-199 0 -316.5 185t-117.5 487q0 192 61.5 351t166 249t229.5 90q200 0 316 -187t116 -493q0 -189 -60.5 -346t-165 -246.5t-229.5 -89.5zM303 672q0 -176 25.5 -319t72.5 -224.5t105 -81.5q93 0 141.5 151.5t48.5 430.5q0 273 -56 453t-144 180
q-93 0 -143 -154.5t-50 -435.5z" />
    <glyph glyph-name="one.lf" horiz-adv-x="561" 
d="M291 0l-217 -10q-51 -3 -51 26q0 13 9 20t34 17l34 13q36 16 53 32t17 47v17l2 962q0 41 -15 47t-83 -16q-60 -21 -60 21q0 29 66 51l250 86q44 15 64 4.5t20 -49.5l-4 -1106v-17q0 -31 13.5 -47.5t43.5 -31.5l27 -13q34 -16 34 -37q0 -29 -41 -26l-176 10h-20z" />
    <glyph glyph-name="two.lf" horiz-adv-x="794" 
d="M680 -63q-23 0 -39 32q-19 31 -45 31h-520q-40 0 -45.5 19.5t20.5 66.5q50 92 124.5 218t121 207.5t94.5 177.5t71 180.5t23 162.5q0 102 -37 158.5t-102 56.5q-97 0 -163 -95t-42 -261q6 -66 -30 -66q-22 -3 -32 14t-13 58q-6 106 20 190.5t74 135t108 76.5t127 26
q147 0 238.5 -91t91.5 -224q0 -73 -26.5 -139.5t-80.5 -136t-113.5 -134.5t-149.5 -170.5t-165 -210.5l371 2q34 0 52.5 16t39.5 58q6 13 18 39.5t18.5 39.5t16 28.5t18 22.5t17.5 7q29 0 23 -53l-55 -414q-3 -28 -29 -28z" />
    <glyph glyph-name="three.lf" horiz-adv-x="757" 
d="M285 -29q-112 -1 -191.5 45.5t-79.5 112.5q0 40 28 70t69 30q31 0 56.5 -18.5t43 -45t34 -53t37 -45t44.5 -18.5q48 0 87 55t60 148t19 201q-1 129 -47.5 197.5t-131.5 68.5q-37 0 -65 -14t-51.5 -34t-38.5 -26q-47 -20 -54 10q-6 23 16.5 43.5t104.5 71.5q46 28 75.5 51
t61 57.5t47 78.5t15.5 98q0 85 -35 133.5t-98 48.5q-69 0 -118 -68t-42 -178q2 -29 -14 -40.5t-33 0t-18 36.5q-3 80 22 146t69 108t101 65t119 23q126 0 206.5 -72t80.5 -180q0 -75 -67.5 -146t-164.5 -110q138 -4 219.5 -97.5t83.5 -242.5q1 -126 -63.5 -245t-169.5 -192
t-217 -73z" />
    <glyph glyph-name="four.lf" horiz-adv-x="845" 
d="M53 281q-38 0 -46.5 27t18.5 61q137 174 286.5 460.5t202.5 503.5q7 27 27 35t34.5 -7t6.5 -44q-44 -181 -156 -411.5t-238 -428.5l226 2l4 250q0 39 24 66l136 172q22 26 39.5 18.5t17.5 -41.5l-6 -465h61q29 0 44.5 12.5t33.5 47.5q27 49 45 49q28 0 21 -51l-31 -234
q-2 -18 -9.5 -24.5t-27.5 -6.5l-139 2l-2 -112v-17q0 -31 14 -47t45 -32l29 -15q21 -9 29 -16t8 -19q0 -31 -43 -28l-187 12h-12l-186 -10q-46 -3 -46 26q0 13 8.5 20t30.5 17l29 13q31 16 45 32t14 47l5 17l2 114z" />
    <glyph glyph-name="five.lf" horiz-adv-x="731" 
d="M287 -29q-112 -1 -197.5 54t-85.5 127q0 40 27.5 70t68.5 30q39 0 70 -31.5t49 -70t44 -70t56 -31.5q69 0 117.5 77.5t46.5 170.5q-2 146 -97 239t-261 103q-26 1 -34 14.5t-5 40.5l80 559q6 52 55 52l338 2q40 0 55.5 9t28.5 34q30 55 49 55q29 0 23 -53l-27 -246
q-2 -19 -11 -27t-30 -8l-442 4l-35 -219q254 -25 391.5 -138.5t138.5 -299.5q1 -108 -55 -211.5t-153 -169.5t-205 -66z" />
    <glyph glyph-name="six.lf" horiz-adv-x="892" 
d="M436 -29q-120 3 -211 74t-139.5 195.5t-48.5 285.5q0 187 83.5 360t219.5 290.5t293 158.5q41 11 49.5 -11.5t-33.5 -45.5q-126 -66 -222.5 -209.5t-131.5 -339.5q41 69 104 106t129 37q143 0 236.5 -119.5t93.5 -306.5q0 -199 -122.5 -338.5t-299.5 -136.5zM279 524
q1 -134 24 -244t66 -175t98 -64q66 2 105.5 93t39.5 255q0 169 -41.5 269t-117.5 106q-58 0 -110.5 -61t-63.5 -179z" />
    <glyph glyph-name="seven.lf" horiz-adv-x="700" 
d="M4 991l35 281q2 19 11 27t30 8l582 -2q31 0 34.5 -23.5t-18.5 -52.5q-145 -183 -222 -503.5t-63 -627.5q4 -85 -51.5 -119t-112.5 1t-57 118q0 199 97 468t257 517h-366q-39 0 -53 -15.5t-35 -76.5q-18 -53 -45 -53q-29 0 -23 53z" />
    <glyph glyph-name="eight.lf" horiz-adv-x="806" 
d="M385 -27q-146 0 -250 98.5t-104 237.5q0 105 63.5 202t163.5 142q-177 149 -180 326q-1 91 43.5 170.5t122.5 128t170 49.5q134 1 225.5 -85t91.5 -210q0 -78 -53 -152t-148 -126q128 -97 187 -192.5t59 -205.5q2 -101 -51 -189.5t-144 -141t-196 -52.5zM217 326
q0 -116 59 -198.5t142 -82.5t137.5 59t52.5 140q-3 163 -262 342l-35 24q-44 -52 -69 -129t-25 -155zM229 1090q0 -65 55.5 -132.5t182.5 -156.5q82 85 82 233q0 99 -45 160.5t-119 60.5q-67 -1 -111.5 -50t-44.5 -115z" />
    <glyph glyph-name="nine.lf" horiz-adv-x="892" 
d="M457 1335q120 -3 211 -74t139.5 -195.5t48.5 -285.5q0 -187 -83.5 -360t-219.5 -290.5t-293 -158.5q-41 -11 -49.5 12t33.5 46q126 66 222.5 209.5t131.5 339.5q-41 -70 -104 -107t-129 -37q-143 0 -236.5 119.5t-93.5 306.5q0 199 122.5 338.5t299.5 136.5zM281 918
q0 -169 41.5 -269t117.5 -106q58 0 110.5 60.5t63.5 178.5q-1 134 -24 244t-66 175.5t-98 64.5q-66 -2 -105.5 -93t-39.5 -255z" />
    <glyph glyph-name="zero.osf" horiz-adv-x="968" 
d="M467 -31q-128 0 -222 80t-142 220.5t-48 324.5q0 175 61 322.5t164.5 232t223.5 84.5q191 0 299 -173t108 -456q0 -130 -35.5 -248t-95 -202.5t-141.5 -134.5t-172 -50zM303 621q0 -247 53.5 -413.5t135.5 -166.5q84 0 128 141.5t44 395.5q0 250 -51.5 417.5
t-133.5 167.5q-84 0 -130 -143.5t-46 -398.5z" />
    <glyph glyph-name="one.osf" horiz-adv-x="550" 
d="M285 0l-209 -10q-49 -3 -49 26q0 13 8.5 20t32.5 17l32 13q35 16 51.5 32t16.5 47v17l2 874q0 41 -14 47t-72 -16q-59 -21 -59 20q0 31 65 52l238 86q44 15 64 4.5t20 -49.5l-4 -1018v-17q0 -31 13.5 -47t43.5 -32l27 -13q34 -16 34 -37q0 -29 -41 -26l-176 10h-24z" />
    <glyph glyph-name="two.osf" horiz-adv-x="806" 
d="M692 -63q-25 0 -41 32q-19 31 -43 31h-534q-40 0 -45.5 19.5t20.5 66.5q62 115 154.5 251.5t153.5 221.5t107 188t46 193q0 102 -42 158.5t-116 56.5q-42 0 -82 -22t-72.5 -66.5t-44.5 -111.5t1 -156q4 -30 -4.5 -47t-26.5 -19q-22 -3 -31 13.5t-12 58.5
q-10 104 14.5 188t73.5 135t112 78t132 27q150 0 244 -91.5t94 -223.5q0 -68 -29 -127t-85.5 -117.5t-120 -115.5t-154 -149t-166.5 -190l378 2q34 0 53 16t40 58q7 14 18.5 39.5t18 39t15.5 29t17.5 22.5t16.5 7q18 0 22.5 -13t1.5 -40l-57 -414q-3 -28 -27 -28z" />
    <glyph glyph-name="three.osf" horiz-adv-x="747" 
d="M279 -338q58 0 106 76.5t74 206t24 282.5q-2 146 -50.5 227t-137.5 81q-38 0 -66.5 -14t-52 -34t-37.5 -26q-48 -20 -55 10q-4 24 17 43.5t104 73.5q51 30 87.5 59.5t70.5 70.5t51.5 95.5t17.5 120.5q0 95 -38.5 147t-106.5 52q-70 0 -119.5 -68t-42.5 -178
q1 -30 -15 -41.5t-33 0t-18 37.5q-3 80 22 146t69.5 108t100.5 65t118 23q134 0 218.5 -75.5t84.5 -193.5q0 -94 -75.5 -182t-186.5 -137q143 -3 228 -109.5t87 -269.5q1 -82 -21.5 -174.5t-67.5 -180.5t-104.5 -160t-138.5 -116t-162 -45q-113 0 -194.5 45.5t-81.5 108.5
q0 40 27.5 70t68.5 30q32 0 59 -18t45.5 -43.5t36 -51t39.5 -43.5t48 -18z" />
    <glyph glyph-name="four.osf" horiz-adv-x="835" 
d="M57 285q-39 0 -46.5 27t18.5 61q139 199 289 506.5t204 550.5q7 29 27 39t34.5 -4.5t6.5 -45.5q-82 -374 -406 -940h215l4 256q0 32 25 60l141 168q22 26 40 19t18 -42l-6 -461h59q28 0 41 8.5t24 28.5q5 8 14 24t14.5 24.5t13.5 16t16 7.5q16 0 20.5 -12t1.5 -37
l-30 -232q-2 -18 -10.5 -25.5t-28.5 -7.5l-138 2l-2 -114v-17q-1 -31 13.5 -46.5t46.5 -32.5l29 -15q21 -9 28.5 -16t7.5 -19q0 -31 -45 -28l-186 12h-16l-187 -10q-43 -3 -43 26q0 13 8 20t29 17l29 13q32 16 46.5 32t14.5 47l2 17l2 119z" />
    <glyph glyph-name="five.osf" horiz-adv-x="716" 
d="M10 -420q-49 -18 -60 6q-10 21 20 44q9 8 22 14q208 95 322 248.5t114 312.5q0 128 -90.5 212t-247.5 99q-47 3 -37 57l127 574q6 28 18.5 39.5t37.5 11.5h301q41 0 57.5 11t34.5 48l11 22t10 17t13 15t13 4q28 0 22 -53l-30 -265q-2 -19 -10.5 -26.5t-30.5 -7.5l-416 6
l-57 -232q499 -67 499 -450q0 -205 -181 -404t-462 -303z" />
    <glyph glyph-name="six.osf" horiz-adv-x="956" 
d="M457 -29q-124 3 -218.5 73.5t-145 192t-50.5 275.5q0 194 84.5 376t242 325.5t365.5 224.5q41 17 53 -7t-26 -47q-350 -214 -440 -581q45 62 108.5 95.5t130.5 33.5q155 0 253.5 -126.5t98.5 -330.5q0 -140 -60.5 -257t-165.5 -183t-230 -64zM289 522q0 -198 56.5 -336
t148.5 -137q78 2 127 96t49 267q0 185 -54 298t-137 113q-34 0 -66 -16.5t-60 -50.5t-45.5 -94.5t-18.5 -139.5z" />
    <glyph glyph-name="seven.osf" horiz-adv-x="686" 
d="M0 905l35 275q3 18 11.5 25t29.5 7h577q31 0 35 -22t-16 -51q-138 -226 -272.5 -640.5t-192.5 -850.5q-5 -31 -24.5 -42.5t-35 3.5t-10.5 49q53 368 157.5 718.5t225.5 608.5h-360q-34 0 -49.5 -10t-30.5 -41q-2 -4 -5.5 -12.5t-5.5 -13t-5.5 -12t-6 -12t-6 -10.5
t-6.5 -9l-6.5 -6.5t-7.5 -5t-8 -1.5q-29 0 -23 53z" />
    <glyph glyph-name="eight.osf" horiz-adv-x="841" 
d="M420 -27q-161 0 -273 94.5t-112 229.5q0 97 65 180.5t172 124.5q-187 133 -190 301q-1 88 44.5 164.5t126 122.5t175.5 47q139 1 239.5 -82.5t100.5 -200.5q0 -72 -55.5 -136.5t-155.5 -108.5q134 -86 194 -174.5t60 -198.5q0 -148 -116.5 -255.5t-274.5 -107.5zM219 311
q0 -112 64.5 -191t154.5 -79q87 0 145 56.5t56 135.5q-3 160 -274 310l-35 20q-51 -45 -81 -112t-30 -140zM236 1012q0 -63 58.5 -124t192.5 -138q103 83 103 206q0 95 -51.5 155.5t-130.5 59.5q-75 -1 -123.5 -48.5t-48.5 -110.5z" />
    <glyph glyph-name="nine.osf" horiz-adv-x="937" 
d="M188 -395q-25 -10 -39.5 -5t-11 23.5t26.5 36.5q189 139 308.5 345t160.5 446q-43 -67 -108.5 -104.5t-133.5 -37.5q-152 0 -250 118t-98 310q0 211 130 357t312 143q188 -5 300 -151.5t112 -389.5q0 -208 -85.5 -418.5t-248.5 -389.5t-375 -283zM287 801q0 -171 52 -278
t130 -107q70 0 125.5 71t56.5 209q-2 201 -55 336t-137 135q-79 -2 -125.5 -98.5t-46.5 -267.5z" />
    <glyph glyph-name="sterling.ss04" horiz-adv-x="835" 
d="M717 -63q-23 0 -39 32q-19 31 -43 31h-516q-68 0 -68 37q0 28 45 43q65 21 103.5 81.5t38.5 147.5q0 19 -1.5 38t-5.5 42t-7 38t-11 42.5t-11 39t-13 45t-13 42.5h-104q-41 0 -41 37t41 37h86q-33 136 -33 243q-1 187 115.5 301.5t287.5 114.5q91 0 181 -22
q85 -23 82 -93l-9 -268q0 -13 -7.5 -20.5t-18.5 -7.5q-22 0 -35 30l-70 170q-30 75 -65.5 107t-85.5 32q-66 0 -109 -60.5t-43 -162.5q0 -132 58 -340h354q41 0 41 -37q0 -36 -41 -36h-334q43 -165 43 -261q0 -101 -52.5 -182t-137.5 -117l202 2q36 0 61 9t47.5 36t39.5 58
t45 92q8 18 24 53.5t23.5 50.5t19 35t20 27.5t17.5 7.5q31 0 25 -53l-58 -414q-3 -28 -28 -28z" />
    <glyph glyph-name="uni030C.alt" 
d="M225 1184q0 -92 -49 -197t-115 -158q-21 -17 -33 -0.5t3 37.5q84 100 84 181q0 26 -14.5 41.5t-51.5 27.5q-44 12 -47 60q-5 80 26 130t85 50q47 0 79.5 -50t32.5 -122z" />
    <glyph glyph-name="uni0308.case" 
d="M150 987q-46 0 -78.5 34t-32.5 81q0 57 37.5 96t91.5 39q46 0 78.5 -34t32.5 -81q0 -57 -37.5 -96t-91.5 -39zM348 1098q0 57 37.5 96t91.5 39q46 0 78.5 -34t32.5 -81q0 -57 -37.5 -96t-91.5 -39q-46 0 -78.5 34t-32.5 81z" />
    <glyph glyph-name="uni0307.case" 
d="M150 987q-46 0 -78.5 34t-32.5 81q0 57 37.5 96t91.5 39q46 0 78.5 -34t32.5 -81q0 -57 -37.5 -96t-91.5 -39z" />
    <glyph glyph-name="gravecomb.case" 
d="M119 1489q-48 14 -69.5 63t3.5 93q18 32 49.5 44.5t63 4.5t53.5 -31l189 -197q24 -26 13.5 -44.5t-40.5 -10.5z" />
    <glyph glyph-name="acutecomb.case" 
d="M104 1395q-39 -17 -54.5 5.5t11.5 59.5l136 174q30 40 77.5 40t77.5 -44q24 -49 6.5 -91t-57.5 -58z" />
    <glyph glyph-name="uni030B.case" 
d="M45 1010q-7 11 -5 22t13 37l127 205q18 53 59 67t74 -18q39 -29 34 -74t-52 -78l-186 -147q-24 -17 -33.5 -20.5t-30.5 6.5zM346 1014q-2 3 -3 6t-0.5 7t1.5 6.5t4.5 7.5t6 8.5t7.5 11t9 12.5l147 189q28 46 73 48.5t73 -32.5q27 -38 12 -79.5t-68 -65.5l-196 -117
q-26 -13 -39 -14.5t-27 12.5z" />
    <glyph glyph-name="uni0302.case" 
d="M535 1122q32 -34 16 -57.5t-57 -3.5l-215 110l-220 -102q-40 -22 -55 3.5t19 57.5l178 173q37 35 83.5 34.5t80.5 -37.5z" />
    <glyph glyph-name="uni030C.case" 
d="M336 1090q-67 -64 -139 4l-185 182q-30 28 -12.5 53t59.5 2l211 -104l211 96q37 19 53.5 -4t-12.5 -51z" />
    <glyph glyph-name="uni0306.case" 
d="M250 979q-106 0 -187 61q-45 33 -51 83.5t21 76.5q20 25 51 26.5t63 -20.5q98 -78 179 -78q67 0 123 39q30 21 45.5 -1t-5.5 -52q-100 -132 -239 -135z" />
    <glyph glyph-name="uni030A.case" 
d="M213 1028q-77 0 -133.5 55t-56.5 131q0 75 57 131t133 56t132 -56t56 -131q0 -76 -55.5 -131t-132.5 -55zM109 1214q0 -46 30.5 -78t73.5 -32t73.5 32t30.5 78t-30.5 78.5t-73.5 32.5t-73.5 -32.5t-30.5 -78.5z" />
    <glyph glyph-name="tildecomb.case" 
d="M524 1276q-38 0 -87.5 19.5t-89.5 43t-87 43t-82 19.5q-26 0 -43.5 -17t-46.5 -63q-11 -18 -27.5 -18t-22.5 14t3 35l51 98q31 61 60.5 85t76.5 24q53 0 122.5 -30.5t130.5 -61.5t93 -31q27 0 46 16.5t45 58.5q20 29 42 15t5 -45l-49 -95q-34 -63 -63.5 -86.5
t-76.5 -23.5z" />
    <glyph glyph-name="uni0304.case" 
d="M37 1057q-19 0 -24 4t-5 24q0 33 19.5 43.5t66.5 10.5h488q19 0 22.5 -4t3.5 -23q0 -33 -19 -44t-65 -11h-487z" />
    <glyph glyph-name="uni0327.case" 
d="M195 -432q-77 0 -119 26q-31 20 -16.5 45.5t46.5 10.5q36 -19 87 -19q38 0 63 24t25 60q0 43 -28 72t-83 35q-45 3 -29 45l60 145h65l-57 -137q68 -12 108.5 -52.5t40.5 -94.5q0 -71 -45 -115.5t-118 -44.5z" />
    <glyph glyph-name="uni0335.case" 
d="M53 688q-43 0 -43 39v2q0 39 43 39h596q43 0 43 -39v-2q0 -39 -43 -39h-596z" />
    <glyph glyph-name="uni0338.case" 
d="M-6 -139q-9 -26 -28.5 -31.5t-31 10.5t-2.5 43l557 1483q9 27 28.5 33.5t31 -9t2.5 -42.5z" />
    </font>
</defs>
</svg>
